osu file format v14

[General]
AudioFilename: audio.mp3
AudioLeadIn: 0
PreviewTime: 78469
Countdown: 0
SampleSet: Soft
StackLeniency: 0.7
Mode: 3
LetterboxInBreaks: 0
SpecialStyle: 0
WidescreenStoryboard: 0

[Editor]
Bookmarks: 66964,79236,101055,165146,178782
DistanceSpacing: 1.3
BeatDivisor: 4
GridSize: 4
TimelineZoom: 2.1

[Metadata]
Title:Happyx2 Days (LU-I Remix)
TitleUnicode:Happy×2 Days (LU-I Remix)
Artist:CANDY ISLAND
ArtistUnicode:CANDY ISLAND
Creator:DenYi
Version:Happy Happy
Source:アイドルマスター シンデレラガールズ
Tags:THE IM@S IMAS IDOLM@STER IDOLMASTER CINDERELLA GIRLS ANIMATION PROJECT 04 三村かな子 Mimura Kanako 緒方智絵里 Ogata Chieri 双葉杏 Futaba Anzu 大坪由佳 Ohtsubo Yuka 大空直美 Oozora Naomi 五十嵐裕美 Igarashi Hiromi PARTY P@RTY!! compilation vol.2 SPARK SP@RK!! COCC-17024 Episode 9 Ending ED Theme Anime Japanese Electronic
BeatmapID:4011236
BeatmapSetID:1940058

[Difficulty]
HPDrainRate:8
CircleSize:4
OverallDifficulty:8
ApproachRate:5
SliderMultiplier:1.4
SliderTickRate:1

[Events]
//Background and Video events
0,0,"bbg.jpg",0,0
//Break Periods
//Storyboard Layer 0 (Background)
//Storyboard Layer 1 (Fail)
//Storyboard Layer 2 (Pass)
//Storyboard Layer 3 (Foreground)
//Storyboard Layer 4 (Overlay)
//Storyboard Sound Samples

[TimingPoints]
146,340.909090909091,4,2,1,50,1,0
79236,-100,4,2,1,50,0,1
106509,-100,4,2,1,50,0,0
129691,-100,4,2,1,50,0,1
156964,-100,4,2,1,50,0,0
200600,-100,4,2,1,50,0,1
221055,-100,4,2,1,50,0,0
222418,-100,4,2,1,50,0,1
249691,-100,4,2,1,50,0,0

[HitObjects]
64,192,1509,5,0,0:0:0:0:
192,192,1509,1,0,0:0:0:0:
448,192,1509,1,0,0:0:0:0:
192,192,1680,128,0,1850:0:0:0:0:
320,192,1850,1,0,0:0:0:0:
448,192,1850,1,0,0:0:0:0:
192,192,2021,128,0,2191:0:0:0:0:
320,192,2191,1,0,0:0:0:0:
448,192,2191,1,0,0:0:0:0:
192,192,2361,128,0,2532:0:0:0:0:
448,192,2532,1,0,0:0:0:0:
320,192,2532,1,0,0:0:0:0:
192,192,2702,128,0,2873:0:0:0:0:
320,192,2873,1,0,0:0:0:0:
448,192,2873,1,0,0:0:0:0:
192,192,3043,128,0,3214:0:0:0:0:
448,192,3214,1,0,0:0:0:0:
320,192,3214,1,0,0:0:0:0:
192,192,3384,128,0,3555:0:0:0:0:
320,192,3555,1,0,0:0:0:0:
448,192,3555,1,0,0:0:0:0:
192,192,3725,128,0,3896:0:0:0:0:
320,192,3896,1,0,0:0:0:0:
448,192,3896,1,0,0:0:0:0:
192,192,4066,128,0,4236:0:0:0:0:
448,192,4236,1,0,0:0:0:0:
320,192,4236,1,0,0:0:0:0:
192,192,4407,128,0,4577:0:0:0:0:
320,192,4577,1,0,0:0:0:0:
448,192,4577,1,0,0:0:0:0:
192,192,4748,128,0,4918:0:0:0:0:
320,192,4918,1,0,0:0:0:0:
448,192,4918,1,0,0:0:0:0:
192,192,5089,128,0,5259:0:0:0:0:
320,192,5259,1,0,0:0:0:0:
448,192,5259,1,0,0:0:0:0:
192,192,5430,128,0,5600:0:0:0:0:
320,192,5600,1,0,0:0:0:0:
448,192,5600,1,0,0:0:0:0:
320,192,5771,1,0,0:0:0:0:
64,192,5941,1,0,0:0:0:0:
192,192,5941,1,0,0:0:0:0:
320,192,6111,1,0,0:0:0:0:
448,192,6197,1,0,0:0:0:0:
192,192,6282,1,0,0:0:0:0:
320,192,6367,1,0,0:0:0:0:
64,192,6452,1,0,0:0:0:0:
448,192,6452,1,0,0:0:0:0:
320,192,6623,1,0,0:0:0:0:
192,192,6708,1,0,0:0:0:0:
320,192,6793,1,0,0:0:0:0:
192,192,6878,1,0,0:0:0:0:
448,192,6964,1,0,0:0:0:0:
320,192,6964,1,0,0:0:0:0:
64,192,6964,1,0,0:0:0:0:
320,192,7134,128,0,7305:0:0:0:0:
192,192,7305,1,0,0:0:0:0:
64,192,7305,1,0,0:0:0:0:
320,192,7475,128,0,7646:0:0:0:0:
192,192,7646,1,0,0:0:0:0:
64,192,7646,1,0,0:0:0:0:
320,192,7816,128,0,7986:0:0:0:0:
64,192,7986,1,0,0:0:0:0:
192,192,7986,1,0,0:0:0:0:
320,192,8157,128,0,8327:0:0:0:0:
192,192,8327,1,0,0:0:0:0:
64,192,8327,1,0,0:0:0:0:
320,192,8498,128,0,8668:0:0:0:0:
64,192,8668,1,0,0:0:0:0:
192,192,8668,1,0,0:0:0:0:
320,192,8839,128,0,9009:0:0:0:0:
192,192,9009,1,0,0:0:0:0:
64,192,9009,1,0,0:0:0:0:
320,192,9180,128,0,9350:0:0:0:0:
192,192,9350,1,0,0:0:0:0:
64,192,9350,1,0,0:0:0:0:
320,192,9521,128,0,9691:0:0:0:0:
64,192,9691,1,0,0:0:0:0:
192,192,9691,1,0,0:0:0:0:
320,192,9861,128,0,10032:0:0:0:0:
192,192,10032,1,0,0:0:0:0:
64,192,10032,1,0,0:0:0:0:
320,192,10202,128,0,10373:0:0:0:0:
192,192,10373,1,0,0:0:0:0:
64,192,10373,1,0,0:0:0:0:
320,192,10543,128,0,10714:0:0:0:0:
64,192,10714,1,0,0:0:0:0:
192,192,10714,1,0,0:0:0:0:
320,192,10884,128,0,11055:0:0:0:0:
192,192,11055,1,0,0:0:0:0:
64,192,11055,1,0,0:0:0:0:
192,192,11225,1,0,0:0:0:0:
320,192,11310,1,0,0:0:0:0:
64,192,11396,1,0,0:0:0:0:
192,192,11481,1,0,0:0:0:0:
320,192,11566,1,0,0:0:0:0:
448,192,11566,1,0,0:0:0:0:
64,192,11736,1,0,0:0:0:0:
192,192,11822,1,0,0:0:0:0:
448,192,11907,1,0,0:0:0:0:
320,192,11992,1,0,0:0:0:0:
192,192,12077,1,0,0:0:0:0:
64,192,12077,1,0,0:0:0:0:
64,192,12248,1,0,0:0:0:0:
192,192,12248,1,0,0:0:0:0:
320,192,12418,1,0,0:0:0:0:
64,192,12418,128,0,12759:0:0:0:0:
448,192,12418,128,0,12589:0:0:0:0:
192,192,12589,128,0,12759:0:0:0:0:
320,192,12759,128,0,12930:0:0:0:0:
448,192,12759,128,0,13100:0:0:0:0:
64,192,12930,128,0,13100:0:0:0:0:
192,192,13100,128,0,13271:0:0:0:0:
320,192,13100,1,0,0:0:0:0:
448,192,13271,1,0,0:0:0:0:
192,192,13441,128,0,13611:0:0:0:0:
320,192,13441,1,0,0:0:0:0:
64,192,13611,1,0,0:0:0:0:
320,192,13782,128,0,13952:0:0:0:0:
448,192,13782,128,0,14123:0:0:0:0:
64,192,13952,128,0,14123:0:0:0:0:
320,192,14123,128,0,14293:0:0:0:0:
192,192,14123,128,0,14464:0:0:0:0:
64,192,14293,128,0,14464:0:0:0:0:
320,192,14464,1,0,0:0:0:0:
448,192,14464,128,0,14634:0:0:0:0:
64,192,14634,1,0,0:0:0:0:
320,192,14805,1,0,0:0:0:0:
448,192,14805,128,0,14975:0:0:0:0:
192,192,14975,1,0,0:0:0:0:
64,192,15146,128,0,15486:0:0:0:0:
320,192,15146,128,0,15316:0:0:0:0:
192,192,15316,128,0,15486:0:0:0:0:
320,192,15486,128,0,15657:0:0:0:0:
448,192,15486,128,0,15827:0:0:0:0:
192,192,15657,128,0,15827:0:0:0:0:
320,192,15827,1,0,0:0:0:0:
64,192,15827,128,0,15998:0:0:0:0:
448,192,15998,1,0,0:0:0:0:
192,192,16168,1,0,0:0:0:0:
64,192,16168,128,0,16339:0:0:0:0:
320,192,16339,1,0,0:0:0:0:
64,192,16509,1,0,0:0:0:0:
448,192,16509,1,0,0:0:0:0:
448,192,16680,1,0,0:0:0:0:
320,192,16850,1,0,0:0:0:0:
192,192,16850,1,0,0:0:0:0:
64,192,17021,1,0,0:0:0:0:
448,192,17106,1,0,0:0:0:0:
192,192,17191,1,0,0:0:0:0:
320,192,17276,1,0,0:0:0:0:
64,192,17361,5,0,0:0:0:0:
448,192,17361,1,0,0:0:0:0:
192,192,17532,1,0,0:0:0:0:
320,192,17617,1,0,0:0:0:0:
192,192,17702,1,0,0:0:0:0:
320,192,17788,1,0,0:0:0:0:
192,192,17873,1,0,0:0:0:0:
448,192,17873,1,0,0:0:0:0:
64,192,17873,128,0,17958:0:0:0:0:
64,192,18043,128,0,18128:0:0:0:0:
64,192,18214,128,0,18299:0:0:0:0:
320,192,18214,1,0,0:0:0:0:
64,192,18384,128,0,18469:0:0:0:0:
64,192,18555,128,0,18640:0:0:0:0:
448,192,18555,128,0,18640:0:0:0:0:
448,192,18725,128,0,18810:0:0:0:0:
448,192,18896,128,0,18981:0:0:0:0:
64,192,18896,1,0,0:0:0:0:
448,192,19066,128,0,19151:0:0:0:0:
448,192,19236,128,0,19322:0:0:0:0:
192,192,19236,128,0,19322:0:0:0:0:
192,192,19407,128,0,19492:0:0:0:0:
320,192,19577,1,0,0:0:0:0:
192,192,19577,128,0,19663:0:0:0:0:
192,192,19748,128,0,19833:0:0:0:0:
192,192,19918,128,0,20003:0:0:0:0:
320,192,19918,128,0,20003:0:0:0:0:
320,192,20089,128,0,20174:0:0:0:0:
320,192,20259,128,0,20344:0:0:0:0:
192,192,20259,1,0,0:0:0:0:
320,192,20430,128,0,20515:0:0:0:0:
192,192,20430,1,0,0:0:0:0:
448,192,20600,1,0,0:0:0:0:
64,192,20600,128,0,20685:0:0:0:0:
192,192,20685,128,0,20771:0:0:0:0:
448,192,20771,128,0,20856:0:0:0:0:
320,192,20856,128,0,20941:0:0:0:0:
64,192,20941,128,0,21111:0:0:0:0:
192,192,20941,128,0,21026:0:0:0:0:
448,192,21026,128,0,21111:0:0:0:0:
320,192,21111,128,0,21197:0:0:0:0:
192,192,21197,128,0,21282:0:0:0:0:
448,192,21282,128,0,21367:0:0:0:0:
64,192,21282,1,0,0:0:0:0:
320,192,21367,128,0,21452:0:0:0:0:
64,192,21452,128,0,21538:0:0:0:0:
192,192,21538,128,0,21623:0:0:0:0:
320,192,21623,128,0,21708:0:0:0:0:
448,192,21623,128,0,21793:0:0:0:0:
64,192,21793,128,0,21878:0:0:0:0:
192,192,21878,128,0,21964:0:0:0:0:
448,192,21964,128,0,22305:0:0:0:0:
320,192,21964,128,0,22134:0:0:0:0:
64,192,22049,128,0,22305:0:0:0:0:
192,192,22134,128,0,22305:0:0:0:0:
320,192,22219,128,0,22305:0:0:0:0:
320,192,22986,5,0,0:0:0:0:
448,192,22986,1,0,0:0:0:0:
320,192,23157,1,0,0:0:0:0:
448,192,23157,1,0,0:0:0:0:
64,192,23327,128,0,23583:0:0:0:0:
192,192,23327,1,0,0:0:0:0:
448,192,23327,1,0,0:0:0:0:
320,192,23413,1,0,0:0:0:0:
192,192,23498,128,0,23668:0:0:0:0:
448,192,23668,128,0,23924:0:0:0:0:
64,192,23668,1,0,0:0:0:0:
192,192,23753,1,0,0:0:0:0:
320,192,23839,128,0,24009:0:0:0:0:
64,192,24009,128,0,24265:0:0:0:0:
448,192,24009,1,0,0:0:0:0:
320,192,24094,1,0,0:0:0:0:
192,192,24180,128,0,24350:0:0:0:0:
320,192,24265,1,0,0:0:0:0:
448,192,24350,128,0,24521:0:0:0:0:
64,192,24350,128,0,24521:0:0:0:0:
192,192,24435,1,0,0:0:0:0:
320,192,24521,1,0,0:0:0:0:
192,192,24691,128,0,24947:0:0:0:0:
448,192,24691,1,0,0:0:0:0:
64,192,24776,1,0,0:0:0:0:
320,192,24861,128,0,24947:0:0:0:0:
192,192,25032,128,0,25288:0:0:0:0:
448,192,25032,1,0,0:0:0:0:
64,192,25117,1,0,0:0:0:0:
320,192,25202,128,0,25288:0:0:0:0:
448,192,25373,128,0,25628:0:0:0:0:
320,192,25373,128,0,25543:0:0:0:0:
64,192,25458,128,0,25714:0:0:0:0:
192,192,25543,128,0,25714:0:0:0:0:
320,192,25714,128,0,25969:0:0:0:0:
448,192,25714,128,0,25884:0:0:0:0:
192,192,25799,128,0,25969:0:0:0:0:
64,192,25884,128,0,25969:0:0:0:0:
448,192,26055,128,0,26310:0:0:0:0:
64,192,26055,1,0,0:0:0:0:
192,192,26140,1,0,0:0:0:0:
320,192,26225,128,0,26396:0:0:0:0:
64,192,26396,128,0,26651:0:0:0:0:
448,192,26396,1,0,0:0:0:0:
320,192,26481,1,0,0:0:0:0:
192,192,26566,128,0,26736:0:0:0:0:
448,192,26736,128,0,26992:0:0:0:0:
64,192,26736,1,0,0:0:0:0:
192,192,26822,1,0,0:0:0:0:
320,192,26907,128,0,27077:0:0:0:0:
192,192,26992,1,0,0:0:0:0:
64,192,27077,128,0,27248:0:0:0:0:
448,192,27077,128,0,27248:0:0:0:0:
320,192,27163,1,0,0:0:0:0:
192,192,27248,1,0,0:0:0:0:
64,192,27418,128,0,27589:0:0:0:0:
448,192,27418,1,0,0:0:0:0:
192,192,27589,1,0,0:0:0:0:
320,192,27674,1,0,0:0:0:0:
64,192,27759,128,0,27930:0:0:0:0:
448,192,27759,1,0,0:0:0:0:
192,192,27930,1,0,0:0:0:0:
64,192,28100,128,0,28271:0:0:0:0:
448,192,28100,1,0,0:0:0:0:
192,192,28271,1,0,0:0:0:0:
64,192,28441,128,0,28611:0:0:0:0:
448,192,28441,1,0,0:0:0:0:
320,192,28611,1,0,0:0:0:0:
192,192,28697,1,0,0:0:0:0:
448,192,28782,1,0,0:0:0:0:
320,192,28782,128,0,29038:0:0:0:0:
64,192,28782,1,0,0:0:0:0:
192,192,28867,1,0,0:0:0:0:
448,192,28952,128,0,29123:0:0:0:0:
192,192,29123,128,0,29378:0:0:0:0:
320,192,29123,1,0,0:0:0:0:
64,192,29208,1,0,0:0:0:0:
320,192,29293,128,0,29464:0:0:0:0:
64,192,29464,128,0,29719:0:0:0:0:
192,192,29464,1,0,0:0:0:0:
448,192,29549,1,0,0:0:0:0:
192,192,29634,128,0,29805:0:0:0:0:
320,192,29719,1,0,0:0:0:0:
448,192,29805,128,0,29975:0:0:0:0:
64,192,29805,128,0,29975:0:0:0:0:
192,192,29890,1,0,0:0:0:0:
320,192,29975,1,0,0:0:0:0:
320,192,30146,128,0,30401:0:0:0:0:
64,192,30146,1,0,0:0:0:0:
448,192,30231,1,0,0:0:0:0:
192,192,30316,128,0,30401:0:0:0:0:
320,192,30486,128,0,30742:0:0:0:0:
64,192,30486,1,0,0:0:0:0:
448,192,30572,1,0,0:0:0:0:
192,192,30657,128,0,30742:0:0:0:0:
64,192,30827,128,0,31083:0:0:0:0:
192,192,30827,128,0,30998:0:0:0:0:
320,192,30913,128,0,31168:0:0:0:0:
448,192,30998,128,0,31168:0:0:0:0:
64,192,31168,128,0,31339:0:0:0:0:
192,192,31168,128,0,31424:0:0:0:0:
320,192,31253,128,0,31424:0:0:0:0:
448,192,31339,128,0,31424:0:0:0:0:
192,192,31509,128,0,31765:0:0:0:0:
64,192,31509,1,0,0:0:0:0:
448,192,31509,1,0,0:0:0:0:
320,192,31594,1,0,0:0:0:0:
64,192,31680,128,0,31850:0:0:0:0:
320,192,31850,128,0,32106:0:0:0:0:
192,192,31850,1,0,0:0:0:0:
448,192,31935,1,0,0:0:0:0:
192,192,32021,128,0,32191:0:0:0:0:
448,192,32191,128,0,32447:0:0:0:0:
320,192,32191,1,0,0:0:0:0:
64,192,32276,1,0,0:0:0:0:
320,192,32361,128,0,32532:0:0:0:0:
192,192,32447,1,0,0:0:0:0:
64,192,32532,128,0,32702:0:0:0:0:
448,192,32532,128,0,32702:0:0:0:0:
320,192,32617,1,0,0:0:0:0:
192,192,32702,1,0,0:0:0:0:
64,192,32873,1,0,0:0:0:0:
448,192,32873,128,0,33043:0:0:0:0:
320,192,33043,1,0,0:0:0:0:
64,192,33214,1,0,0:0:0:0:
448,192,33214,128,0,33384:0:0:0:0:
320,192,33384,1,0,0:0:0:0:
448,192,33555,128,0,33725:0:0:0:0:
64,192,33555,1,0,0:0:0:0:
192,192,33640,1,0,0:0:0:0:
320,192,33725,1,0,0:0:0:0:
64,192,33896,1,0,0:0:0:0:
448,192,33896,1,0,0:0:0:0:
320,192,33981,1,0,0:0:0:0:
448,192,34066,1,0,0:0:0:0:
64,192,34066,1,0,0:0:0:0:
192,192,34151,1,0,0:0:0:0:
448,192,34236,128,0,34492:0:0:0:0:
320,192,34236,1,0,0:0:0:0:
64,192,34236,1,0,0:0:0:0:
192,192,34322,1,0,0:0:0:0:
320,192,34407,128,0,34577:0:0:0:0:
64,192,34577,128,0,34833:0:0:0:0:
448,192,34577,1,0,0:0:0:0:
320,192,34663,1,0,0:0:0:0:
192,192,34748,128,0,34918:0:0:0:0:
448,192,34918,128,0,35174:0:0:0:0:
64,192,34918,1,0,0:0:0:0:
192,192,35003,1,0,0:0:0:0:
320,192,35089,128,0,35259:0:0:0:0:
192,192,35174,1,0,0:0:0:0:
64,192,35259,128,0,35430:0:0:0:0:
448,192,35259,128,0,35430:0:0:0:0:
320,192,35344,1,0,0:0:0:0:
192,192,35430,1,0,0:0:0:0:
320,192,35600,128,0,35856:0:0:0:0:
64,192,35600,1,0,0:0:0:0:
448,192,35685,1,0,0:0:0:0:
192,192,35771,128,0,35856:0:0:0:0:
320,192,35941,128,0,36197:0:0:0:0:
64,192,35941,1,0,0:0:0:0:
448,192,36026,1,0,0:0:0:0:
192,192,36111,128,0,36197:0:0:0:0:
64,192,36282,128,0,36538:0:0:0:0:
192,192,36282,128,0,36452:0:0:0:0:
320,192,36367,128,0,36623:0:0:0:0:
448,192,36452,128,0,36623:0:0:0:0:
192,192,36623,128,0,36793:0:0:0:0:
64,192,36623,128,0,36878:0:0:0:0:
448,192,36708,128,0,36878:0:0:0:0:
320,192,36793,128,0,36878:0:0:0:0:
64,192,36964,128,0,37219:0:0:0:0:
320,192,36964,1,0,0:0:0:0:
448,192,37049,1,0,0:0:0:0:
192,192,37134,128,0,37305:0:0:0:0:
448,192,37305,128,0,37560:0:0:0:0:
64,192,37305,1,0,0:0:0:0:
192,192,37390,1,0,0:0:0:0:
320,192,37475,128,0,37646:0:0:0:0:
64,192,37646,128,0,37901:0:0:0:0:
448,192,37646,1,0,0:0:0:0:
320,192,37731,1,0,0:0:0:0:
192,192,37816,128,0,37986:0:0:0:0:
320,192,37901,1,0,0:0:0:0:
448,192,37986,128,0,38157:0:0:0:0:
64,192,37986,128,0,38157:0:0:0:0:
192,192,38072,1,0,0:0:0:0:
320,192,38157,1,0,0:0:0:0:
64,192,38327,1,0,0:0:0:0:
448,192,38327,128,0,38498:0:0:0:0:
320,192,38498,1,0,0:0:0:0:
192,192,38583,1,0,0:0:0:0:
448,192,38668,128,0,38839:0:0:0:0:
64,192,38668,1,0,0:0:0:0:
320,192,38839,1,0,0:0:0:0:
448,192,39009,128,0,39180:0:0:0:0:
64,192,39009,1,0,0:0:0:0:
320,192,39180,1,0,0:0:0:0:
448,192,39350,128,0,39521:0:0:0:0:
64,192,39350,1,0,0:0:0:0:
192,192,39521,1,0,0:0:0:0:
320,192,39606,1,0,0:0:0:0:
64,192,39691,1,0,0:0:0:0:
192,192,39691,128,0,39947:0:0:0:0:
448,192,39691,1,0,0:0:0:0:
320,192,39776,1,0,0:0:0:0:
64,192,39861,128,0,40032:0:0:0:0:
320,192,40032,128,0,40288:0:0:0:0:
192,192,40032,1,0,0:0:0:0:
448,192,40117,1,0,0:0:0:0:
192,192,40202,128,0,40373:0:0:0:0:
448,192,40373,128,0,40628:0:0:0:0:
320,192,40373,1,0,0:0:0:0:
64,192,40458,1,0,0:0:0:0:
320,192,40543,128,0,40714:0:0:0:0:
192,192,40628,1,0,0:0:0:0:
64,192,40714,128,0,40884:0:0:0:0:
448,192,40714,128,0,40884:0:0:0:0:
320,192,40799,1,0,0:0:0:0:
192,192,40884,1,0,0:0:0:0:
192,192,41055,128,0,41310:0:0:0:0:
448,192,41055,1,0,0:0:0:0:
64,192,41140,1,0,0:0:0:0:
320,192,41225,128,0,41310:0:0:0:0:
192,192,41396,128,0,41651:0:0:0:0:
448,192,41396,1,0,0:0:0:0:
64,192,41481,1,0,0:0:0:0:
320,192,41566,128,0,41651:0:0:0:0:
448,192,41736,128,0,41992:0:0:0:0:
320,192,41736,128,0,41907:0:0:0:0:
192,192,41822,128,0,42077:0:0:0:0:
64,192,41907,128,0,42077:0:0:0:0:
320,192,42077,128,0,42333:0:0:0:0:
448,192,42077,128,0,42248:0:0:0:0:
64,192,42163,128,0,42333:0:0:0:0:
192,192,42248,128,0,42333:0:0:0:0:
320,192,42418,128,0,42674:0:0:0:0:
448,192,42418,1,0,0:0:0:0:
64,192,42418,1,0,0:0:0:0:
192,192,42503,1,0,0:0:0:0:
448,192,42589,128,0,42759:0:0:0:0:
192,192,42759,128,0,43015:0:0:0:0:
320,192,42759,1,0,0:0:0:0:
64,192,42844,1,0,0:0:0:0:
320,192,42930,128,0,43100:0:0:0:0:
64,192,43100,128,0,43356:0:0:0:0:
192,192,43100,1,0,0:0:0:0:
448,192,43185,1,0,0:0:0:0:
192,192,43271,128,0,43441:0:0:0:0:
320,192,43356,1,0,0:0:0:0:
448,192,43441,128,0,43611:0:0:0:0:
64,192,43441,128,0,43611:0:0:0:0:
192,192,43526,1,0,0:0:0:0:
320,192,43611,1,0,0:0:0:0:
64,192,43782,128,0,43952:0:0:0:0:
448,192,43782,128,0,43952:0:0:0:0:
192,192,43782,128,0,43952:0:0:0:0:
64,192,44123,128,0,44293:0:0:0:0:
192,192,44123,128,0,44293:0:0:0:0:
64,192,44464,128,0,44634:0:0:0:0:
448,192,44805,1,0,0:0:0:0:
320,192,44805,1,0,0:0:0:0:
448,192,44975,1,0,0:0:0:0:
320,192,44975,1,0,0:0:0:0:
64,192,45146,1,0,0:0:0:0:
192,192,45146,1,0,0:0:0:0:
448,192,45146,128,0,45316:0:0:0:0:
192,192,45316,128,0,45486:0:0:0:0:
448,192,45486,1,0,0:0:0:0:
64,192,45486,1,0,0:0:0:0:
320,192,45486,128,0,45657:0:0:0:0:
64,192,45657,128,0,45998:0:0:0:0:
192,192,45827,1,0,0:0:0:0:
320,192,45827,1,0,0:0:0:0:
448,192,45827,1,0,0:0:0:0:
448,192,45998,128,0,46168:0:0:0:0:
64,192,46168,1,0,0:0:0:0:
192,192,46168,1,0,0:0:0:0:
320,192,46168,1,0,0:0:0:0:
192,192,46339,128,0,46680:0:0:0:0:
320,192,46509,1,0,0:0:0:0:
448,192,46509,1,0,0:0:0:0:
64,192,46509,1,0,0:0:0:0:
448,192,46680,128,0,46850:0:0:0:0:
64,192,46850,128,0,47021:0:0:0:0:
192,192,46850,1,0,0:0:0:0:
320,192,46850,1,0,0:0:0:0:
320,192,47021,128,0,47532:0:0:0:0:
64,192,47191,1,0,0:0:0:0:
192,192,47191,1,0,0:0:0:0:
448,192,47191,1,0,0:0:0:0:
448,192,47361,1,0,0:0:0:0:
64,192,47532,1,0,0:0:0:0:
192,192,47532,1,0,0:0:0:0:
448,192,47532,1,0,0:0:0:0:
192,192,47702,1,0,0:0:0:0:
320,192,47873,1,0,0:0:0:0:
448,192,47873,1,0,0:0:0:0:
64,192,47873,128,0,48043:0:0:0:0:
448,192,48043,128,0,48214:0:0:0:0:
64,192,48214,1,0,0:0:0:0:
320,192,48214,1,0,0:0:0:0:
192,192,48214,128,0,48384:0:0:0:0:
320,192,48384,128,0,48725:0:0:0:0:
64,192,48555,1,0,0:0:0:0:
448,192,48555,1,0,0:0:0:0:
192,192,48555,1,0,0:0:0:0:
64,192,48725,128,0,48896:0:0:0:0:
192,192,48896,1,0,0:0:0:0:
320,192,48896,1,0,0:0:0:0:
448,192,48896,1,0,0:0:0:0:
448,192,49066,128,0,49407:0:0:0:0:
64,192,49236,1,0,0:0:0:0:
192,192,49236,1,0,0:0:0:0:
320,192,49236,1,0,0:0:0:0:
64,192,49407,128,0,49577:0:0:0:0:
192,192,49577,128,0,49748:0:0:0:0:
320,192,49577,1,0,0:0:0:0:
448,192,49577,1,0,0:0:0:0:
320,192,49748,128,0,50259:0:0:0:0:
64,192,49918,1,0,0:0:0:0:
448,192,49918,1,0,0:0:0:0:
192,192,49918,1,0,0:0:0:0:
192,192,50089,1,0,0:0:0:0:
64,192,50259,1,0,0:0:0:0:
192,192,50259,1,0,0:0:0:0:
448,192,50259,1,0,0:0:0:0:
64,192,50430,1,0,0:0:0:0:
448,192,50430,1,0,0:0:0:0:
448,192,50600,1,0,0:0:0:0:
64,192,50600,1,0,0:0:0:0:
320,192,50600,128,0,50771:0:0:0:0:
192,192,50771,128,0,50941:0:0:0:0:
448,192,50941,128,0,51111:0:0:0:0:
64,192,50941,1,0,0:0:0:0:
320,192,50941,1,0,0:0:0:0:
320,192,51111,128,0,51282:0:0:0:0:
64,192,51282,128,0,51452:0:0:0:0:
192,192,51282,1,0,0:0:0:0:
448,192,51282,1,0,0:0:0:0:
192,192,51452,128,0,51623:0:0:0:0:
320,192,51623,128,0,51793:0:0:0:0:
64,192,51623,1,0,0:0:0:0:
448,192,51623,1,0,0:0:0:0:
448,192,51793,128,0,52305:0:0:0:0:
320,192,51964,1,0,0:0:0:0:
64,192,51964,1,0,0:0:0:0:
192,192,51964,1,0,0:0:0:0:
320,192,52134,1,0,0:0:0:0:
64,192,52305,1,0,0:0:0:0:
320,192,52305,1,0,0:0:0:0:
192,192,52305,1,0,0:0:0:0:
192,192,52475,1,0,0:0:0:0:
64,192,52646,1,0,0:0:0:0:
320,192,52646,1,0,0:0:0:0:
448,192,52646,1,0,0:0:0:0:
192,192,52702,1,0,0:0:0:0:
320,192,52759,1,0,0:0:0:0:
448,192,52816,1,0,0:0:0:0:
64,192,52986,1,0,0:0:0:0:
192,192,52986,1,0,0:0:0:0:
320,192,52986,1,0,0:0:0:0:
192,192,53157,1,0,0:0:0:0:
320,192,53327,1,0,0:0:0:0:
448,192,53327,1,0,0:0:0:0:
64,192,53327,128,0,53498:0:0:0:0:
320,192,53498,128,0,53668:0:0:0:0:
64,192,53668,1,0,0:0:0:0:
448,192,53668,1,0,0:0:0:0:
192,192,53668,128,0,53839:0:0:0:0:
448,192,53839,1,0,0:0:0:0:
64,192,54009,1,0,0:0:0:0:
192,192,54009,1,0,0:0:0:0:
320,192,54009,128,0,54180:0:0:0:0:
192,192,54180,128,0,54350:0:0:0:0:
448,192,54350,1,0,0:0:0:0:
320,192,54350,1,0,0:0:0:0:
64,192,54350,128,0,54521:0:0:0:0:
448,192,54521,128,0,55373:0:0:0:0:
192,192,54691,1,0,0:0:0:0:
320,192,54691,1,0,0:0:0:0:
64,192,54691,1,0,0:0:0:0:
64,192,54861,1,0,0:0:0:0:
64,192,55032,1,0,0:0:0:0:
192,192,55032,1,0,0:0:0:0:
320,192,55032,1,0,0:0:0:0:
320,192,55202,1,0,0:0:0:0:
64,192,55373,1,0,0:0:0:0:
192,192,55373,1,0,0:0:0:0:
320,192,55373,1,0,0:0:0:0:
448,192,55458,1,0,0:0:0:0:
64,192,55543,1,0,0:0:0:0:
192,192,55628,1,0,0:0:0:0:
448,192,55714,1,0,0:0:0:0:
320,192,55714,1,0,0:0:0:0:
64,192,55799,1,0,0:0:0:0:
192,192,55799,1,0,0:0:0:0:
448,192,55884,1,0,0:0:0:0:
320,192,55884,1,0,0:0:0:0:
192,192,55969,1,0,0:0:0:0:
320,192,56055,1,0,0:0:0:0:
64,192,56055,1,0,0:0:0:0:
448,192,56055,128,0,56225:0:0:0:0:
192,192,56225,128,0,56566:0:0:0:0:
320,192,56396,128,0,56566:0:0:0:0:
448,192,56396,1,0,0:0:0:0:
64,192,56396,1,0,0:0:0:0:
64,192,56566,128,0,56907:0:0:0:0:
320,192,56736,1,0,0:0:0:0:
448,192,56736,1,0,0:0:0:0:
192,192,56736,1,0,0:0:0:0:
448,192,56907,128,0,57077:0:0:0:0:
64,192,57077,1,0,0:0:0:0:
192,192,57077,1,0,0:0:0:0:
320,192,57077,1,0,0:0:0:0:
192,192,57248,128,0,57589:0:0:0:0:
448,192,57418,1,0,0:0:0:0:
320,192,57418,1,0,0:0:0:0:
64,192,57418,1,0,0:0:0:0:
448,192,57589,128,0,57930:0:0:0:0:
320,192,57759,128,0,57930:0:0:0:0:
64,192,57759,1,0,0:0:0:0:
192,192,57759,1,0,0:0:0:0:
64,192,57930,128,0,58441:0:0:0:0:
192,192,58100,1,0,0:0:0:0:
448,192,58100,1,0,0:0:0:0:
320,192,58100,1,0,0:0:0:0:
320,192,58271,1,0,0:0:0:0:
192,192,58441,1,0,0:0:0:0:
320,192,58441,1,0,0:0:0:0:
448,192,58441,1,0,0:0:0:0:
192,192,58611,1,0,0:0:0:0:
320,192,58782,128,0,58952:0:0:0:0:
64,192,58782,1,0,0:0:0:0:
448,192,58782,1,0,0:0:0:0:
64,192,58952,128,0,59293:0:0:0:0:
192,192,59123,128,0,59293:0:0:0:0:
448,192,59123,1,0,0:0:0:0:
320,192,59123,1,0,0:0:0:0:
448,192,59293,128,0,59634:0:0:0:0:
192,192,59464,5,0,0:0:0:0:
320,192,59464,1,0,0:0:0:0:
64,192,59464,1,0,0:0:0:0:
192,192,59634,128,0,59805:0:0:0:0:
64,192,59805,1,0,0:0:0:0:
320,192,59805,1,0,0:0:0:0:
448,192,59805,1,0,0:0:0:0:
320,192,59975,128,0,60316:0:0:0:0:
64,192,60146,1,0,0:0:0:0:
448,192,60146,1,0,0:0:0:0:
192,192,60146,1,0,0:0:0:0:
64,192,60316,128,0,60657:0:0:0:0:
448,192,60486,128,0,60657:0:0:0:0:
192,192,60486,1,0,0:0:0:0:
320,192,60486,1,0,0:0:0:0:
192,192,60657,128,0,61168:0:0:0:0:
320,192,60827,1,0,0:0:0:0:
448,192,60827,1,0,0:0:0:0:
64,192,60827,1,0,0:0:0:0:
64,192,60998,1,0,0:0:0:0:
64,192,61168,1,0,0:0:0:0:
320,192,61168,1,0,0:0:0:0:
448,192,61168,1,0,0:0:0:0:
320,192,61339,1,0,0:0:0:0:
448,192,61509,128,0,61765:0:0:0:0:
64,192,61509,1,0,0:0:0:0:
192,192,61509,1,0,0:0:0:0:
320,192,61680,1,0,0:0:0:0:
320,192,61850,128,0,62106:0:0:0:0:
448,192,61850,1,0,0:0:0:0:
64,192,61850,1,0,0:0:0:0:
192,192,62021,1,0,0:0:0:0:
192,192,62191,128,0,62447:0:0:0:0:
320,192,62191,1,0,0:0:0:0:
448,192,62191,1,0,0:0:0:0:
64,192,62361,1,0,0:0:0:0:
64,192,62532,128,0,62788:0:0:0:0:
192,192,62532,1,0,0:0:0:0:
320,192,62532,1,0,0:0:0:0:
448,192,62702,1,0,0:0:0:0:
448,192,62873,128,0,63214:0:0:0:0:
320,192,62873,1,0,0:0:0:0:
192,192,62873,1,0,0:0:0:0:
64,192,63043,1,0,0:0:0:0:
64,192,63214,1,0,0:0:0:0:
320,192,63214,1,0,0:0:0:0:
192,192,63214,128,0,63384:0:0:0:0:
320,192,63384,128,0,63555:0:0:0:0:
64,192,63555,1,0,0:0:0:0:
192,192,63555,1,0,0:0:0:0:
448,192,63555,1,0,0:0:0:0:
320,192,63611,1,0,0:0:0:0:
192,192,63668,1,0,0:0:0:0:
64,192,63725,128,0,64066:0:0:0:0:
192,192,63896,128,0,64066:0:0:0:0:
448,192,63896,1,0,0:0:0:0:
320,192,63896,1,0,0:0:0:0:
320,192,64066,128,0,64236:0:0:0:0:
448,192,64236,128,0,64407:0:0:0:0:
192,192,64236,1,0,0:0:0:0:
64,192,64236,1,0,0:0:0:0:
192,192,64407,128,0,64748:0:0:0:0:
320,192,64577,128,0,64748:0:0:0:0:
448,192,64577,1,0,0:0:0:0:
64,192,64577,1,0,0:0:0:0:
64,192,64748,128,0,65089:0:0:0:0:
448,192,64918,1,0,0:0:0:0:
320,192,64918,1,0,0:0:0:0:
192,192,64918,1,0,0:0:0:0:
320,192,65089,128,0,65430:0:0:0:0:
192,192,65259,128,0,65430:0:0:0:0:
64,192,65259,1,0,0:0:0:0:
448,192,65259,1,0,0:0:0:0:
448,192,65430,128,0,66282:0:0:0:0:
64,192,65600,1,0,0:0:0:0:
192,192,65600,1,0,0:0:0:0:
320,192,65600,1,0,0:0:0:0:
64,192,65771,1,0,0:0:0:0:
64,192,65941,1,0,0:0:0:0:
320,192,65941,1,0,0:0:0:0:
192,192,65941,1,0,0:0:0:0:
192,192,66111,1,0,0:0:0:0:
64,192,66282,1,0,0:0:0:0:
192,192,66282,1,0,0:0:0:0:
320,192,66282,1,0,0:0:0:0:
320,192,66452,1,0,0:0:0:0:
448,192,66623,1,0,0:0:0:0:
64,192,66623,1,0,0:0:0:0:
192,192,66623,1,0,0:0:0:0:
192,192,66793,1,0,0:0:0:0:
320,192,66793,1,0,0:0:0:0:
320,192,66964,5,0,0:0:0:0:
448,192,66964,1,0,0:0:0:0:
64,192,66964,128,0,67049:0:0:0:0:
192,192,67049,128,0,67134:0:0:0:0:
64,192,67134,128,0,67219:0:0:0:0:
192,192,67219,128,0,67305:0:0:0:0:
64,192,67305,1,0,0:0:0:0:
448,192,67305,128,0,67390:0:0:0:0:
320,192,67390,128,0,67475:0:0:0:0:
448,192,67475,128,0,67560:0:0:0:0:
320,192,67560,128,0,67646:0:0:0:0:
448,192,67646,1,0,0:0:0:0:
64,192,67646,128,0,67731:0:0:0:0:
192,192,67731,128,0,67816:0:0:0:0:
320,192,67816,128,0,67901:0:0:0:0:
192,192,67901,128,0,67986:0:0:0:0:
448,192,67986,1,0,0:0:0:0:
320,192,67986,128,0,68072:0:0:0:0:
64,192,68072,128,0,68157:0:0:0:0:
448,192,68157,128,0,68242:0:0:0:0:
64,192,68242,128,0,68327:0:0:0:0:
320,192,68327,128,0,68413:0:0:0:0:
448,192,68327,128,0,68413:0:0:0:0:
192,192,68413,128,0,68498:0:0:0:0:
64,192,68498,128,0,68583:0:0:0:0:
320,192,68583,128,0,68668:0:0:0:0:
448,192,68583,128,0,68668:0:0:0:0:
64,192,68668,128,0,68753:0:0:0:0:
192,192,68753,128,0,68839:0:0:0:0:
320,192,68839,128,0,68924:0:0:0:0:
448,192,68839,128,0,68924:0:0:0:0:
192,192,68924,128,0,69009:0:0:0:0:
448,192,69009,128,0,69180:0:0:0:0:
64,192,69009,128,0,69180:0:0:0:0:
320,192,69094,128,0,69265:0:0:0:0:
192,192,69180,128,0,69350:0:0:0:0:
64,192,69265,128,0,69350:0:0:0:0:
448,192,69350,128,0,69521:0:0:0:0:
320,192,69350,128,0,69521:0:0:0:0:
64,192,69435,128,0,69606:0:0:0:0:
192,192,69521,128,0,69691:0:0:0:0:
320,192,69606,128,0,69691:0:0:0:0:
64,192,69691,1,0,0:0:0:0:
448,192,69691,128,0,69776:0:0:0:0:
320,192,69776,128,0,69861:0:0:0:0:
448,192,69861,128,0,69947:0:0:0:0:
320,192,69947,128,0,70032:0:0:0:0:
448,192,70032,1,0,0:0:0:0:
64,192,70032,128,0,70117:0:0:0:0:
192,192,70117,128,0,70202:0:0:0:0:
64,192,70202,128,0,70288:0:0:0:0:
192,192,70288,128,0,70373:0:0:0:0:
64,192,70373,1,0,0:0:0:0:
448,192,70373,128,0,70458:0:0:0:0:
320,192,70458,128,0,70543:0:0:0:0:
192,192,70543,128,0,70628:0:0:0:0:
320,192,70628,128,0,70714:0:0:0:0:
192,192,70714,128,0,70799:0:0:0:0:
64,192,70714,1,0,0:0:0:0:
448,192,70799,128,0,70884:0:0:0:0:
64,192,70884,128,0,70969:0:0:0:0:
448,192,70969,128,0,71055:0:0:0:0:
64,192,71055,128,0,71140:0:0:0:0:
192,192,71055,128,0,71140:0:0:0:0:
320,192,71140,128,0,71225:0:0:0:0:
448,192,71225,128,0,71310:0:0:0:0:
192,192,71310,128,0,71396:0:0:0:0:
320,192,71310,128,0,71396:0:0:0:0:
64,192,71396,128,0,71481:0:0:0:0:
192,192,71481,128,0,71566:0:0:0:0:
320,192,71566,128,0,71651:0:0:0:0:
448,192,71566,128,0,71651:0:0:0:0:
64,192,71651,128,0,71736:0:0:0:0:
320,192,71736,128,0,71822:0:0:0:0:
448,192,71736,128,0,71822:0:0:0:0:
192,192,71822,128,0,71907:0:0:0:0:
64,192,71822,128,0,71907:0:0:0:0:
448,192,71907,128,0,71992:0:0:0:0:
320,192,71907,128,0,71992:0:0:0:0:
192,192,71992,128,0,72077:0:0:0:0:
64,192,71992,128,0,72077:0:0:0:0:
320,192,72077,128,0,72163:0:0:0:0:
448,192,72077,128,0,72163:0:0:0:0:
192,192,72163,128,0,72248:0:0:0:0:
64,192,72248,128,0,72333:0:0:0:0:
448,192,72248,128,0,72333:0:0:0:0:
320,192,72333,128,0,72418:0:0:0:0:
192,192,72418,1,0,0:0:0:0:
64,192,72418,1,0,0:0:0:0:
448,192,72418,1,0,0:0:0:0:
192,192,72589,128,0,72759:0:0:0:0:
448,192,72759,1,0,0:0:0:0:
320,192,72759,1,0,0:0:0:0:
64,192,72759,1,0,0:0:0:0:
320,192,72930,128,0,73100:0:0:0:0:
448,192,73100,1,0,0:0:0:0:
192,192,73100,1,0,0:0:0:0:
64,192,73100,1,0,0:0:0:0:
64,192,73271,128,0,73441:0:0:0:0:
320,192,73441,1,0,0:0:0:0:
448,192,73441,1,0,0:0:0:0:
192,192,73441,1,0,0:0:0:0:
448,192,73611,128,0,73782:0:0:0:0:
320,192,73782,1,0,0:0:0:0:
64,192,73782,1,0,0:0:0:0:
192,192,73782,1,0,0:0:0:0:
192,192,73952,128,0,74123:0:0:0:0:
448,192,74123,1,0,0:0:0:0:
320,192,74123,1,0,0:0:0:0:
64,192,74123,1,0,0:0:0:0:
320,192,74293,128,0,74464:0:0:0:0:
192,192,74464,1,0,0:0:0:0:
64,192,74464,1,0,0:0:0:0:
448,192,74464,1,0,0:0:0:0:
64,192,74634,128,0,74805:0:0:0:0:
448,192,74805,5,0,0:0:0:0:
320,192,74805,1,0,0:0:0:0:
192,192,74805,1,0,0:0:0:0:
192,192,74975,128,0,75146:0:0:0:0:
448,192,75146,1,0,0:0:0:0:
320,192,75146,1,0,0:0:0:0:
64,192,75146,1,0,0:0:0:0:
192,192,75316,1,0,0:0:0:0:
64,192,75316,1,0,0:0:0:0:
448,192,75316,1,0,0:0:0:0:
448,192,75486,1,0,0:0:0:0:
320,192,75486,1,0,0:0:0:0:
192,192,75486,1,0,0:0:0:0:
320,192,75657,1,0,0:0:0:0:
192,192,75657,1,0,0:0:0:0:
64,192,75657,1,0,0:0:0:0:
64,192,75827,1,0,0:0:0:0:
448,192,75827,1,0,0:0:0:0:
320,192,75827,1,0,0:0:0:0:
192,192,75998,1,0,0:0:0:0:
64,192,75998,1,0,0:0:0:0:
448,192,75998,1,0,0:0:0:0:
448,192,76168,1,0,0:0:0:0:
320,192,76168,1,0,0:0:0:0:
192,192,76168,1,0,0:0:0:0:
64,192,76339,1,0,0:0:0:0:
192,192,76339,1,0,0:0:0:0:
320,192,76339,1,0,0:0:0:0:
448,192,76509,1,0,0:0:0:0:
320,192,76509,1,0,0:0:0:0:
64,192,76509,1,0,0:0:0:0:
448,192,76680,128,0,76850:0:0:0:0:
192,192,76850,1,0,0:0:0:0:
64,192,76850,1,0,0:0:0:0:
448,192,77021,128,0,77191:0:0:0:0:
192,192,77191,1,0,0:0:0:0:
64,192,77191,1,0,0:0:0:0:
448,192,77361,128,0,77532:0:0:0:0:
192,192,77532,1,0,0:0:0:0:
64,192,77532,1,0,0:0:0:0:
448,192,77617,1,0,0:0:0:0:
320,192,77617,1,0,0:0:0:0:
192,192,77702,1,0,0:0:0:0:
64,192,77702,1,0,0:0:0:0:
448,192,77788,1,0,0:0:0:0:
320,192,77788,1,0,0:0:0:0:
64,192,77873,128,0,78214:0:0:0:0:
192,192,77873,1,0,0:0:0:0:
448,192,78043,128,0,78214:0:0:0:0:
320,192,78128,128,0,78214:0:0:0:0:
64,192,78555,128,0,79151:0:0:0:0:
448,192,78725,128,0,79151:0:0:0:0:
192,192,78896,128,0,79151:0:0:0:0:
320,192,79066,128,0,79151:0:0:0:0:
192,192,79236,1,0,0:0:0:0:
320,192,79236,1,0,0:0:0:0:
448,192,79236,128,0,79492:0:0:0:0:
64,192,79236,128,0,79492:0:0:0:0:
320,192,79407,128,0,79492:0:0:0:0:
192,192,79492,128,0,79577:0:0:0:0:
64,192,79577,128,0,79663:0:0:0:0:
448,192,79577,1,0,0:0:0:0:
320,192,79663,128,0,79748:0:0:0:0:
64,192,79748,128,0,79833:0:0:0:0:
192,192,79833,128,0,79918:0:0:0:0:
64,192,79918,128,0,80174:0:0:0:0:
448,192,79918,1,0,0:0:0:0:
320,192,80003,1,0,0:0:0:0:
192,192,80089,128,0,80344:0:0:0:0:
320,192,80174,1,0,0:0:0:0:
448,192,80259,128,0,80515:0:0:0:0:
64,192,80259,1,0,0:0:0:0:
320,192,80430,128,0,80771:0:0:0:0:
192,192,80515,1,0,0:0:0:0:
448,192,80600,128,0,80771:0:0:0:0:
64,192,80600,1,0,0:0:0:0:
192,192,80771,128,0,80856:0:0:0:0:
320,192,80856,128,0,80941:0:0:0:0:
448,192,80941,128,0,81026:0:0:0:0:
64,192,80941,128,0,81026:0:0:0:0:
192,192,81026,128,0,81111:0:0:0:0:
320,192,81111,128,0,81367:0:0:0:0:
448,192,81197,128,0,81282:0:0:0:0:
192,192,81282,128,0,81538:0:0:0:0:
64,192,81282,1,0,0:0:0:0:
448,192,81367,1,0,0:0:0:0:
64,192,81452,128,0,81708:0:0:0:0:
320,192,81538,1,0,0:0:0:0:
448,192,81623,128,0,81708:0:0:0:0:
192,192,81623,1,0,0:0:0:0:
320,192,81708,1,0,0:0:0:0:
448,192,81793,128,0,82049:0:0:0:0:
64,192,81878,1,0,0:0:0:0:
192,192,81964,128,0,82390:0:0:0:0:
320,192,81964,1,0,0:0:0:0:
64,192,82134,1,0,0:0:0:0:
448,192,82219,1,0,0:0:0:0:
320,192,82305,128,0,82560:0:0:0:0:
64,192,82305,1,0,0:0:0:0:
448,192,82475,128,0,82731:0:0:0:0:
192,192,82560,1,0,0:0:0:0:
320,192,82646,1,0,0:0:0:0:
64,192,82646,1,0,0:0:0:0:
448,192,82816,128,0,83242:0:0:0:0:
64,192,82901,1,0,0:0:0:0:
320,192,82986,1,0,0:0:0:0:
192,192,82986,1,0,0:0:0:0:
64,192,83157,128,0,83583:0:0:0:0:
192,192,83242,1,0,0:0:0:0:
320,192,83327,1,0,0:0:0:0:
448,192,83327,1,0,0:0:0:0:
320,192,83498,128,0,83753:0:0:0:0:
448,192,83583,1,0,0:0:0:0:
192,192,83668,128,0,83924:0:0:0:0:
64,192,83668,1,0,0:0:0:0:
448,192,83839,128,0,84094:0:0:0:0:
320,192,83924,1,0,0:0:0:0:
64,192,84009,1,0,0:0:0:0:
192,192,84009,1,0,0:0:0:0:
320,192,84094,1,0,0:0:0:0:
448,192,84180,1,0,0:0:0:0:
192,192,84265,1,0,0:0:0:0:
320,192,84350,1,0,0:0:0:0:
448,192,84350,1,0,0:0:0:0:
64,192,84350,128,0,84435:0:0:0:0:
192,192,84435,1,0,0:0:0:0:
448,192,84521,1,0,0:0:0:0:
64,192,84521,128,0,84606:0:0:0:0:
320,192,84606,1,0,0:0:0:0:
448,192,84691,1,0,0:0:0:0:
192,192,84691,1,0,0:0:0:0:
64,192,84691,128,0,85032:0:0:0:0:
320,192,84861,128,0,84947:0:0:0:0:
192,192,84947,128,0,85032:0:0:0:0:
320,192,85032,1,0,0:0:0:0:
448,192,85032,128,0,85117:0:0:0:0:
64,192,85117,128,0,85202:0:0:0:0:
192,192,85202,128,0,85458:0:0:0:0:
320,192,85288,128,0,85373:0:0:0:0:
64,192,85373,1,0,0:0:0:0:
448,192,85373,128,0,85458:0:0:0:0:
320,192,85458,1,0,0:0:0:0:
192,192,85543,128,0,85799:0:0:0:0:
64,192,85628,1,0,0:0:0:0:
448,192,85714,128,0,85969:0:0:0:0:
320,192,85714,1,0,0:0:0:0:
64,192,85884,128,0,86225:0:0:0:0:
192,192,85969,1,0,0:0:0:0:
448,192,86055,128,0,86225:0:0:0:0:
320,192,86055,1,0,0:0:0:0:
192,192,86225,128,0,86310:0:0:0:0:
320,192,86310,128,0,86396:0:0:0:0:
448,192,86396,128,0,86481:0:0:0:0:
64,192,86396,128,0,86481:0:0:0:0:
192,192,86481,128,0,86566:0:0:0:0:
320,192,86566,128,0,86822:0:0:0:0:
64,192,86651,128,0,86736:0:0:0:0:
192,192,86736,128,0,86992:0:0:0:0:
448,192,86736,1,0,0:0:0:0:
64,192,86822,1,0,0:0:0:0:
448,192,86907,128,0,87163:0:0:0:0:
320,192,86992,1,0,0:0:0:0:
192,192,87077,1,0,0:0:0:0:
64,192,87077,128,0,87333:0:0:0:0:
320,192,87163,1,0,0:0:0:0:
448,192,87248,128,0,87503:0:0:0:0:
192,192,87333,1,0,0:0:0:0:
320,192,87418,128,0,87674:0:0:0:0:
64,192,87418,1,0,0:0:0:0:
64,192,87589,128,0,87844:0:0:0:0:
448,192,87674,1,0,0:0:0:0:
192,192,87759,128,0,88015:0:0:0:0:
320,192,87759,1,0,0:0:0:0:
320,192,87930,128,0,88185:0:0:0:0:
64,192,88015,1,0,0:0:0:0:
448,192,88100,128,0,88611:0:0:0:0:
192,192,88100,1,0,0:0:0:0:
64,192,88271,1,0,0:0:0:0:
192,192,88356,1,0,0:0:0:0:
320,192,88441,128,0,88611:0:0:0:0:
64,192,88441,1,0,0:0:0:0:
192,192,88611,1,0,0:0:0:0:
320,192,88697,1,0,0:0:0:0:
64,192,88782,128,0,88952:0:0:0:0:
192,192,88782,128,0,88952:0:0:0:0:
320,192,88952,1,0,0:0:0:0:
64,192,89123,128,0,89293:0:0:0:0:
192,192,89123,128,0,89293:0:0:0:0:
320,192,89293,1,0,0:0:0:0:
64,192,89464,128,0,89634:0:0:0:0:
192,192,89464,128,0,89634:0:0:0:0:
320,192,89634,1,0,0:0:0:0:
64,192,89805,1,0,0:0:0:0:
192,192,89805,1,0,0:0:0:0:
448,192,89805,1,0,0:0:0:0:
192,192,89975,1,0,0:0:0:0:
320,192,89975,1,0,0:0:0:0:
64,192,90146,128,0,90401:0:0:0:0:
448,192,90146,128,0,90401:0:0:0:0:
320,192,90146,1,0,0:0:0:0:
192,192,90316,128,0,90401:0:0:0:0:
320,192,90401,128,0,90486:0:0:0:0:
448,192,90486,128,0,90572:0:0:0:0:
64,192,90486,1,0,0:0:0:0:
192,192,90572,128,0,90657:0:0:0:0:
448,192,90657,128,0,90913:0:0:0:0:
64,192,90742,128,0,90827:0:0:0:0:
192,192,90827,128,0,91083:0:0:0:0:
320,192,90827,1,0,0:0:0:0:
64,192,90913,1,0,0:0:0:0:
320,192,90998,128,0,91253:0:0:0:0:
448,192,91083,1,0,0:0:0:0:
64,192,91168,128,0,91424:0:0:0:0:
192,192,91168,1,0,0:0:0:0:
448,192,91339,128,0,91680:0:0:0:0:
320,192,91424,1,0,0:0:0:0:
64,192,91509,128,0,91680:0:0:0:0:
192,192,91509,1,0,0:0:0:0:
320,192,91680,128,0,91765:0:0:0:0:
192,192,91765,128,0,91850:0:0:0:0:
64,192,91850,128,0,91935:0:0:0:0:
448,192,91850,128,0,91935:0:0:0:0:
320,192,91935,128,0,92021:0:0:0:0:
192,192,92021,128,0,92276:0:0:0:0:
64,192,92106,128,0,92191:0:0:0:0:
320,192,92191,128,0,92447:0:0:0:0:
448,192,92191,1,0,0:0:0:0:
64,192,92276,1,0,0:0:0:0:
448,192,92361,128,0,92617:0:0:0:0:
192,192,92447,1,0,0:0:0:0:
64,192,92532,128,0,92617:0:0:0:0:
320,192,92532,1,0,0:0:0:0:
192,192,92617,1,0,0:0:0:0:
64,192,92702,128,0,92958:0:0:0:0:
448,192,92788,1,0,0:0:0:0:
320,192,92873,128,0,93299:0:0:0:0:
192,192,92873,1,0,0:0:0:0:
448,192,93043,1,0,0:0:0:0:
64,192,93128,1,0,0:0:0:0:
192,192,93214,128,0,93469:0:0:0:0:
448,192,93214,1,0,0:0:0:0:
64,192,93384,128,0,93810:0:0:0:0:
320,192,93469,1,0,0:0:0:0:
192,192,93555,1,0,0:0:0:0:
448,192,93555,1,0,0:0:0:0:
320,192,93725,128,0,93981:0:0:0:0:
448,192,93810,1,0,0:0:0:0:
64,192,93896,1,0,0:0:0:0:
192,192,93896,128,0,94151:0:0:0:0:
448,192,94066,128,0,94492:0:0:0:0:
64,192,94151,1,0,0:0:0:0:
192,192,94236,1,0,0:0:0:0:
320,192,94236,1,0,0:0:0:0:
64,192,94407,128,0,94663:0:0:0:0:
192,192,94492,1,0,0:0:0:0:
320,192,94577,128,0,94833:0:0:0:0:
448,192,94577,1,0,0:0:0:0:
192,192,94748,128,0,95003:0:0:0:0:
64,192,94833,1,0,0:0:0:0:
448,192,94918,1,0,0:0:0:0:
320,192,94918,1,0,0:0:0:0:
64,192,95003,1,0,0:0:0:0:
192,192,95089,1,0,0:0:0:0:
320,192,95174,1,0,0:0:0:0:
448,192,95259,128,0,95515:0:0:0:0:
64,192,95259,1,0,0:0:0:0:
192,192,95259,1,0,0:0:0:0:
320,192,95344,1,0,0:0:0:0:
64,192,95430,1,0,0:0:0:0:
192,192,95515,1,0,0:0:0:0:
64,192,95600,1,0,0:0:0:0:
448,192,95600,128,0,95941:0:0:0:0:
320,192,95600,1,0,0:0:0:0:
192,192,95771,128,0,95856:0:0:0:0:
320,192,95856,128,0,95941:0:0:0:0:
192,192,95941,1,0,0:0:0:0:
64,192,95941,128,0,96026:0:0:0:0:
448,192,96026,128,0,96111:0:0:0:0:
320,192,96111,128,0,96367:0:0:0:0:
192,192,96197,128,0,96282:0:0:0:0:
448,192,96282,1,0,0:0:0:0:
64,192,96282,128,0,96367:0:0:0:0:
192,192,96367,1,0,0:0:0:0:
320,192,96452,128,0,96708:0:0:0:0:
448,192,96538,1,0,0:0:0:0:
64,192,96623,128,0,96878:0:0:0:0:
192,192,96623,1,0,0:0:0:0:
448,192,96793,128,0,97134:0:0:0:0:
320,192,96878,1,0,0:0:0:0:
64,192,96964,128,0,97134:0:0:0:0:
192,192,96964,1,0,0:0:0:0:
320,192,97134,1,0,0:0:0:0:
192,192,97219,1,0,0:0:0:0:
448,192,97305,1,0,0:0:0:0:
64,192,97305,1,0,0:0:0:0:
320,192,97390,1,0,0:0:0:0:
192,192,97475,128,0,97901:0:0:0:0:
320,192,97560,1,0,0:0:0:0:
448,192,97646,1,0,0:0:0:0:
64,192,97646,1,0,0:0:0:0:
320,192,97816,128,0,98072:0:0:0:0:
64,192,97901,1,0,0:0:0:0:
448,192,97986,128,0,98242:0:0:0:0:
192,192,97986,1,0,0:0:0:0:
64,192,98072,1,0,0:0:0:0:
192,192,98157,128,0,98413:0:0:0:0:
320,192,98242,1,0,0:0:0:0:
64,192,98327,128,0,98583:0:0:0:0:
448,192,98327,1,0,0:0:0:0:
448,192,98498,128,0,98753:0:0:0:0:
192,192,98583,1,0,0:0:0:0:
320,192,98668,128,0,98924:0:0:0:0:
64,192,98668,1,0,0:0:0:0:
192,192,98839,128,0,99094:0:0:0:0:
448,192,98924,1,0,0:0:0:0:
64,192,99009,128,0,99521:0:0:0:0:
320,192,99009,1,0,0:0:0:0:
448,192,99180,1,0,0:0:0:0:
320,192,99265,1,0,0:0:0:0:
192,192,99350,128,0,99521:0:0:0:0:
448,192,99350,1,0,0:0:0:0:
320,192,99521,1,0,0:0:0:0:
192,192,99606,1,0,0:0:0:0:
64,192,99691,128,0,99776:0:0:0:0:
448,192,99691,128,0,99776:0:0:0:0:
64,192,99861,5,0,0:0:0:0:
448,192,99861,1,0,0:0:0:0:
192,192,99947,1,0,0:0:0:0:
320,192,100202,1,0,0:0:0:0:
448,192,100288,1,0,0:0:0:0:
64,192,100543,128,0,100628:0:0:0:0:
448,192,100628,128,0,100714:0:0:0:0:
192,192,100714,128,0,100799:0:0:0:0:
320,192,100799,128,0,100884:0:0:0:0:
64,192,100884,128,0,100969:0:0:0:0:
192,192,100969,128,0,101055:0:0:0:0:
320,192,101055,1,0,0:0:0:0:
64,192,101055,128,0,101225:0:0:0:0:
448,192,101055,128,0,101225:0:0:0:0:
192,192,101140,128,0,101310:0:0:0:0:
320,192,101225,128,0,101396:0:0:0:0:
64,192,101310,128,0,101481:0:0:0:0:
192,192,101396,1,0,0:0:0:0:
448,192,101396,128,0,101566:0:0:0:0:
320,192,101481,128,0,101651:0:0:0:0:
192,192,101566,128,0,101736:0:0:0:0:
448,192,101651,128,0,101822:0:0:0:0:
64,192,101736,128,0,101907:0:0:0:0:
320,192,101736,1,0,0:0:0:0:
192,192,101822,128,0,101992:0:0:0:0:
320,192,101907,128,0,102077:0:0:0:0:
64,192,101992,128,0,102163:0:0:0:0:
192,192,102077,1,0,0:0:0:0:
448,192,102077,128,0,102248:0:0:0:0:
320,192,102163,128,0,102333:0:0:0:0:
192,192,102248,128,0,102418:0:0:0:0:
64,192,102333,128,0,102503:0:0:0:0:
320,192,102418,128,0,102674:0:0:0:0:
448,192,102418,128,0,102589:0:0:0:0:
192,192,102503,128,0,102674:0:0:0:0:
64,192,102589,128,0,102759:0:0:0:0:
448,192,102674,128,0,102844:0:0:0:0:
320,192,102759,128,0,102930:0:0:0:0:
192,192,102759,128,0,103015:0:0:0:0:
64,192,102844,128,0,103015:0:0:0:0:
448,192,102930,128,0,103100:0:0:0:0:
320,192,103015,128,0,103356:0:0:0:0:
192,192,103100,128,0,103271:0:0:0:0:
64,192,103100,128,0,103185:0:0:0:0:
448,192,103185,128,0,103356:0:0:0:0:
64,192,103271,128,0,103441:0:0:0:0:
192,192,103356,128,0,103441:0:0:0:0:
320,192,103441,128,0,103526:0:0:0:0:
448,192,103441,128,0,103526:0:0:0:0:
64,192,103526,128,0,103611:0:0:0:0:
192,192,103526,128,0,103611:0:0:0:0:
320,192,103611,128,0,103697:0:0:0:0:
448,192,103611,128,0,103697:0:0:0:0:
64,192,103697,128,0,103782:0:0:0:0:
448,192,103782,1,0,0:0:0:0:
192,192,103782,1,0,0:0:0:0:
320,192,103782,1,0,0:0:0:0:
64,192,103952,1,0,0:0:0:0:
448,192,103952,1,0,0:0:0:0:
320,192,103952,1,0,0:0:0:0:
192,192,104123,1,0,0:0:0:0:
64,192,104123,1,0,0:0:0:0:
448,192,104123,1,0,0:0:0:0:
64,192,104293,1,0,0:0:0:0:
192,192,104293,1,0,0:0:0:0:
320,192,104293,1,0,0:0:0:0:
192,192,104464,1,0,0:0:0:0:
448,192,104464,1,0,0:0:0:0:
320,192,104464,1,0,0:0:0:0:
64,192,104634,1,0,0:0:0:0:
448,192,104634,1,0,0:0:0:0:
192,192,104634,1,0,0:0:0:0:
64,192,104805,1,0,0:0:0:0:
320,192,104805,1,0,0:0:0:0:
448,192,104805,1,0,0:0:0:0:
192,192,104975,1,0,0:0:0:0:
320,192,104975,1,0,0:0:0:0:
64,192,104975,1,0,0:0:0:0:
320,192,105146,1,0,0:0:0:0:
192,192,105146,1,0,0:0:0:0:
448,192,105146,1,0,0:0:0:0:
192,192,105316,1,0,0:0:0:0:
64,192,105316,1,0,0:0:0:0:
448,192,105401,1,0,0:0:0:0:
320,192,105401,1,0,0:0:0:0:
64,192,105486,1,0,0:0:0:0:
192,192,105486,1,0,0:0:0:0:
448,192,105657,1,0,0:0:0:0:
320,192,105657,1,0,0:0:0:0:
192,192,105742,1,0,0:0:0:0:
64,192,105742,1,0,0:0:0:0:
448,192,105827,1,0,0:0:0:0:
320,192,105827,1,0,0:0:0:0:
320,192,105998,1,0,0:0:0:0:
192,192,105998,1,0,0:0:0:0:
448,192,106168,128,0,106424:0:0:0:0:
64,192,106168,128,0,106424:0:0:0:0:
192,192,106168,1,0,0:0:0:0:
320,192,106253,128,0,106424:0:0:0:0:
192,192,106339,128,0,106424:0:0:0:0:
64,192,106509,128,0,106680:0:0:0:0:
320,192,106509,1,0,0:0:0:0:
448,192,106509,1,0,0:0:0:0:
320,192,106680,128,0,107021:0:0:0:0:
192,192,106850,128,0,107021:0:0:0:0:
64,192,106850,1,0,0:0:0:0:
448,192,106850,1,0,0:0:0:0:
448,192,107021,128,0,107361:0:0:0:0:
192,192,107191,1,0,0:0:0:0:
64,192,107191,1,0,0:0:0:0:
320,192,107191,1,0,0:0:0:0:
64,192,107361,128,0,107532:0:0:0:0:
448,192,107532,1,0,0:0:0:0:
320,192,107532,1,0,0:0:0:0:
192,192,107532,1,0,0:0:0:0:
320,192,107702,128,0,108043:0:0:0:0:
64,192,107873,1,0,0:0:0:0:
192,192,107873,1,0,0:0:0:0:
448,192,107873,1,0,0:0:0:0:
64,192,108043,128,0,108384:0:0:0:0:
192,192,108214,128,0,108384:0:0:0:0:
448,192,108214,1,0,0:0:0:0:
320,192,108214,1,0,0:0:0:0:
448,192,108384,128,0,108896:0:0:0:0:
320,192,108555,1,0,0:0:0:0:
192,192,108555,1,0,0:0:0:0:
64,192,108555,1,0,0:0:0:0:
64,192,108725,1,0,0:0:0:0:
320,192,108896,1,0,0:0:0:0:
192,192,108896,1,0,0:0:0:0:
64,192,108896,1,0,0:0:0:0:
320,192,109066,1,0,0:0:0:0:
192,192,109236,128,0,109407:0:0:0:0:
448,192,109236,1,0,0:0:0:0:
64,192,109236,1,0,0:0:0:0:
448,192,109407,128,0,109748:0:0:0:0:
320,192,109577,128,0,109748:0:0:0:0:
64,192,109577,1,0,0:0:0:0:
192,192,109577,1,0,0:0:0:0:
64,192,109748,128,0,110089:0:0:0:0:
320,192,109918,5,0,0:0:0:0:
192,192,109918,1,0,0:0:0:0:
448,192,109918,1,0,0:0:0:0:
320,192,110089,128,0,110259:0:0:0:0:
448,192,110259,1,0,0:0:0:0:
192,192,110259,1,0,0:0:0:0:
64,192,110259,1,0,0:0:0:0:
192,192,110430,128,0,110771:0:0:0:0:
448,192,110600,1,0,0:0:0:0:
64,192,110600,1,0,0:0:0:0:
320,192,110600,1,0,0:0:0:0:
448,192,110771,128,0,111111:0:0:0:0:
64,192,110941,128,0,111111:0:0:0:0:
320,192,110941,1,0,0:0:0:0:
192,192,110941,1,0,0:0:0:0:
320,192,111111,128,0,111623:0:0:0:0:
192,192,111282,1,0,0:0:0:0:
64,192,111282,1,0,0:0:0:0:
448,192,111282,1,0,0:0:0:0:
448,192,111452,1,0,0:0:0:0:
448,192,111623,1,0,0:0:0:0:
192,192,111623,1,0,0:0:0:0:
64,192,111623,1,0,0:0:0:0:
192,192,111793,1,0,0:0:0:0:
64,192,111964,128,0,112219:0:0:0:0:
448,192,111964,1,0,0:0:0:0:
320,192,111964,1,0,0:0:0:0:
192,192,112134,1,0,0:0:0:0:
192,192,112305,128,0,112560:0:0:0:0:
64,192,112305,1,0,0:0:0:0:
448,192,112305,1,0,0:0:0:0:
320,192,112475,1,0,0:0:0:0:
320,192,112646,128,0,112901:0:0:0:0:
192,192,112646,1,0,0:0:0:0:
64,192,112646,1,0,0:0:0:0:
448,192,112816,1,0,0:0:0:0:
448,192,112986,128,0,113242:0:0:0:0:
320,192,112986,1,0,0:0:0:0:
192,192,112986,1,0,0:0:0:0:
64,192,113157,1,0,0:0:0:0:
64,192,113327,128,0,113668:0:0:0:0:
192,192,113327,1,0,0:0:0:0:
320,192,113327,1,0,0:0:0:0:
448,192,113498,1,0,0:0:0:0:
320,192,113668,128,0,113839:0:0:0:0:
448,192,113668,1,0,0:0:0:0:
192,192,113668,1,0,0:0:0:0:
192,192,113839,128,0,114009:0:0:0:0:
448,192,114009,1,0,0:0:0:0:
320,192,114009,1,0,0:0:0:0:
64,192,114009,1,0,0:0:0:0:
192,192,114066,1,0,0:0:0:0:
320,192,114123,1,0,0:0:0:0:
448,192,114180,128,0,114521:0:0:0:0:
320,192,114350,128,0,114521:0:0:0:0:
64,192,114350,1,0,0:0:0:0:
192,192,114350,1,0,0:0:0:0:
192,192,114521,128,0,114691:0:0:0:0:
64,192,114691,128,0,114861:0:0:0:0:
448,192,114691,1,0,0:0:0:0:
320,192,114691,1,0,0:0:0:0:
320,192,114861,128,0,115202:0:0:0:0:
192,192,115032,128,0,115202:0:0:0:0:
64,192,115032,1,0,0:0:0:0:
448,192,115032,1,0,0:0:0:0:
448,192,115202,128,0,115543:0:0:0:0:
64,192,115373,1,0,0:0:0:0:
192,192,115373,1,0,0:0:0:0:
320,192,115373,1,0,0:0:0:0:
192,192,115543,128,0,115884:0:0:0:0:
320,192,115714,128,0,115884:0:0:0:0:
448,192,115714,1,0,0:0:0:0:
64,192,115714,1,0,0:0:0:0:
64,192,115884,128,0,116736:0:0:0:0:
448,192,116055,1,0,0:0:0:0:
320,192,116055,1,0,0:0:0:0:
192,192,116055,1,0,0:0:0:0:
320,192,116225,1,0,0:0:0:0:
448,192,116396,1,0,0:0:0:0:
192,192,116396,1,0,0:0:0:0:
320,192,116396,1,0,0:0:0:0:
448,192,116566,1,0,0:0:0:0:
448,192,116736,1,0,0:0:0:0:
320,192,116736,1,0,0:0:0:0:
192,192,116736,1,0,0:0:0:0:
192,192,116907,1,0,0:0:0:0:
64,192,117077,128,0,117333:0:0:0:0:
448,192,117077,128,0,117333:0:0:0:0:
192,192,117163,128,0,117333:0:0:0:0:
320,192,117248,128,0,117333:0:0:0:0:
192,192,117418,1,0,0:0:0:0:
64,192,117418,128,0,117589:0:0:0:0:
448,192,117418,128,0,117674:0:0:0:0:
320,192,117503,128,0,117674:0:0:0:0:
192,192,117589,128,0,117844:0:0:0:0:
64,192,117674,128,0,117844:0:0:0:0:
448,192,117759,1,0,0:0:0:0:
320,192,117759,1,0,0:0:0:0:
448,192,117930,128,0,118100:0:0:0:0:
64,192,117930,128,0,118185:0:0:0:0:
192,192,118015,128,0,118185:0:0:0:0:
320,192,118100,128,0,118356:0:0:0:0:
448,192,118185,128,0,118356:0:0:0:0:
64,192,118271,1,0,0:0:0:0:
192,192,118271,1,0,0:0:0:0:
64,192,118441,128,0,118697:0:0:0:0:
448,192,118441,128,0,118526:0:0:0:0:
192,192,118526,128,0,118697:0:0:0:0:
320,192,118611,128,0,118697:0:0:0:0:
448,192,118611,128,0,118697:0:0:0:0:
448,192,118782,128,0,118952:0:0:0:0:
64,192,118782,128,0,119038:0:0:0:0:
192,192,118867,128,0,119038:0:0:0:0:
320,192,118952,128,0,119208:0:0:0:0:
448,192,119038,128,0,119208:0:0:0:0:
64,192,119123,1,0,0:0:0:0:
192,192,119123,1,0,0:0:0:0:
64,192,119293,128,0,119464:0:0:0:0:
448,192,119293,128,0,119549:0:0:0:0:
320,192,119378,128,0,119549:0:0:0:0:
192,192,119464,128,0,119719:0:0:0:0:
64,192,119549,128,0,119719:0:0:0:0:
448,192,119634,1,0,0:0:0:0:
320,192,119634,1,0,0:0:0:0:
448,192,119805,128,0,119975:0:0:0:0:
64,192,119805,128,0,119975:0:0:0:0:
320,192,119890,128,0,120060:0:0:0:0:
192,192,119975,128,0,120146:0:0:0:0:
64,192,120146,128,0,120401:0:0:0:0:
448,192,120146,128,0,120316:0:0:0:0:
320,192,120146,1,0,0:0:0:0:
192,192,120231,128,0,120401:0:0:0:0:
320,192,120316,128,0,120572:0:0:0:0:
448,192,120401,128,0,120572:0:0:0:0:
192,192,120486,1,0,0:0:0:0:
64,192,120486,1,0,0:0:0:0:
320,192,120657,128,0,120913:0:0:0:0:
64,192,120657,128,0,120827:0:0:0:0:
448,192,120742,128,0,120913:0:0:0:0:
192,192,120827,128,0,121083:0:0:0:0:
64,192,120913,128,0,121083:0:0:0:0:
320,192,120998,1,0,0:0:0:0:
448,192,120998,1,0,0:0:0:0:
448,192,121168,128,0,121424:0:0:0:0:
64,192,121168,128,0,121253:0:0:0:0:
320,192,121253,128,0,121424:0:0:0:0:
192,192,121339,128,0,121424:0:0:0:0:
64,192,121339,128,0,121424:0:0:0:0:
448,192,121509,128,0,121765:0:0:0:0:
64,192,121509,128,0,121680:0:0:0:0:
320,192,121594,128,0,121765:0:0:0:0:
192,192,121680,128,0,121935:0:0:0:0:
64,192,121765,128,0,121935:0:0:0:0:
320,192,121850,1,0,0:0:0:0:
448,192,121850,1,0,0:0:0:0:
64,192,122021,128,0,122276:0:0:0:0:
320,192,122021,128,0,122191:0:0:0:0:
192,192,122106,128,0,122276:0:0:0:0:
448,192,122191,128,0,122447:0:0:0:0:
320,192,122276,128,0,122447:0:0:0:0:
192,192,122361,1,0,0:0:0:0:
64,192,122361,1,0,0:0:0:0:
448,192,122532,128,0,122702:0:0:0:0:
64,192,122532,128,0,122788:0:0:0:0:
192,192,122617,128,0,122702:0:0:0:0:
320,192,122702,128,0,122788:0:0:0:0:
192,192,122788,128,0,122873:0:0:0:0:
448,192,122873,5,0,0:0:0:0:
320,192,122873,1,0,0:0:0:0:
64,192,122873,1,0,0:0:0:0:
320,192,123043,128,0,123214:0:0:0:0:
448,192,123214,1,0,0:0:0:0:
192,192,123214,1,0,0:0:0:0:
64,192,123214,1,0,0:0:0:0:
192,192,123384,128,0,123555:0:0:0:0:
448,192,123555,1,0,0:0:0:0:
320,192,123555,1,0,0:0:0:0:
64,192,123555,1,0,0:0:0:0:
448,192,123725,128,0,123896:0:0:0:0:
320,192,123896,1,0,0:0:0:0:
64,192,123896,1,0,0:0:0:0:
192,192,123896,1,0,0:0:0:0:
64,192,124066,128,0,124236:0:0:0:0:
320,192,124236,1,0,0:0:0:0:
448,192,124236,1,0,0:0:0:0:
192,192,124236,1,0,0:0:0:0:
320,192,124407,128,0,124577:0:0:0:0:
448,192,124577,1,0,0:0:0:0:
192,192,124577,1,0,0:0:0:0:
64,192,124577,1,0,0:0:0:0:
192,192,124748,128,0,124918:0:0:0:0:
64,192,124918,1,0,0:0:0:0:
448,192,124918,1,0,0:0:0:0:
320,192,124918,1,0,0:0:0:0:
448,192,125089,128,0,125259:0:0:0:0:
64,192,125259,5,0,0:0:0:0:
320,192,125259,1,0,0:0:0:0:
192,192,125259,1,0,0:0:0:0:
320,192,125430,128,0,125600:0:0:0:0:
448,192,125600,1,0,0:0:0:0:
192,192,125600,1,0,0:0:0:0:
64,192,125600,1,0,0:0:0:0:
64,192,125771,1,0,0:0:0:0:
448,192,125771,1,0,0:0:0:0:
320,192,125771,1,0,0:0:0:0:
320,192,125941,1,0,0:0:0:0:
192,192,125941,1,0,0:0:0:0:
64,192,125941,1,0,0:0:0:0:
448,192,126111,1,0,0:0:0:0:
320,192,126111,1,0,0:0:0:0:
192,192,126111,1,0,0:0:0:0:
192,192,126282,1,0,0:0:0:0:
64,192,126282,1,0,0:0:0:0:
448,192,126282,1,0,0:0:0:0:
64,192,126452,1,0,0:0:0:0:
448,192,126452,1,0,0:0:0:0:
320,192,126452,1,0,0:0:0:0:
320,192,126623,1,0,0:0:0:0:
192,192,126623,1,0,0:0:0:0:
64,192,126623,1,0,0:0:0:0:
192,192,126793,1,0,0:0:0:0:
320,192,126793,1,0,0:0:0:0:
448,192,126793,1,0,0:0:0:0:
448,192,126964,1,0,0:0:0:0:
192,192,126964,1,0,0:0:0:0:
64,192,126964,1,0,0:0:0:0:
64,192,127134,128,0,127305:0:0:0:0:
448,192,127305,1,0,0:0:0:0:
320,192,127305,1,0,0:0:0:0:
64,192,127475,128,0,127646:0:0:0:0:
448,192,127646,1,0,0:0:0:0:
320,192,127646,1,0,0:0:0:0:
64,192,127816,128,0,127986:0:0:0:0:
448,192,127986,1,0,0:0:0:0:
320,192,127986,1,0,0:0:0:0:
192,192,128072,1,0,0:0:0:0:
64,192,128072,1,0,0:0:0:0:
448,192,128157,1,0,0:0:0:0:
320,192,128157,1,0,0:0:0:0:
192,192,128242,1,0,0:0:0:0:
64,192,128242,1,0,0:0:0:0:
448,192,128327,128,0,128668:0:0:0:0:
320,192,128327,1,0,0:0:0:0:
64,192,128498,128,0,128668:0:0:0:0:
192,192,128583,128,0,128668:0:0:0:0:
448,192,129009,128,0,129606:0:0:0:0:
320,192,129180,128,0,129606:0:0:0:0:
192,192,129350,1,0,0:0:0:0:
64,192,129350,128,0,129435:0:0:0:0:
64,192,129521,128,0,129606:0:0:0:0:
192,192,129521,128,0,129606:0:0:0:0:
64,192,129691,5,0,0:0:0:0:
320,192,129691,1,0,0:0:0:0:
448,192,129691,1,0,0:0:0:0:
192,192,129691,128,0,129861:0:0:0:0:
320,192,129861,1,0,0:0:0:0:
64,192,130032,1,0,0:0:0:0:
448,192,130032,1,0,0:0:0:0:
192,192,130032,128,0,130202:0:0:0:0:
320,192,130202,1,0,0:0:0:0:
64,192,130373,1,0,0:0:0:0:
192,192,130373,128,0,130628:0:0:0:0:
448,192,130373,1,0,0:0:0:0:
320,192,130543,128,0,130799:0:0:0:0:
448,192,130714,128,0,130969:0:0:0:0:
64,192,130714,1,0,0:0:0:0:
192,192,130714,1,0,0:0:0:0:
64,192,130884,128,0,131055:0:0:0:0:
320,192,131055,1,0,0:0:0:0:
192,192,131055,1,0,0:0:0:0:
448,192,131055,1,0,0:0:0:0:
448,192,131225,128,0,131481:0:0:0:0:
320,192,131396,128,0,131651:0:0:0:0:
64,192,131396,1,0,0:0:0:0:
192,192,131396,1,0,0:0:0:0:
192,192,131566,128,0,131736:0:0:0:0:
64,192,131736,1,0,0:0:0:0:
320,192,131736,1,0,0:0:0:0:
448,192,131736,1,0,0:0:0:0:
64,192,131907,128,0,132163:0:0:0:0:
192,192,131992,128,0,132077:0:0:0:0:
448,192,132077,128,0,132333:0:0:0:0:
320,192,132077,128,0,132248:0:0:0:0:
192,192,132163,128,0,132333:0:0:0:0:
64,192,132248,128,0,132333:0:0:0:0:
64,192,132418,1,0,0:0:0:0:
192,192,132418,1,0,0:0:0:0:
448,192,132418,128,0,132674:0:0:0:0:
320,192,132503,128,0,132674:0:0:0:0:
64,192,132589,128,0,132674:0:0:0:0:
192,192,132674,128,0,132759:0:0:0:0:
448,192,132759,1,0,0:0:0:0:
320,192,132759,1,0,0:0:0:0:
64,192,132759,128,0,133015:0:0:0:0:
192,192,132844,128,0,133015:0:0:0:0:
320,192,132930,128,0,133015:0:0:0:0:
448,192,133015,128,0,133100:0:0:0:0:
64,192,133100,1,0,0:0:0:0:
192,192,133100,1,0,0:0:0:0:
320,192,133100,128,0,133356:0:0:0:0:
448,192,133185,128,0,133356:0:0:0:0:
192,192,133271,128,0,133356:0:0:0:0:
64,192,133356,128,0,133441:0:0:0:0:
192,192,133441,128,0,133697:0:0:0:0:
320,192,133441,1,0,0:0:0:0:
448,192,133441,1,0,0:0:0:0:
64,192,133526,128,0,133697:0:0:0:0:
320,192,133611,128,0,133697:0:0:0:0:
448,192,133697,128,0,133782:0:0:0:0:
64,192,133782,1,0,0:0:0:0:
192,192,133782,1,0,0:0:0:0:
320,192,133782,128,0,133952:0:0:0:0:
448,192,133867,128,0,134038:0:0:0:0:
192,192,133952,128,0,134123:0:0:0:0:
448,192,134123,1,0,0:0:0:0:
320,192,134123,1,0,0:0:0:0:
64,192,134123,128,0,134293:0:0:0:0:
192,192,134208,128,0,134378:0:0:0:0:
320,192,134293,128,0,134464:0:0:0:0:
64,192,134464,1,0,0:0:0:0:
192,192,134464,1,0,0:0:0:0:
448,192,134464,128,0,134634:0:0:0:0:
320,192,134549,128,0,134719:0:0:0:0:
192,192,134634,128,0,134805:0:0:0:0:
448,192,134805,1,0,0:0:0:0:
320,192,134805,1,0,0:0:0:0:
64,192,134805,1,0,0:0:0:0:
448,192,134975,1,0,0:0:0:0:
64,192,134975,1,0,0:0:0:0:
448,192,135146,5,0,0:0:0:0:
64,192,135146,1,0,0:0:0:0:
320,192,135146,128,0,135316:0:0:0:0:
192,192,135316,1,0,0:0:0:0:
448,192,135486,1,0,0:0:0:0:
64,192,135486,1,0,0:0:0:0:
320,192,135486,128,0,135657:0:0:0:0:
192,192,135657,1,0,0:0:0:0:
448,192,135827,1,0,0:0:0:0:
320,192,135827,128,0,136083:0:0:0:0:
64,192,135827,1,0,0:0:0:0:
192,192,135998,128,0,136253:0:0:0:0:
64,192,136168,128,0,136424:0:0:0:0:
448,192,136168,1,0,0:0:0:0:
320,192,136168,1,0,0:0:0:0:
448,192,136339,128,0,136509:0:0:0:0:
192,192,136509,1,0,0:0:0:0:
320,192,136509,1,0,0:0:0:0:
64,192,136509,1,0,0:0:0:0:
64,192,136680,128,0,136935:0:0:0:0:
320,192,136850,128,0,137106:0:0:0:0:
192,192,136850,1,0,0:0:0:0:
448,192,136850,1,0,0:0:0:0:
192,192,137021,128,0,137191:0:0:0:0:
448,192,137191,1,0,0:0:0:0:
320,192,137191,1,0,0:0:0:0:
64,192,137191,1,0,0:0:0:0:
448,192,137361,128,0,137617:0:0:0:0:
320,192,137447,128,0,137532:0:0:0:0:
64,192,137532,128,0,137788:0:0:0:0:
192,192,137532,128,0,137702:0:0:0:0:
320,192,137617,128,0,137788:0:0:0:0:
448,192,137702,128,0,137788:0:0:0:0:
448,192,137873,1,0,0:0:0:0:
320,192,137873,1,0,0:0:0:0:
64,192,137873,128,0,138128:0:0:0:0:
192,192,137958,128,0,138128:0:0:0:0:
448,192,138043,128,0,138128:0:0:0:0:
320,192,138128,128,0,138214:0:0:0:0:
64,192,138214,1,0,0:0:0:0:
192,192,138214,1,0,0:0:0:0:
448,192,138214,128,0,138469:0:0:0:0:
320,192,138299,128,0,138469:0:0:0:0:
192,192,138384,128,0,138469:0:0:0:0:
64,192,138469,128,0,138555:0:0:0:0:
448,192,138555,1,0,0:0:0:0:
320,192,138555,1,0,0:0:0:0:
192,192,138555,128,0,138810:0:0:0:0:
64,192,138640,128,0,138810:0:0:0:0:
320,192,138725,128,0,138810:0:0:0:0:
448,192,138810,128,0,138896:0:0:0:0:
320,192,138896,128,0,139151:0:0:0:0:
192,192,138896,1,0,0:0:0:0:
64,192,138896,1,0,0:0:0:0:
448,192,138981,128,0,139151:0:0:0:0:
192,192,139066,128,0,139151:0:0:0:0:
64,192,139151,128,0,139236:0:0:0:0:
320,192,139236,128,0,139492:0:0:0:0:
448,192,139236,128,0,139322:0:0:0:0:
192,192,139407,128,0,139663:0:0:0:0:
448,192,139577,128,0,139833:0:0:0:0:
320,192,139577,128,0,139663:0:0:0:0:
192,192,139748,128,0,140003:0:0:0:0:
320,192,139918,128,0,140174:0:0:0:0:
448,192,139918,128,0,140003:0:0:0:0:
192,192,140089,128,0,140344:0:0:0:0:
448,192,140259,128,0,140344:0:0:0:0:
320,192,140259,128,0,140344:0:0:0:0:
64,192,140259,128,0,140344:0:0:0:0:
192,192,140430,1,0,0:0:0:0:
320,192,140430,1,0,0:0:0:0:
64,192,140600,5,0,0:0:0:0:
448,192,140600,1,0,0:0:0:0:
320,192,140600,1,0,0:0:0:0:
192,192,140600,128,0,140771:0:0:0:0:
320,192,140771,1,0,0:0:0:0:
64,192,140941,1,0,0:0:0:0:
448,192,140941,1,0,0:0:0:0:
192,192,140941,128,0,141111:0:0:0:0:
320,192,141111,1,0,0:0:0:0:
64,192,141282,1,0,0:0:0:0:
192,192,141282,128,0,141538:0:0:0:0:
448,192,141282,1,0,0:0:0:0:
320,192,141452,128,0,141708:0:0:0:0:
448,192,141623,128,0,141878:0:0:0:0:
64,192,141623,1,0,0:0:0:0:
192,192,141623,1,0,0:0:0:0:
64,192,141793,128,0,141964:0:0:0:0:
320,192,141964,1,0,0:0:0:0:
192,192,141964,1,0,0:0:0:0:
448,192,141964,1,0,0:0:0:0:
448,192,142134,128,0,142390:0:0:0:0:
320,192,142305,128,0,142560:0:0:0:0:
64,192,142305,1,0,0:0:0:0:
192,192,142305,1,0,0:0:0:0:
192,192,142475,128,0,142646:0:0:0:0:
64,192,142646,1,0,0:0:0:0:
320,192,142646,1,0,0:0:0:0:
448,192,142646,1,0,0:0:0:0:
64,192,142816,128,0,143072:0:0:0:0:
192,192,142901,128,0,142986:0:0:0:0:
448,192,142986,128,0,143242:0:0:0:0:
320,192,142986,128,0,143157:0:0:0:0:
192,192,143072,128,0,143242:0:0:0:0:
64,192,143157,128,0,143242:0:0:0:0:
64,192,143327,1,0,0:0:0:0:
192,192,143327,1,0,0:0:0:0:
448,192,143327,128,0,143583:0:0:0:0:
320,192,143413,128,0,143583:0:0:0:0:
64,192,143498,128,0,143583:0:0:0:0:
192,192,143583,128,0,143668:0:0:0:0:
448,192,143668,1,0,0:0:0:0:
320,192,143668,1,0,0:0:0:0:
64,192,143668,128,0,143924:0:0:0:0:
192,192,143753,128,0,143924:0:0:0:0:
320,192,143839,128,0,143924:0:0:0:0:
448,192,143924,128,0,144009:0:0:0:0:
64,192,144009,1,0,0:0:0:0:
192,192,144009,1,0,0:0:0:0:
320,192,144009,128,0,144265:0:0:0:0:
448,192,144094,128,0,144265:0:0:0:0:
192,192,144180,128,0,144265:0:0:0:0:
64,192,144265,128,0,144350:0:0:0:0:
192,192,144350,128,0,144606:0:0:0:0:
320,192,144350,1,0,0:0:0:0:
448,192,144350,1,0,0:0:0:0:
64,192,144435,128,0,144606:0:0:0:0:
320,192,144521,128,0,144606:0:0:0:0:
448,192,144691,1,0,0:0:0:0:
64,192,144691,128,0,144947:0:0:0:0:
192,192,144691,1,0,0:0:0:0:
448,192,144861,128,0,145032:0:0:0:0:
192,192,145032,1,0,0:0:0:0:
320,192,145032,128,0,145288:0:0:0:0:
64,192,145032,1,0,0:0:0:0:
192,192,145202,128,0,145373:0:0:0:0:
320,192,145373,1,0,0:0:0:0:
448,192,145373,128,0,145628:0:0:0:0:
64,192,145373,1,0,0:0:0:0:
320,192,145543,128,0,145714:0:0:0:0:
64,192,145714,1,0,0:0:0:0:
192,192,145714,128,0,145969:0:0:0:0:
448,192,145714,1,0,0:0:0:0:
64,192,145884,128,0,146055:0:0:0:0:
448,192,146055,128,0,146225:0:0:0:0:
320,192,146055,128,0,146140:0:0:0:0:
192,192,146140,128,0,146310:0:0:0:0:
320,192,146225,128,0,146396:0:0:0:0:
448,192,146310,128,0,146566:0:0:0:0:
64,192,146396,128,0,146566:0:0:0:0:
192,192,146396,128,0,146481:0:0:0:0:
320,192,146481,128,0,146651:0:0:0:0:
192,192,146566,128,0,146736:0:0:0:0:
64,192,146651,128,0,146907:0:0:0:0:
320,192,146736,128,0,146822:0:0:0:0:
448,192,146736,128,0,146907:0:0:0:0:
192,192,146822,128,0,146992:0:0:0:0:
320,192,146907,128,0,147077:0:0:0:0:
448,192,146992,128,0,147248:0:0:0:0:
64,192,147077,128,0,147248:0:0:0:0:
192,192,147077,128,0,147163:0:0:0:0:
320,192,147163,128,0,147333:0:0:0:0:
192,192,147248,128,0,147418:0:0:0:0:
64,192,147333,128,0,147503:0:0:0:0:
448,192,147418,128,0,147589:0:0:0:0:
320,192,147418,128,0,147589:0:0:0:0:
192,192,147503,128,0,147674:0:0:0:0:
64,192,147589,128,0,147759:0:0:0:0:
448,192,147674,128,0,147844:0:0:0:0:
320,192,147759,128,0,147930:0:0:0:0:
192,192,147759,128,0,147930:0:0:0:0:
64,192,147844,128,0,148015:0:0:0:0:
448,192,147930,128,0,148185:0:0:0:0:
320,192,148015,128,0,148100:0:0:0:0:
64,192,148100,128,0,148271:0:0:0:0:
192,192,148100,128,0,148271:0:0:0:0:
320,192,148185,128,0,148356:0:0:0:0:
448,192,148271,128,0,148441:0:0:0:0:
64,192,148356,128,0,148526:0:0:0:0:
192,192,148441,128,0,148611:0:0:0:0:
320,192,148441,128,0,148611:0:0:0:0:
448,192,148526,128,0,148697:0:0:0:0:
64,192,148611,128,0,148782:0:0:0:0:
192,192,148697,128,0,148782:0:0:0:0:
320,192,148782,128,0,148867:0:0:0:0:
448,192,148782,128,0,149038:0:0:0:0:
64,192,148952,128,0,149208:0:0:0:0:
448,192,149123,1,0,0:0:0:0:
192,192,149123,128,0,149208:0:0:0:0:
320,192,149123,128,0,149378:0:0:0:0:
448,192,149293,128,0,149549:0:0:0:0:
64,192,149464,128,0,149719:0:0:0:0:
192,192,149464,128,0,149549:0:0:0:0:
320,192,149464,1,0,0:0:0:0:
320,192,149634,128,0,149805:0:0:0:0:
64,192,149805,1,0,0:0:0:0:
192,192,149805,128,0,150060:0:0:0:0:
448,192,149805,128,0,149890:0:0:0:0:
320,192,149975,128,0,150146:0:0:0:0:
192,192,150146,1,0,0:0:0:0:
448,192,150146,1,0,0:0:0:0:
64,192,150146,128,0,150316:0:0:0:0:
320,192,150316,128,0,150486:0:0:0:0:
448,192,150401,128,0,150486:0:0:0:0:
64,192,150486,128,0,150657:0:0:0:0:
192,192,150486,1,0,0:0:0:0:
448,192,150657,128,0,150827:0:0:0:0:
320,192,150742,128,0,150827:0:0:0:0:
64,192,150827,128,0,150998:0:0:0:0:
192,192,150827,1,0,0:0:0:0:
448,192,150913,128,0,150998:0:0:0:0:
320,192,150998,128,0,151083:0:0:0:0:
448,192,151083,128,0,151168:0:0:0:0:
192,192,151168,128,0,151253:0:0:0:0:
448,192,151253,128,0,151339:0:0:0:0:
64,192,151339,128,0,151424:0:0:0:0:
320,192,151424,128,0,151509:0:0:0:0:
448,192,151509,128,0,151680:0:0:0:0:
64,192,151509,128,0,151680:0:0:0:0:
192,192,151509,1,0,0:0:0:0:
320,192,151594,128,0,151765:0:0:0:0:
192,192,151680,128,0,151850:0:0:0:0:
448,192,151765,128,0,151935:0:0:0:0:
320,192,151850,1,0,0:0:0:0:
64,192,151850,128,0,152021:0:0:0:0:
192,192,151935,128,0,152106:0:0:0:0:
320,192,152021,128,0,152191:0:0:0:0:
64,192,152106,128,0,152276:0:0:0:0:
448,192,152191,128,0,152361:0:0:0:0:
192,192,152191,1,0,0:0:0:0:
320,192,152276,128,0,152447:0:0:0:0:
192,192,152361,128,0,152532:0:0:0:0:
448,192,152447,128,0,152617:0:0:0:0:
320,192,152532,1,0,0:0:0:0:
64,192,152532,128,0,152702:0:0:0:0:
192,192,152617,128,0,152788:0:0:0:0:
320,192,152702,128,0,152873:0:0:0:0:
448,192,152788,128,0,152958:0:0:0:0:
192,192,152873,128,0,153128:0:0:0:0:
64,192,152873,128,0,153043:0:0:0:0:
320,192,152958,128,0,153128:0:0:0:0:
448,192,153043,128,0,153214:0:0:0:0:
64,192,153128,128,0,153299:0:0:0:0:
192,192,153214,128,0,153384:0:0:0:0:
320,192,153214,128,0,153469:0:0:0:0:
448,192,153299,128,0,153469:0:0:0:0:
64,192,153384,128,0,153555:0:0:0:0:
192,192,153469,128,0,153810:0:0:0:0:
320,192,153555,128,0,153725:0:0:0:0:
448,192,153555,128,0,153640:0:0:0:0:
64,192,153640,128,0,153810:0:0:0:0:
448,192,153725,128,0,153896:0:0:0:0:
320,192,153810,128,0,153896:0:0:0:0:
192,192,153896,128,0,153981:0:0:0:0:
64,192,153896,128,0,153981:0:0:0:0:
448,192,153981,128,0,154066:0:0:0:0:
320,192,153981,128,0,154066:0:0:0:0:
192,192,154066,128,0,154151:0:0:0:0:
64,192,154066,128,0,154151:0:0:0:0:
448,192,154151,128,0,154236:0:0:0:0:
64,192,154236,1,0,0:0:0:0:
320,192,154236,1,0,0:0:0:0:
192,192,154236,1,0,0:0:0:0:
64,192,154407,1,0,0:0:0:0:
448,192,154407,1,0,0:0:0:0:
320,192,154407,1,0,0:0:0:0:
192,192,154577,1,0,0:0:0:0:
64,192,154577,1,0,0:0:0:0:
448,192,154577,1,0,0:0:0:0:
448,192,154748,1,0,0:0:0:0:
320,192,154748,1,0,0:0:0:0:
192,192,154748,1,0,0:0:0:0:
320,192,154918,1,0,0:0:0:0:
64,192,154918,1,0,0:0:0:0:
192,192,154918,1,0,0:0:0:0:
448,192,155089,1,0,0:0:0:0:
64,192,155089,1,0,0:0:0:0:
320,192,155089,1,0,0:0:0:0:
448,192,155259,1,0,0:0:0:0:
192,192,155259,1,0,0:0:0:0:
64,192,155259,1,0,0:0:0:0:
320,192,155430,1,0,0:0:0:0:
192,192,155430,1,0,0:0:0:0:
448,192,155430,1,0,0:0:0:0:
192,192,155600,1,0,0:0:0:0:
320,192,155600,1,0,0:0:0:0:
64,192,155600,1,0,0:0:0:0:
320,192,155771,1,0,0:0:0:0:
448,192,155771,1,0,0:0:0:0:
64,192,155856,1,0,0:0:0:0:
192,192,155856,1,0,0:0:0:0:
448,192,155941,1,0,0:0:0:0:
320,192,155941,1,0,0:0:0:0:
64,192,156111,1,0,0:0:0:0:
192,192,156111,1,0,0:0:0:0:
320,192,156197,1,0,0:0:0:0:
448,192,156197,1,0,0:0:0:0:
64,192,156282,1,0,0:0:0:0:
192,192,156282,1,0,0:0:0:0:
320,192,156452,1,0,0:0:0:0:
448,192,156452,1,0,0:0:0:0:
64,192,156452,1,0,0:0:0:0:
64,192,156623,128,0,156878:0:0:0:0:
448,192,156623,128,0,156878:0:0:0:0:
192,192,156623,1,0,0:0:0:0:
320,192,156708,128,0,156878:0:0:0:0:
192,192,156793,128,0,156878:0:0:0:0:
320,192,156964,1,0,0:0:0:0:
448,192,156964,1,0,0:0:0:0:
64,192,156964,128,0,157219:0:0:0:0:
192,192,157049,128,0,157305:0:0:0:0:
320,192,157134,128,0,157390:0:0:0:0:
448,192,157305,1,0,0:0:0:0:
64,192,157305,128,0,157560:0:0:0:0:
192,192,157390,128,0,157646:0:0:0:0:
320,192,157475,128,0,157731:0:0:0:0:
448,192,157646,1,0,0:0:0:0:
64,192,157646,128,0,157901:0:0:0:0:
192,192,157731,128,0,157986:0:0:0:0:
320,192,157816,128,0,158072:0:0:0:0:
448,192,157986,1,0,0:0:0:0:
64,192,157986,128,0,158242:0:0:0:0:
192,192,158072,128,0,158327:0:0:0:0:
320,192,158157,128,0,158413:0:0:0:0:
448,192,158327,1,0,0:0:0:0:
64,192,158327,128,0,158583:0:0:0:0:
192,192,158413,128,0,158668:0:0:0:0:
320,192,158498,128,0,158753:0:0:0:0:
448,192,158668,1,0,0:0:0:0:
64,192,158668,128,0,158924:0:0:0:0:
192,192,158753,128,0,159009:0:0:0:0:
320,192,158839,128,0,159094:0:0:0:0:
448,192,159009,1,0,0:0:0:0:
64,192,159009,128,0,159265:0:0:0:0:
192,192,159094,128,0,159350:0:0:0:0:
320,192,159180,128,0,159435:0:0:0:0:
448,192,159350,1,0,0:0:0:0:
64,192,159350,128,0,159606:0:0:0:0:
192,192,159435,128,0,159606:0:0:0:0:
320,192,159521,128,0,159606:0:0:0:0:
448,192,159691,128,0,159947:0:0:0:0:
64,192,159691,1,0,0:0:0:0:
320,192,159776,128,0,160032:0:0:0:0:
192,192,159861,128,0,160117:0:0:0:0:
64,192,160032,1,0,0:0:0:0:
448,192,160032,128,0,160288:0:0:0:0:
320,192,160117,128,0,160373:0:0:0:0:
192,192,160202,128,0,160458:0:0:0:0:
448,192,160373,128,0,160628:0:0:0:0:
64,192,160373,1,0,0:0:0:0:
320,192,160458,128,0,160714:0:0:0:0:
192,192,160543,128,0,160799:0:0:0:0:
64,192,160714,1,0,0:0:0:0:
448,192,160714,128,0,160969:0:0:0:0:
320,192,160799,128,0,161055:0:0:0:0:
192,192,160884,128,0,161140:0:0:0:0:
448,192,161055,128,0,161310:0:0:0:0:
64,192,161055,1,0,0:0:0:0:
320,192,161140,128,0,161310:0:0:0:0:
192,192,161225,128,0,161310:0:0:0:0:
64,192,161396,128,0,161736:0:0:0:0:
320,192,161396,1,0,0:0:0:0:
448,192,161523,128,0,161949:0:0:0:0:
192,192,161609,128,0,161736:0:0:0:0:
320,192,161736,128,0,162035:0:0:0:0:
64,192,161864,128,0,162205:0:0:0:0:
192,192,161864,128,0,162120:0:0:0:0:
448,192,162035,128,0,162418:0:0:0:0:
320,192,162120,128,0,162418:0:0:0:0:
192,192,162205,128,0,162418:0:0:0:0:
64,192,162290,128,0,162418:0:0:0:0:
448,192,165146,1,0,0:0:0:0:
64,192,165146,128,0,165486:0:0:0:0:
320,192,165146,1,0,0:0:0:0:
192,192,165231,128,0,165401:0:0:0:0:
320,192,165316,128,0,165572:0:0:0:0:
448,192,165401,128,0,165572:0:0:0:0:
192,192,165486,128,0,165657:0:0:0:0:
64,192,165572,128,0,165742:0:0:0:0:
448,192,165657,1,0,0:0:0:0:
320,192,165657,1,0,0:0:0:0:
448,192,165827,1,0,0:0:0:0:
64,192,165827,1,0,0:0:0:0:
192,192,165827,1,0,0:0:0:0:
320,192,165998,128,0,166083:0:0:0:0:
192,192,166083,128,0,166168:0:0:0:0:
320,192,166168,128,0,166253:0:0:0:0:
192,192,166253,128,0,166339:0:0:0:0:
320,192,166339,1,0,0:0:0:0:
448,192,166339,1,0,0:0:0:0:
64,192,166424,1,0,0:0:0:0:
192,192,166424,1,0,0:0:0:0:
320,192,166509,1,0,0:0:0:0:
448,192,166509,1,0,0:0:0:0:
64,192,166594,128,0,166765:0:0:0:0:
192,192,166680,128,0,166850:0:0:0:0:
448,192,166765,1,0,0:0:0:0:
320,192,166765,1,0,0:0:0:0:
64,192,166850,128,0,167021:0:0:0:0:
192,192,166935,128,0,167106:0:0:0:0:
448,192,167021,1,0,0:0:0:0:
320,192,167021,1,0,0:0:0:0:
192,192,167191,1,0,0:0:0:0:
448,192,167191,1,0,0:0:0:0:
64,192,167191,128,0,167276:0:0:0:0:
320,192,167276,128,0,167361:0:0:0:0:
64,192,167361,128,0,167447:0:0:0:0:
320,192,167447,128,0,167617:0:0:0:0:
192,192,167532,128,0,167702:0:0:0:0:
64,192,167617,128,0,167788:0:0:0:0:
320,192,167702,128,0,167873:0:0:0:0:
448,192,167702,1,0,0:0:0:0:
192,192,167788,128,0,167873:0:0:0:0:
64,192,167873,1,0,0:0:0:0:
448,192,167873,128,0,168214:0:0:0:0:
320,192,167958,128,0,168128:0:0:0:0:
192,192,168043,128,0,168299:0:0:0:0:
64,192,168128,128,0,168299:0:0:0:0:
320,192,168214,128,0,168384:0:0:0:0:
448,192,168299,128,0,168469:0:0:0:0:
192,192,168384,1,0,0:0:0:0:
64,192,168384,1,0,0:0:0:0:
448,192,168555,1,0,0:0:0:0:
64,192,168555,1,0,0:0:0:0:
320,192,168555,128,0,168640:0:0:0:0:
192,192,168640,128,0,168725:0:0:0:0:
320,192,168725,128,0,168810:0:0:0:0:
64,192,168810,128,0,168896:0:0:0:0:
448,192,168896,128,0,168981:0:0:0:0:
64,192,168981,128,0,169066:0:0:0:0:
320,192,169066,1,0,0:0:0:0:
192,192,169066,1,0,0:0:0:0:
448,192,169236,128,0,169492:0:0:0:0:
320,192,169407,1,0,0:0:0:0:
64,192,169407,128,0,169492:0:0:0:0:
192,192,169492,1,0,0:0:0:0:
448,192,169577,1,0,0:0:0:0:
320,192,169663,128,0,169748:0:0:0:0:
64,192,169748,1,0,0:0:0:0:
192,192,169748,1,0,0:0:0:0:
448,192,169833,1,0,0:0:0:0:
320,192,169833,1,0,0:0:0:0:
192,192,169918,1,0,0:0:0:0:
64,192,169918,1,0,0:0:0:0:
448,192,170003,128,0,170089:0:0:0:0:
320,192,170089,1,0,0:0:0:0:
192,192,170174,128,0,170259:0:0:0:0:
64,192,170259,1,0,0:0:0:0:
448,192,170259,1,0,0:0:0:0:
320,192,170344,128,0,170430:0:0:0:0:
64,192,170430,1,0,0:0:0:0:
448,192,170430,1,0,0:0:0:0:
192,192,170515,1,0,0:0:0:0:
64,192,170600,128,0,170941:0:0:0:0:
320,192,170600,1,0,0:0:0:0:
448,192,170600,1,0,0:0:0:0:
192,192,170685,128,0,170856:0:0:0:0:
448,192,170771,128,0,171026:0:0:0:0:
320,192,170856,128,0,171026:0:0:0:0:
192,192,170941,128,0,171111:0:0:0:0:
64,192,171026,128,0,171197:0:0:0:0:
448,192,171111,1,0,0:0:0:0:
320,192,171111,1,0,0:0:0:0:
64,192,171282,1,0,0:0:0:0:
192,192,171282,1,0,0:0:0:0:
448,192,171282,128,0,171367:0:0:0:0:
320,192,171367,128,0,171452:0:0:0:0:
448,192,171452,128,0,171538:0:0:0:0:
192,192,171538,128,0,171623:0:0:0:0:
448,192,171623,128,0,171708:0:0:0:0:
64,192,171708,128,0,171793:0:0:0:0:
448,192,171793,1,0,0:0:0:0:
320,192,171793,1,0,0:0:0:0:
192,192,171878,1,0,0:0:0:0:
64,192,171878,1,0,0:0:0:0:
320,192,171964,1,0,0:0:0:0:
448,192,171964,1,0,0:0:0:0:
64,192,172049,128,0,172219:0:0:0:0:
192,192,172134,128,0,172305:0:0:0:0:
448,192,172219,1,0,0:0:0:0:
320,192,172219,1,0,0:0:0:0:
64,192,172305,128,0,172475:0:0:0:0:
192,192,172390,128,0,172560:0:0:0:0:
448,192,172475,1,0,0:0:0:0:
320,192,172475,1,0,0:0:0:0:
192,192,172646,1,0,0:0:0:0:
448,192,172646,1,0,0:0:0:0:
64,192,172646,128,0,172731:0:0:0:0:
320,192,172731,128,0,172816:0:0:0:0:
192,192,172816,128,0,172901:0:0:0:0:
448,192,172901,128,0,172986:0:0:0:0:
320,192,172986,128,0,173072:0:0:0:0:
64,192,172986,1,0,0:0:0:0:
192,192,173072,128,0,173157:0:0:0:0:
320,192,173157,128,0,173242:0:0:0:0:
448,192,173157,1,0,0:0:0:0:
192,192,173242,128,0,173327:0:0:0:0:
64,192,173327,1,0,0:0:0:0:
448,192,173327,128,0,173668:0:0:0:0:
320,192,173413,128,0,173583:0:0:0:0:
192,192,173498,128,0,173753:0:0:0:0:
64,192,173583,128,0,173753:0:0:0:0:
320,192,173668,128,0,173839:0:0:0:0:
448,192,173753,128,0,173924:0:0:0:0:
192,192,173839,1,0,0:0:0:0:
64,192,173839,1,0,0:0:0:0:
320,192,174009,1,0,0:0:0:0:
448,192,174009,1,0,0:0:0:0:
64,192,174009,128,0,174435:0:0:0:0:
192,192,174094,128,0,174350:0:0:0:0:
320,192,174180,128,0,174265:0:0:0:0:
448,192,174265,128,0,174435:0:0:0:0:
320,192,174350,128,0,174521:0:0:0:0:
192,192,174435,128,0,174606:0:0:0:0:
64,192,174521,128,0,174691:0:0:0:0:
448,192,174521,1,0,0:0:0:0:
320,192,174691,128,0,174861:0:0:0:0:
64,192,174861,1,0,0:0:0:0:
448,192,174861,1,0,0:0:0:0:
192,192,174947,128,0,175032:0:0:0:0:
320,192,175032,128,0,175117:0:0:0:0:
192,192,175117,128,0,175202:0:0:0:0:
448,192,175202,1,0,0:0:0:0:
64,192,175202,1,0,0:0:0:0:
320,192,175288,1,0,0:0:0:0:
192,192,175288,1,0,0:0:0:0:
448,192,175373,1,0,0:0:0:0:
64,192,175373,128,0,175458:0:0:0:0:
192,192,175458,128,0,175543:0:0:0:0:
64,192,175543,128,0,175628:0:0:0:0:
320,192,175628,128,0,175714:0:0:0:0:
64,192,175714,128,0,175799:0:0:0:0:
448,192,175714,128,0,175799:0:0:0:0:
64,192,175884,128,0,175969:0:0:0:0:
448,192,175884,128,0,175969:0:0:0:0:
192,192,175969,1,0,0:0:0:0:
64,192,176055,128,0,176396:0:0:0:0:
320,192,176055,1,0,0:0:0:0:
448,192,176055,1,0,0:0:0:0:
192,192,176140,128,0,176310:0:0:0:0:
320,192,176225,128,0,176481:0:0:0:0:
448,192,176310,128,0,176481:0:0:0:0:
192,192,176396,128,0,176566:0:0:0:0:
64,192,176481,128,0,176651:0:0:0:0:
320,192,176566,1,0,0:0:0:0:
448,192,176566,1,0,0:0:0:0:
448,192,176736,1,0,0:0:0:0:
192,192,176736,1,0,0:0:0:0:
64,192,176736,1,0,0:0:0:0:
192,192,176992,1,0,0:0:0:0:
64,192,176992,1,0,0:0:0:0:
192,192,177248,1,0,0:0:0:0:
64,192,177248,1,0,0:0:0:0:
448,192,177418,128,0,178271:0:0:0:0:
64,192,177418,1,0,0:0:0:0:
320,192,177503,128,0,178185:0:0:0:0:
192,192,177589,128,0,178100:0:0:0:0:
64,192,177674,128,0,178015:0:0:0:0:
64,192,178100,128,0,178697:0:0:0:0:
192,192,178185,128,0,178356:0:0:0:0:
320,192,178271,128,0,178441:0:0:0:0:
448,192,178356,128,0,178697:0:0:0:0:
192,192,178441,128,0,178526:0:0:0:0:
320,192,178526,128,0,178611:0:0:0:0:
192,192,178611,128,0,178697:0:0:0:0:
320,192,178697,128,0,178782:0:0:0:0:
448,192,178782,1,0,0:0:0:0:
64,192,178782,128,0,178952:0:0:0:0:
192,192,178782,1,0,0:0:0:0:
320,192,178952,1,0,0:0:0:0:
64,192,179123,1,0,0:0:0:0:
448,192,179123,1,0,0:0:0:0:
192,192,179208,1,0,0:0:0:0:
448,192,179293,1,0,0:0:0:0:
320,192,179378,1,0,0:0:0:0:
192,192,179464,1,0,0:0:0:0:
64,192,179464,128,0,179634:0:0:0:0:
320,192,179549,1,0,0:0:0:0:
448,192,179634,1,0,0:0:0:0:
192,192,179719,1,0,0:0:0:0:
64,192,179805,1,0,0:0:0:0:
448,192,179805,1,0,0:0:0:0:
320,192,179890,1,0,0:0:0:0:
192,192,179975,1,0,0:0:0:0:
448,192,180060,1,0,0:0:0:0:
320,192,180146,1,0,0:0:0:0:
64,192,180146,128,0,180316:0:0:0:0:
192,192,180316,1,0,0:0:0:0:
320,192,180401,1,0,0:0:0:0:
64,192,180486,1,0,0:0:0:0:
448,192,180486,1,0,0:0:0:0:
192,192,180572,1,0,0:0:0:0:
448,192,180657,1,0,0:0:0:0:
320,192,180742,1,0,0:0:0:0:
64,192,180827,128,0,180998:0:0:0:0:
192,192,180827,1,0,0:0:0:0:
448,192,180913,1,0,0:0:0:0:
320,192,180998,1,0,0:0:0:0:
192,192,181083,1,0,0:0:0:0:
448,192,181168,1,0,0:0:0:0:
64,192,181168,1,0,0:0:0:0:
320,192,181253,1,0,0:0:0:0:
192,192,181339,1,0,0:0:0:0:
320,192,181424,1,0,0:0:0:0:
64,192,181509,128,0,181680:0:0:0:0:
448,192,181509,1,0,0:0:0:0:
192,192,181680,1,0,0:0:0:0:
320,192,181765,1,0,0:0:0:0:
448,192,181850,1,0,0:0:0:0:
192,192,181850,1,0,0:0:0:0:
64,192,181935,1,0,0:0:0:0:
320,192,182021,1,0,0:0:0:0:
448,192,182106,1,0,0:0:0:0:
64,192,182191,128,0,182361:0:0:0:0:
192,192,182191,1,0,0:0:0:0:
320,192,182276,1,0,0:0:0:0:
448,192,182361,1,0,0:0:0:0:
192,192,182447,1,0,0:0:0:0:
64,192,182532,1,0,0:0:0:0:
448,192,182532,1,0,0:0:0:0:
320,192,182617,1,0,0:0:0:0:
192,192,182702,1,0,0:0:0:0:
448,192,182788,1,0,0:0:0:0:
64,192,182873,128,0,183043:0:0:0:0:
320,192,182873,1,0,0:0:0:0:
192,192,183043,1,0,0:0:0:0:
320,192,183128,1,0,0:0:0:0:
448,192,183214,1,0,0:0:0:0:
64,192,183214,1,0,0:0:0:0:
192,192,183299,1,0,0:0:0:0:
320,192,183384,1,0,0:0:0:0:
448,192,183469,1,0,0:0:0:0:
64,192,183555,128,0,183725:0:0:0:0:
192,192,183555,1,0,0:0:0:0:
320,192,183640,1,0,0:0:0:0:
448,192,183725,1,0,0:0:0:0:
192,192,183810,1,0,0:0:0:0:
64,192,183896,1,0,0:0:0:0:
320,192,183896,1,0,0:0:0:0:
192,192,184066,1,0,0:0:0:0:
320,192,184151,1,0,0:0:0:0:
448,192,184236,1,0,0:0:0:0:
64,192,184236,128,0,184407:0:0:0:0:
192,192,184407,1,0,0:0:0:0:
320,192,184492,1,0,0:0:0:0:
64,192,184577,1,0,0:0:0:0:
448,192,184577,1,0,0:0:0:0:
192,192,184663,1,0,0:0:0:0:
448,192,184748,1,0,0:0:0:0:
320,192,184833,1,0,0:0:0:0:
64,192,184918,128,0,185089:0:0:0:0:
192,192,184918,1,0,0:0:0:0:
448,192,185003,1,0,0:0:0:0:
320,192,185089,1,0,0:0:0:0:
192,192,185174,1,0,0:0:0:0:
64,192,185259,1,0,0:0:0:0:
448,192,185259,1,0,0:0:0:0:
320,192,185344,1,0,0:0:0:0:
192,192,185430,1,0,0:0:0:0:
448,192,185515,1,0,0:0:0:0:
64,192,185600,128,0,185771:0:0:0:0:
320,192,185600,1,0,0:0:0:0:
192,192,185685,1,0,0:0:0:0:
448,192,185771,1,0,0:0:0:0:
192,192,185856,1,0,0:0:0:0:
64,192,185941,1,0,0:0:0:0:
320,192,185941,1,0,0:0:0:0:
448,192,186026,1,0,0:0:0:0:
192,192,186111,1,0,0:0:0:0:
320,192,186197,1,0,0:0:0:0:
64,192,186282,128,0,186452:0:0:0:0:
448,192,186282,1,0,0:0:0:0:
192,192,186367,1,0,0:0:0:0:
448,192,186452,1,0,0:0:0:0:
320,192,186538,1,0,0:0:0:0:
64,192,186623,1,0,0:0:0:0:
192,192,186623,1,0,0:0:0:0:
448,192,186708,1,0,0:0:0:0:
192,192,186793,1,0,0:0:0:0:
320,192,186878,1,0,0:0:0:0:
448,192,186964,1,0,0:0:0:0:
64,192,186964,128,0,187134:0:0:0:0:
192,192,187049,1,0,0:0:0:0:
320,192,187134,1,0,0:0:0:0:
192,192,187219,1,0,0:0:0:0:
64,192,187305,1,0,0:0:0:0:
448,192,187305,1,0,0:0:0:0:
192,192,187475,1,0,0:0:0:0:
320,192,187560,1,0,0:0:0:0:
64,192,187646,128,0,187816:0:0:0:0:
448,192,187646,1,0,0:0:0:0:
192,192,187731,1,0,0:0:0:0:
448,192,187816,1,0,0:0:0:0:
320,192,187901,1,0,0:0:0:0:
64,192,187986,1,0,0:0:0:0:
192,192,187986,1,0,0:0:0:0:
448,192,188072,1,0,0:0:0:0:
192,192,188157,1,0,0:0:0:0:
320,192,188242,1,0,0:0:0:0:
64,192,188327,128,0,188498:0:0:0:0:
448,192,188327,1,0,0:0:0:0:
320,192,188498,1,0,0:0:0:0:
192,192,188583,1,0,0:0:0:0:
448,192,188668,1,0,0:0:0:0:
64,192,188668,1,0,0:0:0:0:
320,192,188753,1,0,0:0:0:0:
192,192,188839,1,0,0:0:0:0:
448,192,188924,1,0,0:0:0:0:
64,192,189009,128,0,189180:0:0:0:0:
320,192,189009,1,0,0:0:0:0:
192,192,189094,1,0,0:0:0:0:
448,192,189180,1,0,0:0:0:0:
320,192,189265,1,0,0:0:0:0:
64,192,189350,1,0,0:0:0:0:
192,192,189350,1,0,0:0:0:0:
448,192,189435,1,0,0:0:0:0:
320,192,189521,1,0,0:0:0:0:
192,192,189606,1,0,0:0:0:0:
64,192,189691,1,0,0:0:0:0:
320,192,189691,128,0,189776:0:0:0:0:
448,192,189691,128,0,189776:0:0:0:0:
192,192,189861,1,0,0:0:0:0:
64,192,189947,1,0,0:0:0:0:
320,192,190032,128,0,190117:0:0:0:0:
448,192,190032,128,0,190117:0:0:0:0:
64,192,190202,1,0,0:0:0:0:
192,192,190288,1,0,0:0:0:0:
320,192,190373,128,0,190479:0:0:0:0:
448,192,190373,128,0,190479:0:0:0:0:
192,192,190543,1,0,0:0:0:0:
64,192,190628,1,0,0:0:0:0:
320,192,190714,128,0,190820:0:0:0:0:
448,192,190714,128,0,190820:0:0:0:0:
64,192,190884,1,0,0:0:0:0:
192,192,190969,1,0,0:0:0:0:
320,192,191055,128,0,191182:0:0:0:0:
448,192,191055,128,0,191182:0:0:0:0:
192,192,191225,1,0,0:0:0:0:
64,192,191310,1,0,0:0:0:0:
320,192,191396,128,0,191523:0:0:0:0:
448,192,191396,128,0,191523:0:0:0:0:
64,192,191566,1,0,0:0:0:0:
192,192,191651,1,0,0:0:0:0:
448,192,191736,128,0,191907:0:0:0:0:
320,192,191736,128,0,191907:0:0:0:0:
192,192,191907,1,0,0:0:0:0:
64,192,191992,1,0,0:0:0:0:
320,192,192077,128,0,192248:0:0:0:0:
448,192,192077,128,0,192248:0:0:0:0:
64,192,192248,1,0,0:0:0:0:
192,192,192333,1,0,0:0:0:0:
448,192,192418,128,0,192589:0:0:0:0:
320,192,192418,128,0,192589:0:0:0:0:
192,192,192589,1,0,0:0:0:0:
64,192,192674,1,0,0:0:0:0:
320,192,192759,128,0,192930:0:0:0:0:
448,192,192759,128,0,192930:0:0:0:0:
64,192,192930,1,0,0:0:0:0:
192,192,193015,1,0,0:0:0:0:
320,192,193100,128,0,193271:0:0:0:0:
448,192,193100,128,0,193271:0:0:0:0:
192,192,193271,1,0,0:0:0:0:
64,192,193356,1,0,0:0:0:0:
448,192,193441,128,0,193611:0:0:0:0:
320,192,193441,128,0,193611:0:0:0:0:
64,192,193611,1,0,0:0:0:0:
192,192,193697,1,0,0:0:0:0:
448,192,193782,128,0,193952:0:0:0:0:
320,192,193782,128,0,193952:0:0:0:0:
192,192,193952,1,0,0:0:0:0:
64,192,194038,1,0,0:0:0:0:
320,192,194123,128,0,194293:0:0:0:0:
448,192,194123,128,0,194293:0:0:0:0:
64,192,194293,1,0,0:0:0:0:
192,192,194378,1,0,0:0:0:0:
320,192,194464,128,0,194634:0:0:0:0:
448,192,194464,128,0,194634:0:0:0:0:
192,192,194634,1,0,0:0:0:0:
64,192,194719,1,0,0:0:0:0:
448,192,194805,128,0,194975:0:0:0:0:
320,192,194805,128,0,194975:0:0:0:0:
64,192,194975,1,0,0:0:0:0:
192,192,195060,1,0,0:0:0:0:
64,192,195146,1,0,0:0:0:0:
448,192,195146,1,0,0:0:0:0:
320,192,195146,1,0,0:0:0:0:
192,192,195316,1,0,0:0:0:0:
320,192,195401,1,0,0:0:0:0:
448,192,195401,1,0,0:0:0:0:
64,192,195486,1,0,0:0:0:0:
192,192,195486,1,0,0:0:0:0:
192,192,195657,1,0,0:0:0:0:
320,192,195657,1,0,0:0:0:0:
320,192,195827,1,0,0:0:0:0:
448,192,195827,1,0,0:0:0:0:
64,192,195913,1,0,0:0:0:0:
192,192,195913,1,0,0:0:0:0:
320,192,195998,1,0,0:0:0:0:
448,192,195998,1,0,0:0:0:0:
320,192,196168,1,0,0:0:0:0:
192,192,196168,1,0,0:0:0:0:
64,192,196339,1,0,0:0:0:0:
192,192,196339,1,0,0:0:0:0:
64,192,196509,1,0,0:0:0:0:
448,192,196509,1,0,0:0:0:0:
192,192,196594,1,0,0:0:0:0:
320,192,196594,1,0,0:0:0:0:
448,192,196680,1,0,0:0:0:0:
64,192,196680,1,0,0:0:0:0:
64,192,196850,1,0,0:0:0:0:
192,192,196850,1,0,0:0:0:0:
192,192,197021,1,0,0:0:0:0:
320,192,197021,1,0,0:0:0:0:
320,192,197191,1,0,0:0:0:0:
448,192,197191,1,0,0:0:0:0:
64,192,197191,1,0,0:0:0:0:
192,192,197361,1,0,0:0:0:0:
448,192,197447,1,0,0:0:0:0:
320,192,197447,1,0,0:0:0:0:
64,192,197532,1,0,0:0:0:0:
192,192,197532,1,0,0:0:0:0:
64,192,197702,1,0,0:0:0:0:
448,192,197702,1,0,0:0:0:0:
192,192,197873,5,0,0:0:0:0:
448,192,197873,1,0,0:0:0:0:
320,192,197958,1,0,0:0:0:0:
64,192,197958,1,0,0:0:0:0:
192,192,198043,1,0,0:0:0:0:
448,192,198043,1,0,0:0:0:0:
320,192,198128,1,0,0:0:0:0:
192,192,198214,1,0,0:0:0:0:
64,192,198214,128,0,198299:0:0:0:0:
320,192,198299,1,0,0:0:0:0:
448,192,198299,128,0,198384:0:0:0:0:
192,192,198384,1,0,0:0:0:0:
64,192,198384,128,0,198469:0:0:0:0:
320,192,198469,1,0,0:0:0:0:
448,192,198469,128,0,198555:0:0:0:0:
64,192,198555,128,0,198640:0:0:0:0:
192,192,198555,128,0,198640:0:0:0:0:
448,192,198640,128,0,198725:0:0:0:0:
320,192,198640,128,0,198725:0:0:0:0:
64,192,198725,128,0,198810:0:0:0:0:
192,192,198725,128,0,198810:0:0:0:0:
448,192,198810,128,0,198896:0:0:0:0:
320,192,198810,128,0,198896:0:0:0:0:
192,192,198896,128,0,198981:0:0:0:0:
64,192,198896,128,0,198981:0:0:0:0:
320,192,198981,128,0,199066:0:0:0:0:
448,192,198981,128,0,199066:0:0:0:0:
64,192,199066,128,0,199151:0:0:0:0:
192,192,199066,128,0,199151:0:0:0:0:
320,192,199151,128,0,199236:0:0:0:0:
448,192,199151,128,0,199236:0:0:0:0:
192,192,199236,1,0,0:0:0:0:
64,192,199236,128,0,199577:0:0:0:0:
448,192,199407,128,0,199577:0:0:0:0:
320,192,199492,128,0,199577:0:0:0:0:
448,192,200259,5,0,0:0:0:0:
320,192,200259,1,0,0:0:0:0:
448,192,200430,1,0,0:0:0:0:
320,192,200430,1,0,0:0:0:0:
64,192,200600,1,0,0:0:0:0:
192,192,200600,1,0,0:0:0:0:
320,192,200600,128,0,200856:0:0:0:0:
448,192,200600,128,0,200685:0:0:0:0:
192,192,200771,128,0,200856:0:0:0:0:
64,192,200941,1,0,0:0:0:0:
320,192,200941,128,0,201197:0:0:0:0:
448,192,200941,128,0,201026:0:0:0:0:
192,192,201111,128,0,201197:0:0:0:0:
320,192,201282,128,0,201538:0:0:0:0:
64,192,201282,128,0,201367:0:0:0:0:
448,192,201282,1,0,0:0:0:0:
192,192,201452,128,0,201708:0:0:0:0:
448,192,201452,128,0,201538:0:0:0:0:
64,192,201623,128,0,201878:0:0:0:0:
448,192,201623,1,0,0:0:0:0:
320,192,201623,128,0,201708:0:0:0:0:
448,192,201793,128,0,201964:0:0:0:0:
192,192,201793,128,0,201878:0:0:0:0:
192,192,201964,1,0,0:0:0:0:
320,192,201964,1,0,0:0:0:0:
64,192,201964,1,0,0:0:0:0:
64,192,202134,128,0,202390:0:0:0:0:
448,192,202134,128,0,202219:0:0:0:0:
192,192,202305,128,0,202560:0:0:0:0:
448,192,202305,1,0,0:0:0:0:
320,192,202305,128,0,202390:0:0:0:0:
320,192,202475,128,0,202646:0:0:0:0:
64,192,202475,128,0,202560:0:0:0:0:
448,192,202646,1,0,0:0:0:0:
192,192,202646,1,0,0:0:0:0:
64,192,202646,1,0,0:0:0:0:
192,192,202816,128,0,202901:0:0:0:0:
448,192,202816,128,0,202986:0:0:0:0:
320,192,202901,128,0,203072:0:0:0:0:
64,192,202986,128,0,203242:0:0:0:0:
192,192,202986,128,0,203157:0:0:0:0:
448,192,203157,128,0,203242:0:0:0:0:
320,192,203157,128,0,203242:0:0:0:0:
64,192,203327,128,0,203583:0:0:0:0:
320,192,203327,128,0,203498:0:0:0:0:
448,192,203327,1,0,0:0:0:0:
192,192,203413,128,0,203583:0:0:0:0:
448,192,203498,128,0,203583:0:0:0:0:
320,192,203583,128,0,203668:0:0:0:0:
192,192,203668,1,0,0:0:0:0:
448,192,203668,128,0,203924:0:0:0:0:
64,192,203668,128,0,203839:0:0:0:0:
320,192,203753,128,0,203924:0:0:0:0:
192,192,203839,128,0,203924:0:0:0:0:
64,192,203924,128,0,204009:0:0:0:0:
320,192,204009,1,0,0:0:0:0:
192,192,204009,128,0,204265:0:0:0:0:
448,192,204009,128,0,204180:0:0:0:0:
64,192,204094,128,0,204265:0:0:0:0:
320,192,204180,128,0,204265:0:0:0:0:
448,192,204265,128,0,204350:0:0:0:0:
320,192,204350,128,0,204606:0:0:0:0:
192,192,204350,1,0,0:0:0:0:
64,192,204350,128,0,204521:0:0:0:0:
448,192,204435,128,0,204606:0:0:0:0:
192,192,204521,128,0,204606:0:0:0:0:
64,192,204606,128,0,204691:0:0:0:0:
448,192,204691,1,0,0:0:0:0:
320,192,204691,1,0,0:0:0:0:
192,192,204691,128,0,204947:0:0:0:0:
64,192,204776,128,0,204947:0:0:0:0:
320,192,204861,128,0,205032:0:0:0:0:
64,192,205032,1,0,0:0:0:0:
192,192,205032,1,0,0:0:0:0:
448,192,205032,128,0,205288:0:0:0:0:
320,192,205117,128,0,205288:0:0:0:0:
192,192,205202,128,0,205373:0:0:0:0:
448,192,205373,1,0,0:0:0:0:
320,192,205373,1,0,0:0:0:0:
64,192,205373,128,0,205628:0:0:0:0:
192,192,205458,128,0,205628:0:0:0:0:
320,192,205543,128,0,205714:0:0:0:0:
64,192,205714,1,0,0:0:0:0:
192,192,205714,1,0,0:0:0:0:
448,192,205714,1,0,0:0:0:0:
64,192,205884,1,0,0:0:0:0:
448,192,205884,1,0,0:0:0:0:
448,192,206055,1,0,0:0:0:0:
192,192,206055,128,0,206310:0:0:0:0:
64,192,206055,128,0,206140:0:0:0:0:
320,192,206225,128,0,206310:0:0:0:0:
448,192,206396,1,0,0:0:0:0:
192,192,206396,128,0,206651:0:0:0:0:
64,192,206396,128,0,206481:0:0:0:0:
320,192,206566,128,0,206651:0:0:0:0:
192,192,206736,128,0,206992:0:0:0:0:
64,192,206736,1,0,0:0:0:0:
448,192,206736,128,0,206822:0:0:0:0:
320,192,206907,128,0,207163:0:0:0:0:
64,192,206907,128,0,206992:0:0:0:0:
448,192,207077,128,0,207333:0:0:0:0:
64,192,207077,1,0,0:0:0:0:
192,192,207077,128,0,207163:0:0:0:0:
64,192,207248,128,0,207418:0:0:0:0:
320,192,207248,128,0,207333:0:0:0:0:
320,192,207418,1,0,0:0:0:0:
192,192,207418,1,0,0:0:0:0:
448,192,207418,1,0,0:0:0:0:
448,192,207589,128,0,207844:0:0:0:0:
64,192,207589,128,0,207674:0:0:0:0:
192,192,207759,128,0,208015:0:0:0:0:
64,192,207759,1,0,0:0:0:0:
320,192,207759,128,0,207844:0:0:0:0:
320,192,207930,128,0,208100:0:0:0:0:
448,192,207930,128,0,208015:0:0:0:0:
64,192,208100,1,0,0:0:0:0:
192,192,208100,1,0,0:0:0:0:
448,192,208100,1,0,0:0:0:0:
320,192,208271,128,0,208356:0:0:0:0:
64,192,208271,128,0,208441:0:0:0:0:
192,192,208356,128,0,208526:0:0:0:0:
448,192,208441,128,0,208697:0:0:0:0:
320,192,208441,128,0,208611:0:0:0:0:
64,192,208611,128,0,208697:0:0:0:0:
192,192,208611,128,0,208697:0:0:0:0:
64,192,208782,1,0,0:0:0:0:
448,192,208782,128,0,209038:0:0:0:0:
192,192,208782,128,0,208952:0:0:0:0:
320,192,208867,128,0,209038:0:0:0:0:
64,192,208952,128,0,209038:0:0:0:0:
192,192,209038,128,0,209123:0:0:0:0:
320,192,209123,1,0,0:0:0:0:
64,192,209123,128,0,209378:0:0:0:0:
448,192,209123,128,0,209293:0:0:0:0:
192,192,209208,128,0,209378:0:0:0:0:
320,192,209293,128,0,209378:0:0:0:0:
448,192,209378,128,0,209464:0:0:0:0:
192,192,209464,1,0,0:0:0:0:
320,192,209464,128,0,209719:0:0:0:0:
64,192,209464,128,0,209634:0:0:0:0:
448,192,209549,128,0,209719:0:0:0:0:
192,192,209634,128,0,209719:0:0:0:0:
64,192,209719,128,0,209805:0:0:0:0:
192,192,209805,128,0,210060:0:0:0:0:
320,192,209805,1,0,0:0:0:0:
448,192,209805,128,0,209975:0:0:0:0:
64,192,209890,128,0,210060:0:0:0:0:
320,192,209975,128,0,210060:0:0:0:0:
448,192,210060,128,0,210146:0:0:0:0:
192,192,210146,128,0,210401:0:0:0:0:
64,192,210146,128,0,210231:0:0:0:0:
320,192,210316,128,0,210572:0:0:0:0:
64,192,210486,128,0,210742:0:0:0:0:
192,192,210486,128,0,210572:0:0:0:0:
320,192,210657,128,0,210913:0:0:0:0:
192,192,210827,128,0,211083:0:0:0:0:
64,192,210827,128,0,210913:0:0:0:0:
320,192,210998,128,0,211253:0:0:0:0:
64,192,211168,128,0,211253:0:0:0:0:
192,192,211168,128,0,211253:0:0:0:0:
448,192,211168,128,0,211253:0:0:0:0:
320,192,211339,1,0,0:0:0:0:
192,192,211339,1,0,0:0:0:0:
192,192,211509,1,0,0:0:0:0:
64,192,211509,1,0,0:0:0:0:
320,192,211509,128,0,211765:0:0:0:0:
448,192,211509,128,0,211594:0:0:0:0:
192,192,211680,128,0,211765:0:0:0:0:
64,192,211850,1,0,0:0:0:0:
320,192,211850,128,0,212106:0:0:0:0:
448,192,211850,128,0,211935:0:0:0:0:
192,192,212021,128,0,212106:0:0:0:0:
320,192,212191,128,0,212447:0:0:0:0:
448,192,212191,1,0,0:0:0:0:
64,192,212191,128,0,212276:0:0:0:0:
192,192,212361,128,0,212617:0:0:0:0:
448,192,212361,128,0,212447:0:0:0:0:
64,192,212532,128,0,212788:0:0:0:0:
320,192,212532,128,0,212617:0:0:0:0:
448,192,212532,1,0,0:0:0:0:
448,192,212702,128,0,212873:0:0:0:0:
192,192,212702,128,0,212788:0:0:0:0:
192,192,212873,1,0,0:0:0:0:
320,192,212873,1,0,0:0:0:0:
64,192,212873,1,0,0:0:0:0:
64,192,213043,128,0,213299:0:0:0:0:
448,192,213043,128,0,213128:0:0:0:0:
192,192,213214,128,0,213469:0:0:0:0:
448,192,213214,1,0,0:0:0:0:
320,192,213214,128,0,213299:0:0:0:0:
320,192,213384,128,0,213555:0:0:0:0:
64,192,213384,128,0,213469:0:0:0:0:
448,192,213555,1,0,0:0:0:0:
192,192,213555,1,0,0:0:0:0:
64,192,213555,1,0,0:0:0:0:
192,192,213725,128,0,213810:0:0:0:0:
448,192,213725,128,0,213896:0:0:0:0:
320,192,213810,128,0,213981:0:0:0:0:
64,192,213896,128,0,214151:0:0:0:0:
192,192,213896,128,0,214066:0:0:0:0:
448,192,214066,128,0,214151:0:0:0:0:
320,192,214066,128,0,214151:0:0:0:0:
448,192,214236,1,0,0:0:0:0:
64,192,214236,128,0,214492:0:0:0:0:
320,192,214236,128,0,214407:0:0:0:0:
192,192,214322,128,0,214492:0:0:0:0:
448,192,214407,128,0,214492:0:0:0:0:
320,192,214492,128,0,214577:0:0:0:0:
192,192,214577,1,0,0:0:0:0:
448,192,214577,128,0,214833:0:0:0:0:
64,192,214577,128,0,214748:0:0:0:0:
320,192,214663,128,0,214833:0:0:0:0:
192,192,214748,128,0,214833:0:0:0:0:
64,192,214833,128,0,214918:0:0:0:0:
320,192,214918,1,0,0:0:0:0:
192,192,214918,128,0,215174:0:0:0:0:
448,192,214918,128,0,215089:0:0:0:0:
64,192,215003,128,0,215174:0:0:0:0:
320,192,215089,128,0,215174:0:0:0:0:
448,192,215174,128,0,215259:0:0:0:0:
320,192,215259,128,0,215515:0:0:0:0:
192,192,215259,1,0,0:0:0:0:
64,192,215259,128,0,215430:0:0:0:0:
448,192,215344,128,0,215515:0:0:0:0:
192,192,215430,128,0,215515:0:0:0:0:
64,192,215515,128,0,215600:0:0:0:0:
320,192,215600,1,0,0:0:0:0:
192,192,215600,1,0,0:0:0:0:
448,192,215600,128,0,215856:0:0:0:0:
64,192,215771,128,0,215941:0:0:0:0:
192,192,215771,128,0,215856:0:0:0:0:
192,192,215941,128,0,216197:0:0:0:0:
448,192,215941,1,0,0:0:0:0:
320,192,215941,1,0,0:0:0:0:
320,192,216111,128,0,216282:0:0:0:0:
448,192,216111,128,0,216197:0:0:0:0:
64,192,216282,128,0,216538:0:0:0:0:
448,192,216282,1,0,0:0:0:0:
192,192,216282,1,0,0:0:0:0:
192,192,216452,128,0,216623:0:0:0:0:
320,192,216452,128,0,216538:0:0:0:0:
320,192,216623,128,0,216878:0:0:0:0:
64,192,216623,1,0,0:0:0:0:
448,192,216623,1,0,0:0:0:0:
448,192,216793,128,0,216964:0:0:0:0:
64,192,216793,128,0,216878:0:0:0:0:
64,192,216964,128,0,217134:0:0:0:0:
192,192,216964,128,0,217049:0:0:0:0:
320,192,217049,128,0,217219:0:0:0:0:
192,192,217134,128,0,217305:0:0:0:0:
64,192,217219,128,0,217475:0:0:0:0:
448,192,217305,128,0,217475:0:0:0:0:
320,192,217305,128,0,217390:0:0:0:0:
192,192,217390,128,0,217560:0:0:0:0:
320,192,217475,128,0,217646:0:0:0:0:
448,192,217560,128,0,217816:0:0:0:0:
192,192,217646,128,0,217731:0:0:0:0:
64,192,217646,128,0,217816:0:0:0:0:
320,192,217731,128,0,217901:0:0:0:0:
192,192,217816,128,0,217986:0:0:0:0:
64,192,217901,128,0,218157:0:0:0:0:
448,192,217986,128,0,218157:0:0:0:0:
320,192,217986,128,0,218072:0:0:0:0:
192,192,218072,128,0,218242:0:0:0:0:
320,192,218157,128,0,218327:0:0:0:0:
448,192,218242,128,0,218413:0:0:0:0:
64,192,218327,128,0,218498:0:0:0:0:
192,192,218327,128,0,218498:0:0:0:0:
320,192,218413,128,0,218583:0:0:0:0:
448,192,218498,128,0,218668:0:0:0:0:
64,192,218583,128,0,218753:0:0:0:0:
192,192,218668,128,0,218839:0:0:0:0:
320,192,218668,128,0,218839:0:0:0:0:
448,192,218753,128,0,218924:0:0:0:0:
64,192,218839,128,0,219094:0:0:0:0:
192,192,218924,128,0,219009:0:0:0:0:
448,192,219009,128,0,219180:0:0:0:0:
320,192,219009,128,0,219180:0:0:0:0:
192,192,219094,128,0,219265:0:0:0:0:
64,192,219180,128,0,219350:0:0:0:0:
448,192,219265,128,0,219435:0:0:0:0:
320,192,219350,128,0,219521:0:0:0:0:
192,192,219350,128,0,219521:0:0:0:0:
64,192,219435,128,0,219606:0:0:0:0:
448,192,219521,128,0,219691:0:0:0:0:
320,192,219606,128,0,219691:0:0:0:0:
64,192,219691,128,0,219947:0:0:0:0:
192,192,219691,1,0,0:0:0:0:
320,192,219861,128,0,219947:0:0:0:0:
448,192,219861,128,0,220032:0:0:0:0:
64,192,220032,1,0,0:0:0:0:
192,192,220032,128,0,220288:0:0:0:0:
320,192,220032,1,0,0:0:0:0:
448,192,220202,128,0,220288:0:0:0:0:
64,192,220202,128,0,220373:0:0:0:0:
320,192,220373,128,0,220628:0:0:0:0:
448,192,220373,1,0,0:0:0:0:
64,192,220543,128,0,220628:0:0:0:0:
192,192,220543,128,0,220714:0:0:0:0:
320,192,220714,1,0,0:0:0:0:
448,192,220714,128,0,220969:0:0:0:0:
64,192,220714,1,0,0:0:0:0:
64,192,220884,128,0,221055:0:0:0:0:
192,192,220884,128,0,220969:0:0:0:0:
320,192,221055,1,0,0:0:0:0:
192,192,221055,1,0,0:0:0:0:
448,192,221055,128,0,221225:0:0:0:0:
64,192,221225,128,0,221396:0:0:0:0:
192,192,221310,128,0,221396:0:0:0:0:
448,192,221396,128,0,221566:0:0:0:0:
320,192,221396,1,0,0:0:0:0:
64,192,221566,128,0,221736:0:0:0:0:
192,192,221651,128,0,221736:0:0:0:0:
320,192,221736,1,0,0:0:0:0:
448,192,221736,128,0,222333:0:0:0:0:
64,192,221907,128,0,222333:0:0:0:0:
192,192,222077,128,0,222333:0:0:0:0:
320,192,222248,128,0,222333:0:0:0:0:
320,192,222418,1,0,0:0:0:0:
192,192,222418,1,0,0:0:0:0:
64,192,222418,128,0,222674:0:0:0:0:
448,192,222418,128,0,222674:0:0:0:0:
192,192,222589,128,0,222759:0:0:0:0:
320,192,222674,128,0,222844:0:0:0:0:
64,192,222759,128,0,222930:0:0:0:0:
448,192,222759,128,0,223015:0:0:0:0:
192,192,222844,128,0,223015:0:0:0:0:
320,192,222930,128,0,223100:0:0:0:0:
64,192,223015,128,0,223100:0:0:0:0:
448,192,223100,128,0,223356:0:0:0:0:
192,192,223100,128,0,223185:0:0:0:0:
64,192,223185,128,0,223271:0:0:0:0:
320,192,223271,128,0,223526:0:0:0:0:
192,192,223356,128,0,223441:0:0:0:0:
64,192,223441,128,0,223697:0:0:0:0:
448,192,223441,128,0,223526:0:0:0:0:
192,192,223611,128,0,223952:0:0:0:0:
320,192,223697,128,0,223782:0:0:0:0:
64,192,223782,128,0,223952:0:0:0:0:
448,192,223782,128,0,223867:0:0:0:0:
320,192,223952,128,0,224123:0:0:0:0:
192,192,224038,128,0,224208:0:0:0:0:
64,192,224123,128,0,224293:0:0:0:0:
448,192,224123,128,0,224293:0:0:0:0:
320,192,224208,128,0,224378:0:0:0:0:
192,192,224293,128,0,224549:0:0:0:0:
64,192,224378,128,0,224464:0:0:0:0:
320,192,224464,128,0,224719:0:0:0:0:
448,192,224464,128,0,224549:0:0:0:0:
64,192,224549,128,0,224634:0:0:0:0:
448,192,224634,128,0,224890:0:0:0:0:
192,192,224719,128,0,224805:0:0:0:0:
64,192,224805,128,0,224890:0:0:0:0:
320,192,224805,128,0,224890:0:0:0:0:
192,192,224890,128,0,224975:0:0:0:0:
64,192,224975,128,0,225231:0:0:0:0:
448,192,225060,128,0,225146:0:0:0:0:
320,192,225146,128,0,225572:0:0:0:0:
192,192,225146,128,0,225231:0:0:0:0:
448,192,225316,128,0,225401:0:0:0:0:
64,192,225401,128,0,225486:0:0:0:0:
192,192,225486,128,0,225742:0:0:0:0:
448,192,225486,128,0,225572:0:0:0:0:
64,192,225657,128,0,225913:0:0:0:0:
320,192,225742,128,0,225827:0:0:0:0:
448,192,225827,128,0,225913:0:0:0:0:
192,192,225827,128,0,225913:0:0:0:0:
64,192,225998,128,0,226424:0:0:0:0:
448,192,226083,128,0,226168:0:0:0:0:
320,192,226168,128,0,226253:0:0:0:0:
192,192,226168,128,0,226253:0:0:0:0:
448,192,226339,128,0,226765:0:0:0:0:
320,192,226424,128,0,226509:0:0:0:0:
192,192,226509,128,0,226594:0:0:0:0:
64,192,226509,128,0,226594:0:0:0:0:
192,192,226680,128,0,226935:0:0:0:0:
64,192,226765,128,0,226850:0:0:0:0:
320,192,226850,128,0,227106:0:0:0:0:
448,192,226850,128,0,226935:0:0:0:0:
64,192,227021,128,0,227276:0:0:0:0:
192,192,227106,128,0,227191:0:0:0:0:
320,192,227191,128,0,227276:0:0:0:0:
448,192,227191,128,0,227276:0:0:0:0:
192,192,227276,128,0,227361:0:0:0:0:
64,192,227361,128,0,227447:0:0:0:0:
320,192,227447,128,0,227532:0:0:0:0:
448,192,227532,128,0,227617:0:0:0:0:
64,192,227532,128,0,227617:0:0:0:0:
192,192,227532,128,0,227617:0:0:0:0:
320,192,227617,128,0,227702:0:0:0:0:
448,192,227702,128,0,227788:0:0:0:0:
64,192,227702,128,0,227788:0:0:0:0:
192,192,227788,128,0,227873:0:0:0:0:
320,192,227873,128,0,227958:0:0:0:0:
64,192,227873,128,0,227958:0:0:0:0:
448,192,227873,128,0,228128:0:0:0:0:
192,192,228043,128,0,228214:0:0:0:0:
320,192,228128,128,0,228299:0:0:0:0:
448,192,228214,128,0,228384:0:0:0:0:
64,192,228214,128,0,228384:0:0:0:0:
192,192,228299,128,0,228469:0:0:0:0:
320,192,228384,128,0,228640:0:0:0:0:
448,192,228469,128,0,228555:0:0:0:0:
64,192,228555,128,0,228640:0:0:0:0:
192,192,228555,128,0,228640:0:0:0:0:
448,192,228640,128,0,228725:0:0:0:0:
320,192,228725,128,0,228981:0:0:0:0:
192,192,228810,128,0,228896:0:0:0:0:
64,192,228896,128,0,229151:0:0:0:0:
448,192,228896,128,0,228981:0:0:0:0:
448,192,229066,128,0,229407:0:0:0:0:
320,192,229151,128,0,229236:0:0:0:0:
64,192,229236,128,0,229407:0:0:0:0:
192,192,229236,128,0,229322:0:0:0:0:
320,192,229407,128,0,229577:0:0:0:0:
192,192,229492,128,0,229663:0:0:0:0:
448,192,229577,128,0,229748:0:0:0:0:
64,192,229577,128,0,229748:0:0:0:0:
320,192,229663,128,0,229833:0:0:0:0:
192,192,229748,128,0,230003:0:0:0:0:
448,192,229833,128,0,229918:0:0:0:0:
320,192,229918,128,0,230174:0:0:0:0:
64,192,229918,128,0,230003:0:0:0:0:
448,192,230003,128,0,230089:0:0:0:0:
64,192,230089,128,0,230344:0:0:0:0:
192,192,230174,128,0,230259:0:0:0:0:
448,192,230259,128,0,230515:0:0:0:0:
320,192,230259,128,0,230344:0:0:0:0:
192,192,230344,128,0,230430:0:0:0:0:
64,192,230430,128,0,230685:0:0:0:0:
320,192,230515,128,0,230600:0:0:0:0:
192,192,230600,128,0,230856:0:0:0:0:
448,192,230600,128,0,230685:0:0:0:0:
448,192,230771,128,0,231026:0:0:0:0:
64,192,230856,128,0,230941:0:0:0:0:
320,192,230941,128,0,231197:0:0:0:0:
192,192,230941,128,0,231026:0:0:0:0:
192,192,231111,128,0,231367:0:0:0:0:
448,192,231197,128,0,231282:0:0:0:0:
64,192,231282,128,0,231793:0:0:0:0:
320,192,231282,128,0,231367:0:0:0:0:
448,192,231452,128,0,231538:0:0:0:0:
320,192,231538,128,0,231623:0:0:0:0:
192,192,231623,128,0,231793:0:0:0:0:
448,192,231623,128,0,231708:0:0:0:0:
320,192,231793,128,0,231878:0:0:0:0:
192,192,231878,128,0,231964:0:0:0:0:
320,192,231964,128,0,232219:0:0:0:0:
448,192,231964,128,0,232219:0:0:0:0:
64,192,232134,128,0,232219:0:0:0:0:
320,192,232305,128,0,232560:0:0:0:0:
448,192,232305,128,0,232560:0:0:0:0:
64,192,232475,128,0,232560:0:0:0:0:
320,192,232646,128,0,232901:0:0:0:0:
448,192,232646,128,0,232901:0:0:0:0:
64,192,232816,128,0,232901:0:0:0:0:
448,192,232986,1,0,0:0:0:0:
320,192,232986,1,0,0:0:0:0:
64,192,232986,1,0,0:0:0:0:
320,192,233157,1,0,0:0:0:0:
192,192,233157,1,0,0:0:0:0:
448,192,233327,128,0,233583:0:0:0:0:
64,192,233327,128,0,233583:0:0:0:0:
192,192,233327,1,0,0:0:0:0:
320,192,233498,128,0,233668:0:0:0:0:
192,192,233583,128,0,233753:0:0:0:0:
64,192,233668,128,0,233839:0:0:0:0:
448,192,233668,128,0,233839:0:0:0:0:
320,192,233753,128,0,233924:0:0:0:0:
192,192,233839,128,0,234094:0:0:0:0:
448,192,233924,128,0,234009:0:0:0:0:
320,192,234009,128,0,234265:0:0:0:0:
64,192,234009,128,0,234094:0:0:0:0:
448,192,234094,128,0,234180:0:0:0:0:
192,192,234180,128,0,234435:0:0:0:0:
64,192,234265,128,0,234350:0:0:0:0:
448,192,234350,128,0,234606:0:0:0:0:
320,192,234350,128,0,234435:0:0:0:0:
64,192,234521,128,0,234861:0:0:0:0:
192,192,234606,128,0,234691:0:0:0:0:
448,192,234691,128,0,234861:0:0:0:0:
320,192,234691,128,0,234776:0:0:0:0:
192,192,234861,128,0,235032:0:0:0:0:
320,192,234947,128,0,235117:0:0:0:0:
64,192,235032,128,0,235202:0:0:0:0:
448,192,235032,128,0,235202:0:0:0:0:
192,192,235117,128,0,235288:0:0:0:0:
320,192,235202,128,0,235458:0:0:0:0:
448,192,235288,128,0,235373:0:0:0:0:
192,192,235373,128,0,235628:0:0:0:0:
64,192,235373,128,0,235458:0:0:0:0:
448,192,235458,128,0,235543:0:0:0:0:
64,192,235543,128,0,235799:0:0:0:0:
320,192,235628,128,0,235714:0:0:0:0:
448,192,235714,128,0,235799:0:0:0:0:
192,192,235714,128,0,235799:0:0:0:0:
320,192,235799,128,0,235884:0:0:0:0:
448,192,235884,128,0,236140:0:0:0:0:
64,192,235969,128,0,236055:0:0:0:0:
192,192,236055,128,0,236481:0:0:0:0:
320,192,236055,128,0,236140:0:0:0:0:
64,192,236225,128,0,236310:0:0:0:0:
448,192,236310,128,0,236396:0:0:0:0:
320,192,236396,128,0,236651:0:0:0:0:
64,192,236396,128,0,236481:0:0:0:0:
448,192,236566,128,0,236992:0:0:0:0:
192,192,236651,128,0,236736:0:0:0:0:
64,192,236736,128,0,236822:0:0:0:0:
320,192,236736,128,0,236822:0:0:0:0:
192,192,236907,128,0,237163:0:0:0:0:
64,192,236992,128,0,237077:0:0:0:0:
320,192,237077,128,0,237333:0:0:0:0:
448,192,237077,128,0,237163:0:0:0:0:
64,192,237248,128,0,237674:0:0:0:0:
448,192,237333,128,0,237418:0:0:0:0:
320,192,237418,128,0,237503:0:0:0:0:
192,192,237418,128,0,237503:0:0:0:0:
448,192,237589,128,0,237844:0:0:0:0:
320,192,237674,128,0,237759:0:0:0:0:
192,192,237759,128,0,238015:0:0:0:0:
64,192,237759,128,0,237844:0:0:0:0:
320,192,237930,128,0,238185:0:0:0:0:
448,192,238015,128,0,238100:0:0:0:0:
64,192,238100,128,0,238185:0:0:0:0:
192,192,238100,128,0,238185:0:0:0:0:
448,192,238185,128,0,238271:0:0:0:0:
320,192,238271,128,0,238356:0:0:0:0:
192,192,238356,128,0,238441:0:0:0:0:
64,192,238441,128,0,238697:0:0:0:0:
320,192,238441,128,0,238526:0:0:0:0:
448,192,238441,1,0,0:0:0:0:
192,192,238526,128,0,238611:0:0:0:0:
448,192,238611,128,0,238697:0:0:0:0:
320,192,238697,128,0,238782:0:0:0:0:
64,192,238782,128,0,239038:0:0:0:0:
192,192,238782,128,0,238867:0:0:0:0:
448,192,238782,1,0,0:0:0:0:
320,192,238952,128,0,239123:0:0:0:0:
192,192,239038,128,0,239208:0:0:0:0:
64,192,239123,128,0,239293:0:0:0:0:
448,192,239123,128,0,239293:0:0:0:0:
320,192,239208,128,0,239378:0:0:0:0:
192,192,239293,128,0,239549:0:0:0:0:
64,192,239378,128,0,239464:0:0:0:0:
320,192,239464,128,0,239549:0:0:0:0:
448,192,239464,128,0,239549:0:0:0:0:
64,192,239549,128,0,239634:0:0:0:0:
192,192,239634,128,0,239890:0:0:0:0:
320,192,239719,128,0,239805:0:0:0:0:
448,192,239805,128,0,240060:0:0:0:0:
64,192,239805,128,0,239890:0:0:0:0:
64,192,239975,128,0,240316:0:0:0:0:
192,192,240060,128,0,240146:0:0:0:0:
448,192,240146,128,0,240316:0:0:0:0:
320,192,240146,128,0,240231:0:0:0:0:
192,192,240316,128,0,240401:0:0:0:0:
320,192,240401,128,0,240486:0:0:0:0:
448,192,240486,128,0,240572:0:0:0:0:
64,192,240486,128,0,240572:0:0:0:0:
192,192,240572,128,0,240657:0:0:0:0:
320,192,240657,128,0,241083:0:0:0:0:
192,192,240742,128,0,240827:0:0:0:0:
64,192,240827,128,0,240913:0:0:0:0:
448,192,240827,128,0,240913:0:0:0:0:
192,192,240998,128,0,241253:0:0:0:0:
448,192,241083,128,0,241168:0:0:0:0:
320,192,241168,128,0,241253:0:0:0:0:
64,192,241168,128,0,241424:0:0:0:0:
448,192,241253,128,0,241339:0:0:0:0:
320,192,241339,128,0,241594:0:0:0:0:
192,192,241424,128,0,241509:0:0:0:0:
448,192,241509,128,0,241765:0:0:0:0:
64,192,241509,128,0,241594:0:0:0:0:
64,192,241680,128,0,241935:0:0:0:0:
320,192,241765,128,0,241850:0:0:0:0:
192,192,241850,128,0,242106:0:0:0:0:
448,192,241850,128,0,241935:0:0:0:0:
320,192,242021,128,0,242276:0:0:0:0:
64,192,242106,128,0,242191:0:0:0:0:
448,192,242191,128,0,242702:0:0:0:0:
192,192,242191,128,0,242276:0:0:0:0:
64,192,242361,128,0,242447:0:0:0:0:
192,192,242447,128,0,242532:0:0:0:0:
320,192,242532,128,0,242702:0:0:0:0:
64,192,242532,128,0,242617:0:0:0:0:
192,192,242702,128,0,242788:0:0:0:0:
320,192,242788,128,0,242873:0:0:0:0:
64,192,242873,128,0,242958:0:0:0:0:
448,192,242873,128,0,242958:0:0:0:0:
448,192,243043,5,0,0:0:0:0:
64,192,243043,1,0,0:0:0:0:
320,192,243128,1,0,0:0:0:0:
192,192,243384,1,0,0:0:0:0:
64,192,243469,1,0,0:0:0:0:
448,192,243725,128,0,243810:0:0:0:0:
64,192,243810,128,0,243896:0:0:0:0:
320,192,243896,128,0,243981:0:0:0:0:
448,192,243981,128,0,244066:0:0:0:0:
192,192,244066,128,0,244151:0:0:0:0:
320,192,244151,128,0,244236:0:0:0:0:
192,192,244236,128,0,244407:0:0:0:0:
64,192,244236,128,0,244407:0:0:0:0:
448,192,244236,1,0,0:0:0:0:
320,192,244322,128,0,244577:0:0:0:0:
448,192,244407,128,0,244492:0:0:0:0:
192,192,244492,128,0,244663:0:0:0:0:
448,192,244577,128,0,244748:0:0:0:0:
64,192,244577,128,0,244663:0:0:0:0:
320,192,244663,128,0,244833:0:0:0:0:
192,192,244748,128,0,244918:0:0:0:0:
64,192,244833,128,0,245003:0:0:0:0:
448,192,244918,128,0,245089:0:0:0:0:
320,192,244918,128,0,245089:0:0:0:0:
192,192,245003,128,0,245259:0:0:0:0:
64,192,245089,128,0,245174:0:0:0:0:
320,192,245174,128,0,245344:0:0:0:0:
64,192,245259,128,0,245430:0:0:0:0:
448,192,245259,128,0,245344:0:0:0:0:
192,192,245344,128,0,245515:0:0:0:0:
320,192,245430,128,0,245600:0:0:0:0:
448,192,245515,128,0,245685:0:0:0:0:
64,192,245600,128,0,245856:0:0:0:0:
192,192,245600,128,0,245771:0:0:0:0:
320,192,245685,128,0,245856:0:0:0:0:
448,192,245771,128,0,245941:0:0:0:0:
192,192,245856,128,0,246026:0:0:0:0:
64,192,245941,128,0,246111:0:0:0:0:
320,192,245941,128,0,246197:0:0:0:0:
448,192,246026,128,0,246197:0:0:0:0:
192,192,246111,128,0,246282:0:0:0:0:
64,192,246197,128,0,246538:0:0:0:0:
320,192,246282,128,0,246452:0:0:0:0:
448,192,246282,128,0,246367:0:0:0:0:
192,192,246367,128,0,246538:0:0:0:0:
448,192,246452,128,0,246623:0:0:0:0:
320,192,246538,128,0,246623:0:0:0:0:
192,192,246623,128,0,246708:0:0:0:0:
64,192,246623,128,0,246708:0:0:0:0:
448,192,246708,128,0,246793:0:0:0:0:
320,192,246708,128,0,246878:0:0:0:0:
192,192,246793,128,0,246878:0:0:0:0:
64,192,246793,128,0,246878:0:0:0:0:
448,192,246878,128,0,246964:0:0:0:0:
320,192,246964,128,0,247049:0:0:0:0:
192,192,246964,128,0,247049:0:0:0:0:
64,192,246964,128,0,247049:0:0:0:0:
64,192,247134,128,0,247219:0:0:0:0:
320,192,247134,128,0,247219:0:0:0:0:
448,192,247134,128,0,247219:0:0:0:0:
448,192,247305,128,0,247390:0:0:0:0:
192,192,247305,128,0,247390:0:0:0:0:
64,192,247305,128,0,247390:0:0:0:0:
192,192,247475,128,0,247560:0:0:0:0:
320,192,247475,128,0,247560:0:0:0:0:
448,192,247475,128,0,247560:0:0:0:0:
320,192,247646,128,0,247731:0:0:0:0:
192,192,247646,128,0,247731:0:0:0:0:
64,192,247646,128,0,247731:0:0:0:0:
64,192,247816,128,0,247901:0:0:0:0:
320,192,247816,128,0,247901:0:0:0:0:
448,192,247816,128,0,247901:0:0:0:0:
448,192,247986,128,0,248072:0:0:0:0:
192,192,247986,128,0,248072:0:0:0:0:
64,192,247986,128,0,248072:0:0:0:0:
448,192,248157,128,0,248242:0:0:0:0:
320,192,248157,128,0,248242:0:0:0:0:
192,192,248157,128,0,248242:0:0:0:0:
320,192,248327,128,0,248413:0:0:0:0:
192,192,248327,128,0,248413:0:0:0:0:
64,192,248327,128,0,248413:0:0:0:0:
320,192,248498,128,0,248583:0:0:0:0:
448,192,248498,128,0,248583:0:0:0:0:
192,192,248583,128,0,248668:0:0:0:0:
64,192,248583,128,0,248668:0:0:0:0:
320,192,248668,128,0,248753:0:0:0:0:
448,192,248668,128,0,248753:0:0:0:0:
192,192,248839,128,0,248924:0:0:0:0:
64,192,248839,128,0,248924:0:0:0:0:
320,192,248924,128,0,249009:0:0:0:0:
448,192,248924,128,0,249009:0:0:0:0:
192,192,249009,128,0,249094:0:0:0:0:
64,192,249009,128,0,249094:0:0:0:0:
192,192,249180,128,0,249265:0:0:0:0:
320,192,249180,128,0,249265:0:0:0:0:
320,192,249350,1,0,0:0:0:0:
448,192,249350,128,0,249606:0:0:0:0:
64,192,249350,128,0,249606:0:0:0:0:
192,192,249435,128,0,249606:0:0:0:0:
320,192,249521,128,0,249606:0:0:0:0:
448,192,249691,1,0,0:0:0:0:
64,192,249691,1,0,0:0:0:0:
192,192,249691,128,0,249776:0:0:0:0:
320,192,249776,128,0,249947:0:0:0:0:
192,192,249861,128,0,250032:0:0:0:0:
64,192,250032,1,0,0:0:0:0:
448,192,250032,1,0,0:0:0:0:
320,192,250032,128,0,250117:0:0:0:0:
192,192,250117,128,0,250288:0:0:0:0:
320,192,250202,128,0,250373:0:0:0:0:
192,192,250373,1,0,0:0:0:0:
64,192,250373,128,0,250458:0:0:0:0:
448,192,250458,128,0,250543:0:0:0:0:
64,192,250543,128,0,250628:0:0:0:0:
448,192,250628,128,0,250714:0:0:0:0:
64,192,250714,128,0,250799:0:0:0:0:
192,192,250714,128,0,250799:0:0:0:0:
320,192,250799,128,0,250969:0:0:0:0:
448,192,250799,128,0,250884:0:0:0:0:
64,192,250884,128,0,251055:0:0:0:0:
192,192,250884,128,0,250969:0:0:0:0:
320,192,251055,1,0,0:0:0:0:
192,192,251055,1,0,0:0:0:0:
448,192,251055,128,0,251140:0:0:0:0:
64,192,251140,128,0,251310:0:0:0:0:
448,192,251225,128,0,251396:0:0:0:0:
192,192,251396,1,0,0:0:0:0:
320,192,251396,1,0,0:0:0:0:
64,192,251396,128,0,251481:0:0:0:0:
448,192,251481,128,0,251651:0:0:0:0:
64,192,251566,128,0,251736:0:0:0:0:
192,192,251736,1,0,0:0:0:0:
448,192,251736,128,0,252163:0:0:0:0:
320,192,251822,128,0,252077:0:0:0:0:
192,192,251907,128,0,251992:0:0:0:0:
64,192,251992,128,0,252163:0:0:0:0:
192,192,252077,128,0,252248:0:0:0:0:
320,192,252163,128,0,252333:0:0:0:0:
448,192,252248,128,0,252333:0:0:0:0:
64,192,252333,128,0,252418:0:0:0:0:
192,192,252418,1,0,0:0:0:0:
448,192,252418,1,0,0:0:0:0:
320,192,252418,128,0,252503:0:0:0:0:
64,192,252503,128,0,252674:0:0:0:0:
320,192,252589,128,0,252759:0:0:0:0:
448,192,252759,1,0,0:0:0:0:
64,192,252759,1,0,0:0:0:0:
192,192,252759,128,0,252844:0:0:0:0:
320,192,252844,128,0,253015:0:0:0:0:
192,192,252930,128,0,253100:0:0:0:0:
320,192,253100,1,0,0:0:0:0:
448,192,253100,128,0,253185:0:0:0:0:
64,192,253185,128,0,253271:0:0:0:0:
448,192,253271,128,0,253356:0:0:0:0:
64,192,253356,128,0,253441:0:0:0:0:
448,192,253441,128,0,253526:0:0:0:0:
320,192,253441,128,0,253526:0:0:0:0:
192,192,253526,128,0,253697:0:0:0:0:
64,192,253526,128,0,253611:0:0:0:0:
448,192,253611,128,0,253782:0:0:0:0:
320,192,253611,128,0,253697:0:0:0:0:
192,192,253782,1,0,0:0:0:0:
64,192,253782,1,0,0:0:0:0:
448,192,253952,128,0,254038:0:0:0:0:
320,192,254038,128,0,254123:0:0:0:0:
192,192,254123,1,0,0:0:0:0:
64,192,254123,128,0,254208:0:0:0:0:
320,192,254293,128,0,254378:0:0:0:0:
64,192,254464,1,0,0:0:0:0:
192,192,254464,128,0,254549:0:0:0:0:
320,192,254634,128,0,254719:0:0:0:0:
192,192,254805,1,0,0:0:0:0:
64,192,254805,128,0,254890:0:0:0:0:
448,192,254975,128,0,255060:0:0:0:0:
192,192,255060,128,0,255146:0:0:0:0:
64,192,255146,1,0,0:0:0:0:
448,192,255146,1,0,0:0:0:0:
320,192,255146,128,0,255231:0:0:0:0:
192,192,255231,128,0,255401:0:0:0:0:
320,192,255316,128,0,255486:0:0:0:0:
448,192,255486,1,0,0:0:0:0:
64,192,255486,1,0,0:0:0:0:
192,192,255486,128,0,255572:0:0:0:0:
320,192,255572,128,0,255742:0:0:0:0:
192,192,255657,128,0,255827:0:0:0:0:
320,192,255827,1,0,0:0:0:0:
448,192,255827,128,0,255913:0:0:0:0:
64,192,255913,128,0,255998:0:0:0:0:
448,192,255998,128,0,256083:0:0:0:0:
64,192,256083,128,0,256168:0:0:0:0:
448,192,256168,128,0,256253:0:0:0:0:
192,192,256253,128,0,256424:0:0:0:0:
64,192,256253,128,0,256339:0:0:0:0:
448,192,256339,128,0,256509:0:0:0:0:
320,192,256339,128,0,256424:0:0:0:0:
192,192,256509,1,0,0:0:0:0:
320,192,256509,1,0,0:0:0:0:
64,192,256509,128,0,256594:0:0:0:0:
448,192,256594,128,0,256765:0:0:0:0:
64,192,256680,128,0,256850:0:0:0:0:
320,192,256850,1,0,0:0:0:0:
192,192,256850,1,0,0:0:0:0:
448,192,256850,128,0,256935:0:0:0:0:
64,192,256935,128,0,257106:0:0:0:0:
448,192,257021,128,0,257191:0:0:0:0:
320,192,257191,1,0,0:0:0:0:
64,192,257191,128,0,257617:0:0:0:0:
192,192,257276,128,0,257532:0:0:0:0:
320,192,257361,128,0,257447:0:0:0:0:
448,192,257447,128,0,257617:0:0:0:0:
320,192,257532,128,0,257702:0:0:0:0:
192,192,257617,128,0,257788:0:0:0:0:
64,192,257702,128,0,257788:0:0:0:0:
448,192,257788,128,0,257873:0:0:0:0:
64,192,257873,1,0,0:0:0:0:
320,192,257873,1,0,0:0:0:0:
192,192,257873,128,0,257958:0:0:0:0:
448,192,257958,128,0,258128:0:0:0:0:
192,192,258043,128,0,258214:0:0:0:0:
448,192,258214,1,0,0:0:0:0:
64,192,258214,1,0,0:0:0:0:
320,192,258214,128,0,258299:0:0:0:0:
192,192,258299,128,0,258469:0:0:0:0:
320,192,258384,128,0,258555:0:0:0:0:
192,192,258555,1,0,0:0:0:0:
64,192,258555,128,0,258640:0:0:0:0:
448,192,258640,128,0,258725:0:0:0:0:
64,192,258725,128,0,258810:0:0:0:0:
448,192,258810,128,0,258896:0:0:0:0:
64,192,258896,128,0,258981:0:0:0:0:
192,192,258896,128,0,258981:0:0:0:0:
320,192,258981,128,0,259151:0:0:0:0:
448,192,258981,128,0,259066:0:0:0:0:
64,192,259066,128,0,259236:0:0:0:0:
192,192,259066,128,0,259151:0:0:0:0:
320,192,259236,1,0,0:0:0:0:
448,192,259236,1,0,0:0:0:0:
192,192,259236,1,0,0:0:0:0:
64,192,259407,128,0,259492:0:0:0:0:
320,192,259577,1,0,0:0:0:0:
448,192,259577,128,0,259663:0:0:0:0:
64,192,259748,128,0,259833:0:0:0:0:
448,192,259918,1,0,0:0:0:0:
320,192,259918,128,0,260003:0:0:0:0:
192,192,260003,128,0,260089:0:0:0:0:
320,192,260089,128,0,260174:0:0:0:0:
64,192,260259,1,0,0:0:0:0:
448,192,260259,1,0,0:0:0:0:
192,192,260259,128,0,260344:0:0:0:0:
320,192,260344,128,0,260430:0:0:0:0:
448,192,260430,1,0,0:0:0:0:
64,192,260430,128,0,260515:0:0:0:0:
192,192,260515,128,0,260600:0:0:0:0:
64,192,260600,1,0,0:0:0:0:
448,192,260600,128,0,260685:0:0:0:0:
320,192,260600,1,0,0:0:0:0:
192,192,260685,128,0,260856:0:0:0:0:
448,192,260771,128,0,260941:0:0:0:0:
192,192,260941,1,0,0:0:0:0:
320,192,260941,1,0,0:0:0:0:
64,192,260941,128,0,261026:0:0:0:0:
448,192,261026,128,0,261197:0:0:0:0:
64,192,261111,128,0,261282:0:0:0:0:
448,192,261282,1,0,0:0:0:0:
320,192,261282,128,0,261367:0:0:0:0:
192,192,261367,128,0,261452:0:0:0:0:
320,192,261452,128,0,261538:0:0:0:0:
192,192,261538,128,0,261623:0:0:0:0:
320,192,261623,128,0,261708:0:0:0:0:
448,192,261623,128,0,261708:0:0:0:0:
64,192,261708,128,0,261793:0:0:0:0:
192,192,261708,128,0,261878:0:0:0:0:
448,192,261793,128,0,261964:0:0:0:0:
320,192,261793,128,0,261878:0:0:0:0:
64,192,261964,1,0,0:0:0:0:
320,192,261964,1,0,0:0:0:0:
192,192,261964,128,0,262049:0:0:0:0:
448,192,262049,128,0,262219:0:0:0:0:
192,192,262134,128,0,262305:0:0:0:0:
64,192,262305,1,0,0:0:0:0:
448,192,262305,1,0,0:0:0:0:
320,192,262305,128,0,262390:0:0:0:0:
192,192,262390,128,0,262560:0:0:0:0:
320,192,262475,128,0,262646:0:0:0:0:
64,192,262646,128,0,263072:0:0:0:0:
448,192,262646,1,0,0:0:0:0:
192,192,262731,128,0,262986:0:0:0:0:
320,192,262816,128,0,262901:0:0:0:0:
448,192,262901,128,0,263072:0:0:0:0:
320,192,262986,128,0,263157:0:0:0:0:
192,192,263072,128,0,263242:0:0:0:0:
64,192,263157,128,0,263242:0:0:0:0:
448,192,263242,128,0,263327:0:0:0:0:
320,192,263327,1,0,0:0:0:0:
192,192,263327,1,0,0:0:0:0:
64,192,263327,128,0,263413:0:0:0:0:
448,192,263413,128,0,263583:0:0:0:0:
64,192,263498,128,0,263668:0:0:0:0:
320,192,263668,1,0,0:0:0:0:
192,192,263668,1,0,0:0:0:0:
448,192,263668,128,0,263753:0:0:0:0:
64,192,263753,128,0,263924:0:0:0:0:
448,192,263839,128,0,264009:0:0:0:0:
64,192,264009,1,0,0:0:0:0:
192,192,264009,128,0,264094:0:0:0:0:
320,192,264094,128,0,264180:0:0:0:0:
192,192,264180,128,0,264265:0:0:0:0:
320,192,264265,128,0,264350:0:0:0:0:
192,192,264350,128,0,264435:0:0:0:0:
64,192,264350,128,0,264435:0:0:0:0:
320,192,264435,128,0,264606:0:0:0:0:
448,192,264435,128,0,264521:0:0:0:0:
64,192,264521,128,0,264691:0:0:0:0:
192,192,264521,128,0,264606:0:0:0:0:
448,192,264691,1,0,0:0:0:0:
320,192,264691,1,0,0:0:0:0:
192,192,264861,128,0,264947:0:0:0:0:
320,192,265032,1,0,0:0:0:0:
448,192,265032,128,0,265117:0:0:0:0:
64,192,265117,128,0,265202:0:0:0:0:
192,192,265202,128,0,265288:0:0:0:0:
64,192,265288,128,0,265373:0:0:0:0:
448,192,265373,1,0,0:0:0:0:
320,192,265373,128,0,265458:0:0:0:0:
192,192,265458,128,0,265543:0:0:0:0:
64,192,265543,128,0,265628:0:0:0:0:
192,192,265628,128,0,265714:0:0:0:0:
448,192,265714,128,0,265799:0:0:0:0:
320,192,265714,1,0,0:0:0:0:
192,192,265884,128,0,265969:0:0:0:0:
320,192,265969,128,0,266055:0:0:0:0:
192,192,266055,1,0,0:0:0:0:
448,192,266055,1,0,0:0:0:0:
64,192,266055,128,0,266140:0:0:0:0:
320,192,266140,128,0,266310:0:0:0:0:
64,192,266225,128,0,266396:0:0:0:0:
192,192,266396,1,0,0:0:0:0:
448,192,266396,128,0,266481:0:0:0:0:
64,192,266481,128,0,266651:0:0:0:0:
448,192,266566,128,0,266736:0:0:0:0:
192,192,266736,128,0,266822:0:0:0:0:
64,192,266736,1,0,0:0:0:0:
320,192,266822,128,0,266907:0:0:0:0:
192,192,266907,128,0,266992:0:0:0:0:
320,192,266992,128,0,267077:0:0:0:0:
192,192,267077,128,0,267163:0:0:0:0:
64,192,267077,128,0,267163:0:0:0:0:
320,192,267163,128,0,267333:0:0:0:0:
448,192,267163,128,0,267248:0:0:0:0:
64,192,267248,128,0,267418:0:0:0:0:
192,192,267248,128,0,267333:0:0:0:0:
448,192,267418,1,0,0:0:0:0:
192,192,267418,1,0,0:0:0:0:
320,192,267418,128,0,267503:0:0:0:0:
64,192,267503,128,0,267674:0:0:0:0:
320,192,267589,128,0,267759:0:0:0:0:
448,192,267759,1,0,0:0:0:0:
64,192,267759,1,0,0:0:0:0:
192,192,267759,128,0,267844:0:0:0:0:
320,192,267844,128,0,268015:0:0:0:0:
192,192,267930,128,0,268100:0:0:0:0:
448,192,268100,128,0,268526:0:0:0:0:
64,192,268100,1,0,0:0:0:0:
320,192,268185,128,0,268441:0:0:0:0:
192,192,268271,128,0,268356:0:0:0:0:
64,192,268356,128,0,268526:0:0:0:0:
192,192,268441,128,0,268611:0:0:0:0:
320,192,268526,128,0,268697:0:0:0:0:
448,192,268611,128,0,268697:0:0:0:0:
64,192,268697,128,0,268782:0:0:0:0:
192,192,268782,1,0,0:0:0:0:
320,192,268782,1,0,0:0:0:0:
448,192,268782,128,0,268867:0:0:0:0:
64,192,268867,128,0,269038:0:0:0:0:
448,192,268952,128,0,269123:0:0:0:0:
192,192,269123,1,0,0:0:0:0:
320,192,269123,1,0,0:0:0:0:
64,192,269123,128,0,269208:0:0:0:0:
448,192,269208,128,0,269378:0:0:0:0:
64,192,269293,128,0,269464:0:0:0:0:
320,192,269464,128,0,269549:0:0:0:0:
448,192,269464,1,0,0:0:0:0:
192,192,269549,128,0,269634:0:0:0:0:
320,192,269634,128,0,269719:0:0:0:0:
192,192,269719,128,0,269805:0:0:0:0:
320,192,269805,128,0,269890:0:0:0:0:
448,192,269805,128,0,269890:0:0:0:0:
192,192,269890,128,0,270060:0:0:0:0:
64,192,269890,128,0,269975:0:0:0:0:
448,192,269975,128,0,270146:0:0:0:0:
320,192,269975,128,0,270060:0:0:0:0:
64,192,270146,1,0,0:0:0:0:
192,192,270146,1,0,0:0:0:0:
320,192,270316,1,0,0:0:0:0:
64,192,270486,1,0,0:0:0:0:
448,192,270486,1,0,0:0:0:0:
192,192,270572,1,0,0:0:0:0:
320,192,270657,1,0,0:0:0:0:
192,192,270742,1,0,0:0:0:0:
320,192,270827,1,0,0:0:0:0:
192,192,270913,1,0,0:0:0:0:
320,192,270998,1,0,0:0:0:0:
448,192,270998,1,0,0:0:0:0:
64,192,271168,5,0,0:0:0:0:
192,192,271168,1,0,0:0:0:0:
64,192,271339,1,0,0:0:0:0:
192,192,271339,1,0,0:0:0:0:
448,192,271509,128,0,271850:0:0:0:0:
64,192,271509,128,0,271594:0:0:0:0:
192,192,271509,1,0,0:0:0:0:
320,192,271594,128,0,271850:0:0:0:0:
192,192,271680,128,0,271850:0:0:0:0:
64,192,271765,128,0,271850:0:0:0:0:
