osu file format v14

[General]
AudioFilename: audio.mp3
AudioLeadIn: 0
PreviewTime: 20091
Countdown: 1
SampleSet: Normal
StackLeniency: 0.2
Mode: 0
LetterboxInBreaks: 0
WidescreenStoryboard: 1

[Editor]
Bookmarks: 5372
DistanceSpacing: 3.9
BeatDivisor: 8
GridSize: 16
TimelineZoom: 6.599996

[Metadata]
Title:SCREAM SQUAD
TitleUnicode:SCREAM SQUAD
Artist:CALF
ArtistUnicode:CALF
Creator:spookem
Version:I N T E R D I M E N S I O N A L
Source:beatmania IIDX 12
Tags:breakcore vaporwave alternative aesthetic
BeatmapID:1635675
BeatmapSetID:778814

[Difficulty]
HPDrainRate:4
CircleSize:3.9
OverallDifficulty:7.1
ApproachRate:9.6
SliderMultiplier:2.2
SliderTickRate:1

[Events]
//Background and Video events
0,0,"backgroundsss.png",0,0
//Break Periods
//Storyboard Layer 0 (Background)
//Storyboard Layer 1 (Fail)
//Storyboard Layer 2 (Pass)
//Storyboard Layer 3 (Foreground)
//Storyboard Sound Samples

[TimingPoints]
455,272.727272727273,4,1,0,33,1,0
3726,-66.6666666666667,4,1,0,33,0,0
4817,-50,4,1,0,33,0,0
5090,-55.5555555555556,4,1,0,33,0,0
5363,-125,4,1,0,33,0,0
5772,-71.4285714285714,4,1,0,33,0,0
6044,-200,4,1,0,33,0,0
6454,-133.333333333333,4,1,0,33,0,0
6726,-200,4,1,0,33,0,0
7000,-200,4,1,0,33,0,0
7272,-133.333333333333,4,1,0,33,0,0
7544,-133.333333333333,4,1,0,33,0,0
7954,-71.4285714285714,4,1,0,33,0,0
8226,-100,4,1,0,33,0,0
8635,-52.6315789473684,4,1,0,33,0,0
8908,-66.6666666666667,4,1,0,33,0,0
9182,-100,4,1,0,33,0,0
11363,-200,4,1,0,33,0,0
13544,-133.333333333333,4,1,0,33,0,0
14635,-66.6666666666667,4,1,0,33,0,0
15726,-100,4,1,0,33,0,0
16272,-62.5,4,1,0,33,0,0
16817,-50,4,1,0,33,0,0
17090,-50,4,1,0,33,0,0
17364,-100,4,1,0,33,0,0
18999,-100,4,1,0,33,0,0
20090,-200,4,1,0,33,0,0
21181,-100,4,1,0,33,0,0
22272,-83.3333333333333,4,1,0,33,0,0
23363,-50,4,1,0,33,0,0
23942,-50,4,1,0,5,0,0
23976,-50,4,1,0,33,0,0
24010,-50,4,1,0,5,0,0
24044,-50,4,1,0,33,0,0
24079,-50,4,1,0,5,0,0
24113,-50,4,1,0,33,0,0
24147,-50,4,1,0,5,0,0
24181,-50,4,1,0,33,0,0
26704,-50,4,1,0,5,0,0
26772,-100,4,1,0,33,0,0
26840,-50,4,1,0,5,0,0
26908,-50,4,1,0,33,0,0
26976,-50,4,1,0,5,0,0
27044,-50,4,1,0,33,0,0
27113,-50,4,1,0,5,0,0
27181,-100,4,1,0,33,0,0
27249,-50,4,1,0,5,0,0
27317,-100,4,1,0,33,0,0
27385,-50,4,1,0,5,0,0
27454,-100,4,1,0,33,0,0
27522,-50,4,1,0,5,0,0
27590,-50,4,1,0,33,0,0
27658,-50,4,1,0,5,0,0
27726,-50,4,1,0,33,0,0
27794,-50,4,1,0,5,0,0
27863,-50,4,1,0,33,0,0
27931,-50,4,1,0,5,0,0
27999,-100,4,1,0,33,0,0
28067,-50,4,1,0,5,0,0
28135,-50,4,1,0,33,0,0
28204,-50,4,1,0,5,0,0
28272,-100,4,1,0,33,0,0
28340,-50,4,1,0,5,0,0
28408,-50,4,1,0,33,0,0
28476,-50,4,1,0,5,0,0
28817,-100,4,1,0,33,0,0
31817,-200,4,1,0,33,0,0
32226,-133.333333333333,4,1,0,33,0,0
32635,-50,4,1,0,33,0,0
32908,-55.5555555555556,4,1,0,33,0,0
33182,-50,4,1,0,33,0,0
33215,-50,4,1,0,5,0,0
33249,-50,4,1,0,33,0,0
33283,-50,4,1,0,5,0,0
33317,-50,4,1,0,33,0,0
33351,-50,4,1,0,5,0,0
33454,-50,4,1,0,33,0,0
33726,-100,4,1,0,33,0,0
36181,-50,4,1,0,33,0,0
36454,-100,4,1,0,33,0,0
37544,-66.6666666666667,4,1,0,33,0,0
37613,-66.6666666666667,4,1,0,5,0,0
37681,-66.6666666666667,4,1,0,33,0,0
37749,-66.6666666666667,4,1,0,5,0,0
37817,-66.6666666666667,4,1,0,33,0,0
37885,-66.6666666666667,4,1,0,5,0,0
38022,-66.6666666666667,4,1,0,33,0,0
38704,-66.6666666666667,4,1,0,5,0,0
38772,-66.6666666666667,4,1,0,33,0,0
38840,-66.6666666666667,4,1,0,5,0,0
38908,-66.6666666666667,4,1,0,33,0,0
38976,-66.6666666666667,4,1,0,5,0,0
39113,-66.6666666666667,4,1,0,33,0,0
39794,-66.6666666666667,4,1,0,5,0,0
39863,-66.6666666666667,4,1,0,33,0,0
39931,-66.6666666666667,4,1,0,5,0,0
39999,-66.6666666666667,4,1,0,33,0,0
40067,-66.6666666666667,4,1,0,5,0,0
40204,-66.6666666666667,4,1,0,33,0,0
40817,-100,4,1,0,33,0,0
41363,-80,4,1,0,33,0,0
42454,-50,4,1,0,33,0,0
42863,-66.6666666666667,4,1,0,33,0,0
42932,-66.6666666666667,4,1,0,5,0,0
43000,-66.6666666666667,4,1,0,33,0,0
43068,-66.6666666666667,4,1,0,5,0,0
43136,-66.6666666666667,4,1,0,33,0,0
43205,-66.6666666666667,4,1,0,5,0,0
43272,-200,4,1,0,33,0,0
44090,-50,4,1,0,33,0,0
44158,-50,4,1,0,5,0,0
44226,-50,4,1,0,33,0,0
44294,-50,4,1,0,5,0,0
44363,-50,4,1,0,33,0,0
44431,-50,4,1,0,5,0,0
44499,-50,4,1,0,33,0,0
44567,-50,4,1,0,5,0,0
44635,-50,4,1,0,33,0,0
44704,-50,4,1,0,5,0,0
44772,-50,4,1,0,33,0,0
44840,-50,4,1,0,5,0,0
44908,-50,4,1,0,33,0,0
44976,-50,4,1,0,5,0,0
45044,-50,4,1,0,33,0,0
45113,-50,4,1,0,5,0,0
45181,-50,4,1,0,33,0,0
45249,-50,4,1,0,5,0,0
45317,-50,4,1,0,33,0,0
45385,-50,4,1,0,5,0,0
45454,-50,4,1,0,33,0,0
45522,-50,4,1,0,5,0,0
45590,-50,4,1,0,33,0,0
45658,-50,4,1,0,5,0,0
45726,-66.6666666666667,4,1,0,33,0,0
45794,-50,4,1,0,5,0,0
45863,-66.6666666666667,4,1,0,33,0,0
45931,-50,4,1,0,5,0,0
45999,-66.6666666666667,4,1,0,33,0,0
46067,-50,4,1,0,5,0,0
46135,-66.6666666666667,4,1,0,33,0,0
46204,-50,4,1,0,5,0,0
46272,-100,4,1,0,33,0,0
46340,-50,4,1,0,5,0,0
46408,-100,4,1,0,33,0,0
46476,-50,4,1,0,5,0,0
46544,-100,4,1,0,33,0,0
46613,-50,4,1,0,5,0,0
46681,-100,4,1,0,33,0,0
46749,-50,4,1,0,5,0,0
46817,-200,4,1,0,33,0,0
46885,-50,4,1,0,5,0,0
46954,-200,4,1,0,33,0,0
47022,-50,4,1,0,5,0,0
47090,-200,4,1,0,33,0,0
47158,-50,4,1,0,5,0,0
47226,-200,4,1,0,33,0,0
47294,-50,4,1,0,5,0,0
47363,-100,4,1,0,33,0,0
47635,-66.6666666666667,4,1,0,33,0,0
47908,-55.5555555555556,4,1,0,33,0,0
48181,-50,4,1,0,33,0,0
48455,-50,4,1,0,33,0,0
48523,-50,4,1,0,5,0,0
48591,-50,4,1,0,33,0,0
48659,-50,4,1,0,5,0,0
48727,-50,4,1,0,33,0,0
48795,-50,4,1,0,5,0,0
48864,-50,4,1,0,33,0,0
48932,-50,4,1,0,5,0,0
49000,-50,4,1,0,33,0,0
49068,-50,4,1,0,5,0,0
49136,-50,4,1,0,33,0,0
49205,-50,4,1,0,5,0,0
49273,-50,4,1,0,33,0,0
49341,-50,4,1,0,5,0,0
49409,-50,4,1,0,33,0,0
49477,-50,4,1,0,5,0,0
49545,-50,4,1,0,33,0,0
49614,-50,4,1,0,5,0,0
49682,-50,4,1,0,33,0,0
49750,-50,4,1,0,5,0,0
49818,-50,4,1,0,33,0,0
49886,-50,4,1,0,5,0,0
49955,-50,4,1,0,33,0,0
50023,-50,4,1,0,5,0,0
50091,-50,4,1,0,33,0,0
50159,-50,4,1,0,5,0,0
50227,-50,4,1,0,33,0,0
50295,-50,4,1,0,5,0,0
50364,-50,4,1,0,33,0,0
50432,-50,4,1,0,5,0,0
50500,-50,4,1,0,33,0,0
50568,-50,4,1,0,5,0,0
50635,-50,4,1,0,33,0,0
50704,-50,4,1,0,5,0,0
50772,-50,4,1,0,33,0,0
50840,-50,4,1,0,5,0,0
50908,-50,4,1,0,33,0,0
50976,-50,4,1,0,5,0,0
51044,-50,4,1,0,33,0,0
51113,-50,4,1,0,5,0,0
51181,-50,4,1,0,33,0,0
51249,-50,4,1,0,5,0,0
51317,-50,4,1,0,33,0,0
51385,-50,4,1,0,5,0,0
51454,-50,4,1,0,33,0,0
51522,-50,4,1,0,5,0,0
51590,-50,4,1,0,33,0,0
51659,-50,4,1,0,5,0,0
51727,-100,4,1,0,33,0,0
53363,-50,4,1,0,33,0,0
53397,-50,4,1,0,5,0,0
53431,-50,4,1,0,33,0,0
53465,-50,4,1,0,5,0,0
53499,-50,4,1,0,33,0,0
53568,-50,4,1,0,33,0,0
53635,-50,4,1,0,33,0,0
54182,-100,4,1,0,33,0,0
54455,-50,4,1,0,33,0,0
55273,-66.6666666666667,4,1,0,33,0,0
55545,-100,4,1,0,33,0,0
55614,-50,4,1,0,5,0,0
55682,-50,4,1,0,33,0,0
55750,-50,4,1,0,5,0,0
55818,-66.6666666666667,4,1,0,33,0,0
56364,-66.6666666666667,4,1,0,33,0,0
56636,-100,4,1,0,33,0,0
56705,-100,4,1,0,5,0,0
56773,-50,4,1,0,33,0,0
56841,-50,4,1,0,5,0,0
56909,-66.6666666666667,4,1,0,33,0,0
57727,-66.6666666666667,4,1,0,33,0,0
58716,-50,4,1,0,5,0,0
58750,-50,4,1,0,33,0,0
58784,-50,4,1,0,5,0,0
58818,-50,4,1,0,33,0,0
58852,-50,4,1,0,5,0,0
58886,-50,4,1,0,33,0,0
59807,-50,4,1,0,5,0,0
59841,-50,4,1,0,33,0,0
59875,-50,4,1,0,5,0,0
59909,-100,4,1,0,33,0,0
59943,-50,4,1,0,5,0,0
60045,-50,4,1,0,33,0,0
60114,-50,4,1,0,5,0,0
60182,-66.6666666666667,4,1,0,33,0,0
60318,-66.6666666666667,4,1,0,5,0,0
60455,-50,4,1,0,33,0,0
60523,-50,4,1,0,5,0,0
60591,-50,4,1,0,33,0,0
60659,-50,4,1,0,5,0,0
60727,-50,4,1,0,33,0,0
60795,-50,4,1,0,5,0,0
61000,-50,4,1,0,33,0,0
61068,-50,4,1,0,5,0,0
61136,-50,4,1,0,33,0,0
61205,-50,4,1,0,5,0,0
61273,-50,4,1,0,33,0,0
61341,-50,4,1,0,5,0,0
61545,-100,4,1,0,33,0,0
61955,-50,4,1,0,33,0,0
62023,-50,4,1,0,22,0,0
62091,-66.6666666666667,4,1,0,33,0,0
62159,-66.6666666666667,4,1,0,11,0,0
62227,-100,4,1,0,33,0,0
62295,-100,4,1,0,5,0,0
62364,-200,4,1,0,33,0,0
62568,-200,4,1,0,5,0,0
62636,-200,4,1,0,33,0,0
62773,-200,4,1,0,5,0,0
62909,-133.333333333333,4,1,0,33,0,0
63045,-133.333333333333,4,1,0,5,0,0
63182,-133.333333333333,4,1,0,33,0,0
63318,-133.333333333333,4,1,0,5,0,0
63455,-200,4,1,0,33,0,0
63727,-100,4,1,0,33,0,0
64136,-50,4,1,0,33,0,0
64205,-50,4,1,0,22,0,0
64273,-55.5555555555556,4,1,0,33,0,0
64341,-55.5555555555556,4,1,0,11,0,0
64409,-55.5555555555556,4,1,0,33,0,0
64477,-55.5555555555556,4,1,0,5,0,0
64545,-200,4,1,0,33,0,0
64818,-133.333333333333,4,1,0,33,0,0
65091,-100,4,1,0,33,0,0
65364,-66.6666666666667,4,1,0,33,0,0
65636,-66.6666666666667,4,1,0,33,0,0
65909,-100,4,1,0,33,0,0
66318,-50,4,1,0,33,0,0
66727,-133.333333333333,4,1,0,33,0,0
67000,-100,4,1,0,33,0,0
67409,-50,4,1,0,33,0,0
67818,-133.333333333333,4,1,0,33,0,0
68091,-50,4,1,0,33,0,0
68909,-66.6666666666667,4,1,0,33,0,0
69727,-50,4,1,0,33,0,0
70000,-100,4,1,0,33,0,0
70273,-50,4,1,0,33,0,0
71773,-83.3333333333333,4,1,0,33,0,0
72182,-50,4,1,0,33,0,0
73000,-50,4,1,0,33,0,0
73034,-50,4,1,0,33,0,0
73068,-50,4,1,0,5,0,0
73068,-50,4,1,0,33,0,0
73136,-50,4,1,0,33,0,0
73170,-50,4,1,0,5,0,0
73205,-50,4,1,0,33,0,0
73239,-50,4,1,0,5,0,0
73273,-50,4,1,0,33,0,0
73545,-50,4,1,0,33,0,0
73852,-50,4,1,0,5,0,0
73886,-50,4,1,0,33,0,0
73920,-50,4,1,0,5,0,0
73955,-50,4,1,0,33,0,0
73989,-50,4,1,0,5,0,0
74023,-50,4,1,0,33,0,0
74057,-50,4,1,0,5,0,0
74091,-50,4,1,0,33,0,0
74125,-50,4,1,0,5,0,0
74227,-50,4,1,0,33,0,0
74295,-50,4,1,0,5,0,0
74364,-50,4,1,0,33,0,0
74432,-50,4,1,0,5,0,0
74500,-50,4,1,0,33,0,0
74568,-50,4,1,0,5,0,0
74636,-50,4,1,0,33,0,0
74670,-50,4,1,0,11,0,0
75045,-50,4,1,0,33,0,0
75080,-50,4,1,0,11,0,0
75455,-50,4,1,0,33,0,0
75489,-50,4,1,0,11,0,0
75864,-50,4,1,0,33,0,0
75898,-50,4,1,0,5,0,0
75932,-50,4,1,0,33,0,0
75966,-50,4,1,0,5,0,0
76000,-50,4,1,0,33,0,0
76034,-50,4,1,0,11,0,0
76273,-50,4,1,0,33,0,0
76307,-50,4,1,0,11,0,0
76477,-50,4,1,0,33,0,0
76580,-50,4,1,0,11,0,0
76682,-50,4,1,0,33,0,0
76716,-50,4,1,0,11,0,0
76818,-50,4,1,0,33,0,0
79000,-100,4,1,0,33,0,0
79205,-100,4,1,0,22,0,0
79409,-100,4,1,0,11,0,0
79614,-100,4,1,0,5,0,0
81182,-83.3333333333333,4,1,0,33,0,0
82000,-66.6666666666667,4,1,0,33,0,0
82273,-83.3333333333333,4,1,0,33,0,0
83364,-50,4,1,0,33,0,0
83432,-50,4,1,0,5,0,0
83500,-50,4,1,0,33,0,0
83568,-50,4,1,0,5,0,0
83636,-50,4,1,0,33,0,0
83705,-50,4,1,0,5,0,0
83841,-50,4,1,0,33,0,0
83909,-66.6666666666667,4,1,0,33,0,0
84455,-50,4,1,0,33,0,0
84523,-50,4,1,0,5,0,0
84591,-50,4,1,0,33,0,0
84659,-50,4,1,0,5,0,0
84727,-50,4,1,0,33,0,0
84795,-50,4,1,0,5,0,0
84932,-50,4,1,0,33,0,0
85000,-66.6666666666667,4,1,0,33,0,0
85545,-50,4,1,0,33,0,0
85614,-50,4,1,0,5,0,0
85682,-50,4,1,0,33,0,0
85750,-50,4,1,0,5,0,0
85818,-50,4,1,0,33,0,0
85886,-50,4,1,0,5,0,0
86023,-50,4,1,0,33,0,0
86091,-66.6666666666667,4,1,0,33,0,0
86636,-100,4,1,0,33,0,0
87182,-83.3333333333333,4,1,0,33,0,0
87727,-71.4285714285714,4,1,0,33,0,0
88273,-50,4,1,0,33,0,0
88750,-50,4,1,0,5,0,0
88818,-50,4,1,0,33,0,0
88886,-50,4,1,0,5,0,0
88955,-50,4,1,0,33,0,0
89023,-50,4,1,0,5,0,0
89091,-133.333333333333,4,1,0,33,0,0
89909,-50,4,1,0,33,0,0
90009,-66.6666666666667,4,1,0,33,0,0
91000,-50,4,1,0,33,0,0
91068,-66.6666666666667,4,1,0,5,0,0
91136,-50,4,1,0,33,0,0
91205,-66.6666666666667,4,1,0,5,0,0
91273,-50,4,1,0,33,0,0
91341,-66.6666666666667,4,1,0,5,0,0
91409,-50,4,1,0,33,0,0
91477,-66.6666666666667,4,1,0,5,0,0
91545,-50,4,1,0,33,0,0
91614,-66.6666666666667,4,1,0,5,0,0
91682,-50,4,1,0,33,0,0
91750,-66.6666666666667,4,1,0,5,0,0
91818,-50,4,1,0,33,0,0
92091,-100,4,1,0,33,0,0
93182,-50,4,1,0,33,0,0
94273,-50,4,1,0,33,0,0
94341,-50,4,1,0,5,0,0
94409,-50,4,1,0,33,0,0
94545,-50,4,1,0,33,0,0
94614,-50,4,1,0,5,0,0
94682,-50,4,1,0,33,0,0
94886,-50,4,1,0,5,0,0
94955,-50,4,1,0,33,0,0
95023,-50,4,1,0,5,0,0
95091,-66.6666666666667,4,1,0,33,0,0
95159,-50,4,1,0,5,0,0
95227,-50,4,1,0,33,0,0
95909,-50,4,1,0,33,0,0
95943,-50,4,1,0,5,0,0
95977,-50,4,1,0,33,0,0
96011,-50,4,1,0,5,0,0
96045,-50,4,1,0,33,0,0
96080,-50,4,1,0,5,0,0
96114,-50,4,1,0,33,0,0
96148,-50,4,1,0,5,0,0
96182,-50,4,1,0,33,0,0
96489,-50,4,1,0,5,0,0
96523,-50,4,1,0,33,0,0
96557,-50,4,1,0,5,0,0
96591,-50,4,1,0,33,0,0
96898,-50,4,1,0,5,0,0
96932,-50,4,1,0,33,0,0
96966,-50,4,1,0,5,0,0
97000,-50,4,1,0,33,0,0
98705,-50,4,1,0,5,0,0
98773,-50,4,1,0,33,0,0
98841,-50,4,1,0,5,0,0
98909,-50,4,1,0,33,0,0
98977,-50,4,1,0,5,0,0
99045,-66.6666666666667,4,1,0,33,0,0
99114,-66.6666666666667,4,1,0,5,0,0
99182,-50,4,1,0,33,0,0
99250,-50,4,1,0,5,0,0
99318,-50,4,1,0,33,0,0
99386,-50,4,1,0,5,0,0
99455,-50,4,1,0,33,0,0
99523,-50,4,1,0,5,0,0
99591,-50,4,1,0,33,0,0
99659,-50,4,1,0,5,0,0
99727,-50,4,1,0,33,0,0
99795,-50,4,1,0,5,0,0
99864,-50,4,1,0,33,0,0
99932,-50,4,1,0,5,0,0
100000,-50,4,1,0,33,0,0
100068,-50,4,1,0,5,0,0
100136,-50,4,1,0,33,0,0
100205,-50,4,1,0,5,0,0
100273,-50,4,1,0,33,0,0
100341,-50,4,1,0,5,0,0
100409,-50,4,1,0,33,0,0
100477,-50,4,1,0,5,0,0
100545,-50,4,1,0,33,0,0
100614,-50,4,1,0,5,0,0
100682,-50,4,1,0,33,0,0
100750,-50,4,1,0,5,0,0
100818,-50,4,1,0,33,0,0
103614,-50,4,1,0,5,0,0
103682,-50,4,1,0,33,0,0
103750,-50,4,1,0,5,0,0
103818,-66.6666666666667,4,1,0,33,0,0
104091,-133.333333333333,4,1,0,33,0,0
104636,-100,4,1,0,33,0,0
104909,-66.6666666666667,4,1,0,33,0,0
105216,-66.6666666666667,4,1,0,5,0,0
105250,-66.6666666666667,4,1,0,33,0,0
105284,-66.6666666666667,4,1,0,5,0,0
105318,-66.6666666666667,4,1,0,33,0,0
105352,-66.6666666666667,4,1,0,5,0,0
105455,-66.6666666666667,4,1,0,33,0,0
105591,-66.6666666666667,4,1,0,33,0,0
105625,-66.6666666666667,4,1,0,5,0,0
105659,-66.6666666666667,4,1,0,33,0,0
105693,-66.6666666666667,4,1,0,5,0,0
105727,-66.6666666666667,4,1,0,33,0,0
106307,-66.6666666666667,4,1,0,5,0,0
106409,-66.6666666666667,4,1,0,33,0,0
106443,-66.6666666666667,4,1,0,5,0,0
106545,-66.6666666666667,4,1,0,33,0,0
106580,-66.6666666666667,4,1,0,5,0,0
106682,-66.6666666666667,4,1,0,33,0,0
106716,-66.6666666666667,4,1,0,5,0,0
106818,-66.6666666666667,4,1,0,33,0,0
107364,136.363636363636,4,1,0,33,1,0
107364,-200,4,1,0,33,0,0
107381,-188.679245283019,4,1,0,33,0,0
107398,-178.571428571429,4,1,0,33,0,0
107415,-169.491525423729,4,1,0,33,0,0
107432,-161.290322580645,4,1,0,33,0,0
107449,-153.846153846154,4,1,0,33,0,0
107466,-147.058823529412,4,1,0,33,0,0
107483,-140.845070422535,4,1,0,33,0,0

[Colours]
Combo1 : 251,251,251
Combo2 : 255,255,255

[HitObjects]
254,200,455,6,0,B|272:199|272:199|271:177|271:177|248:178|248:178|250:201|250:201|270:200|270:200|269:181|269:181|252:182|252:182|253:197|253:197|268:197|268:197|267:184|267:184|255:185|255:185|256:194|256:194|264:194|264:194|263:187|263:187|258:187|258:187|258:192|258:192|262:192|262:192|262:189|262:189|260:189|260:189|260:191|260:191|261:190|261:190,1,220
372,186,1000,6,0,B|372:190|372:190|370:169|370:169|348:170|348:170|349:192|349:192|369:191|369:191|368:172|368:172|352:173|352:173|352:189|352:189|367:188|367:188|366:176|366:176|355:176|355:176|356:186|356:186|364:185|364:185|363:178|363:178|358:179|358:179|358:184|358:184|361:183|361:183|361:181|361:181|360:181|360:181|360:182|360:182|360:182|363:179,1,220
448,168,1545,6,0,B|447:163|447:163|449:184|449:184|471:183|471:183|470:161|470:161|450:162|450:162|451:181|451:181|467:180|467:180|467:164|467:164|452:165|452:165|453:177|453:177|464:177|464:177|463:167|463:167|455:168|455:168|456:175|456:175|461:174|461:174|461:169|461:169|458:170|458:170|458:172|458:172|459:172|459:172|459:171|459:171|459:171|456:174,1,220
480,276,2091,6,0,B|480:280|480:280|478:259|478:259|456:260|456:260|457:282|457:282|477:281|477:281|476:262|476:262|460:263|460:263|460:279|460:279|475:278|475:278|474:266|474:266|463:266|463:266|464:276|464:276|472:275|472:275|471:268|471:268|466:269|466:269|466:274|466:274|469:273|469:273|469:271|469:271|468:271|468:271|468:272|468:272|468:272|471:269,1,220
156,344,2636,2,0,B|157:288|157:288|213:290|213:290|211:345|211:345|159:344,1,220
289,349,3182,2,0,B|291:293|291:293|347:295|347:295|345:350|345:350|293:349,1,220
350,97,3727,6,0,B|356:142|303:123|284:73|252:49|369:-20|475:22|491:91|410:201|375:184|288:202|270:161|289:128|258:-15|299:56|329:45|354:41|397:51|426:88|401:124|383:141|358:150|335:148|310:134|288:103|304:81|325:65|356:59|369:66|369:66|386:87|391:104|380:116|359:125|341:123|336:108|327:89|342:78|353:77|368:84|368:100|350:97|350:97,1,660.000025177003
244,312,4818,6,0,B|250:296|250:296|261:310|261:310|243:312|243:312|250:299|250:299|259:310|259:310|243:312|243:312|250:299|250:299|257:308|257:308|244:312|244:312|250:301|250:301|257:308|257:308|246:310|246:310|250:303|250:303|255:308|255:308|248:310|248:310|252:305|252:305|253:308|253:308|248:308|248:308|252:307|252:307|252:308|252:308|250:308|250:308|252:307|252:307|252:307|252:307|250:308|250:308|250:307|250:307,1,220
165,273,5091,2,0,B|178:272|178:272|173:287|173:287|161:273|161:273|176:272|176:272|171:285|171:285|163:273|163:273|176:273|176:273|171:283|171:283|165:273|165:273|174:273|174:273|171:282|171:282|165:275|165:275|173:275|173:275|171:280|171:280|166:275|166:275|173:275|173:275|171:278|171:278|168:275|168:275|171:277|171:277|171:278|171:278|169:275|169:275|171:277|171:277|169:277|169:277|169:277|169:277|169:277|169:277,1,197.99999395752
104,322,5364,2,0,B|111:332|111:332|96:333|96:333|102:320|102:320|109:330|109:330|98:332|98:332|102:320|102:320|108:330|108:330|98:332|98:332|102:322|102:322|106:329|106:329|99:330|99:330|102:323|102:323|105:329|105:329|101:330|101:330|102:324|102:324|105:329|105:329|101:329|101:329|102:324|102:324|104:327|104:327|102:329|102:329|102:326|102:326|104:327|104:327|102:327|102:327|102:327|102:327|102:327|102:327,1,176
35,285,5773,2,0,B|29:295|29:295|22:285|22:285|35:283|35:283|29:292|29:292|23:285|23:285|35:283|35:283|29:292|29:292|24:286|24:286|33:283|33:283|29:291|29:291|24:286|24:286|32:285|32:285|29:290|29:290|26:286|26:286|31:285|31:285|28:288|28:288|27:286|27:286|31:286|31:286|28:287|28:287|28:286|28:286|29:286|29:286|28:287|28:287|28:287|28:287|29:286|29:286|29:287|29:287,1,153.999995300293
24,210,6045,2,0,B|15:210|15:210|18:201|18:201|25:209|25:209|16:210|16:210|19:202|19:202|24:209|24:209|16:209|16:209|19:203|19:203|23:209|23:209|17:209|17:209|19:204|19:204|23:208|23:208|18:208|18:208|19:205|19:205|22:208|22:208|18:208|18:208|19:206|19:206|21:208|21:208|19:207|19:207|19:206|19:206|20:208|20:208|19:207|19:207|20:207|20:207|20:207|20:207|20:207|20:207,1,110
84,161,6455,2,0,B|79:155|79:155|88:154|88:154|84:161|84:161|80:156|80:156|87:155|87:155|84:161|84:161|81:156|81:156|87:155|87:155|84:161|84:161|82:156|82:156|86:156|86:156|84:160|84:160|83:156|83:156|85:156|85:156|84:159|84:159|83:156|83:156|85:156|85:156|84:159|84:159|84:157|84:157|84:156|84:156|84:158|84:158|84:157|84:157|84:157|84:157|84:157|84:157|84:157|84:157,1,82.5000031471254
155,192,6727,2,0,B|156:188|156:188|159:192|159:192|154:192|154:192|156:189|156:189|159:192|159:192|154:192|154:192|156:189|156:189|158:192|158:192|155:192|155:192|156:190|156:190|158:192|158:192|155:192|155:192|156:190|156:190|158:192|158:192|156:192|156:192|156:191|156:191|157:192|157:192|156:192|156:192|156:191|156:191|156:192|156:192|156:192|156:192|156:191|156:191|156:191|156:191|156:192|156:192|156:191|156:191,1,55
188,310,7000,6,0,B|197:316|197:316|198:305|198:305|189:309|189:309|194:314|194:314|195:307|195:307|191:309|191:309|193:311|193:311|193:309|193:309|192:309|192:309|193:310|193:310|193:310|193:310|193:310|193:310,1,55
275,326,7273,6,0,B|291:317|291:317|276:307|276:307|274:323|274:323|286:318|286:318|277:311|277:311|277:320|277:320|283:318|283:318|278:315|278:315|279:318|279:318|280:317|280:317|280:317|280:317|280:317|280:317,1,82.5000031471254
341,256,7545,6,0,B|341:221|341:221|313:240|313:240|337:253|337:253|340:233|340:233|322:241|322:241|334:247|334:247|336:237|336:237|329:241|329:241|333:243|333:243|333:240|333:240|333:240|333:240|333:240|333:240,1,165.000006294251
303,153,7955,6,0,B|269:138|269:138|271:175|271:175|299:156|299:156|277:144|277:144|279:167|279:167|291:156|291:156|280:150|280:150|282:160|282:160|286:156|286:156|283:155|283:155|283:155|283:155|283:155|283:155,1,153.999995300293
190,133,8227,6,0,B|149:156|149:156|191:181|191:181|190:139|190:139|161:150|161:150|184:167|184:167|184:147|184:147|169:152|169:152|180:158|180:158|179:151|179:151|176:153|176:153|176:153|176:153|176:153|176:153,1,220
96,220,8636,2,0,B|98:289|98:289|158:253|158:253|97:218,1,208.999994419098
81,100,8909,6,0,B|67:96|68:100|75:120|94:115|96:95|87:87|76:92|76:92|68:97|67:115|91:116|93:92|77:95|77:95|72:99|70:107|85:113|89:98|78:96|78:96|76:98|74:101|76:109|85:102|85:102|80:98|80:98|74:102|78:104|81:103|81:100|78:100|78:100|78:102|80:102|80:101|79:101|79:101,1,165.000006294251
351,98,9182,6,0,B|359:47|359:47|409:20|409:20|401:75|401:75|352:102|352:102,1,220
391,170,9727,2,0,B|437:145|437:145|489:168|489:168|441:195|441:195|390:172|390:172,1,220
356,242,10273,2,0,B|403:264|403:264|415:320|415:320|365:297|365:297|353:242|353:242,1,220
306,175,10818,1,0,0:0:0:0:
81,108,11364,6,0,B|77:82|77:82|52:69|52:69|56:96|56:96|80:109|80:109,1,110
40,177,11909,2,0,B|16:164|16:164|-9:176|-9:176|14:189|14:189|40:177|40:177,1,110
74,248,12455,2,0,B|50:259|50:259|44:287|44:287|69:275|69:275|75:248|75:248,1,110
126,182,13000,1,0,0:0:0:0:
396,101,13545,6,0,P|422:88|438:112,1,55.0000020980836
396,101,13716,2,0,P|420:117|407:142,1,55.0000020980836
396,101,13920,2,0,P|394:130|365:131,1,55.0000020980836
396,101,14091,2,0,P|370:114|354:89,1,55.0000020980836
396,101,14261,2,0,P|371:84|384:59,1,55.0000020980836
396,101,14466,2,0,P|397:71|426:70,1,55.0000020980836
366,119,14636,6,0,P|367:67|417:65,1,110.000004196167
407,136,14807,2,0,P|358:121|369:73,1,110.000004196167
429,101,15011,2,0,P|402:143|359:120,1,110.000004196167
400,68,15182,2,0,P|434:104|401:140,1,110.000004196167
363,87,15352,2,0,P|407:63|433:104,1,110.000004196167
371,130,15557,2,0,P|359:80|406:66,1,110.000004196167
395,102,15727,6,0,B|381:103|381:103|381:124|423:124|427:91|409:76|376:76|378:98|383:110,1,110
270,97,16000,1,0,0:0:0:0:
395,102,16273,6,0,B|416:102|416:102|420:137|349:138|351:90|370:57|423:62|429:100|412:113,1,176
182,90,16545,1,0,0:0:0:0:
395,102,16818,6,0,B|365:103|365:103|363:150|451:151|452:81|427:49|368:51|350:94|371:119,1,220
139,78,17091,1,0,0:0:0:0:
259,90,17227,1,0,0:0:0:0:
395,101,17364,6,0,B|373:100|373:100|374:78|393:70|409:69|427:87|435:109|421:126|398:133|377:131|365:120|368:87|381:88|381:88|393:82|407:87|419:101|404:120|378:120|376:101|389:93|395:99|395:99,1,220
100,77,17909,5,0,3:0:0:0:
100,77,17977,1,0,3:0:0:0:
100,77,18045,1,0,3:0:0:0:
212,95,18182,5,0,3:0:0:0:
212,95,18250,1,0,3:0:0:0:
212,95,18318,1,0,3:0:0:0:
80,187,18455,5,0,3:0:0:0:
80,187,18523,1,0,3:0:0:0:
80,187,18591,1,0,3:0:0:0:
192,205,18727,5,0,3:0:0:0:
192,205,18795,1,0,3:0:0:0:
192,205,18864,1,0,3:0:0:0:
410,45,19000,5,8,3:0:0:0:
424,159,19136,1,8,3:0:0:0:
306,173,19273,1,4,3:0:0:0:
292,57,19409,1,8,3:0:0:0:
371,135,19545,5,8,3:0:0:0:
387,265,19682,1,4,3:0:0:0:
253,281,19818,1,4,3:0:0:0:
238,149,19955,1,8,3:0:0:0:
113,162,20091,6,0,B|86:165|86:165|90:194|90:194|117:190|117:190|114:162|114:162,1,110,0|8,3:0|3:0,3:0:0:0:
100,64,20500,1,0,3:0:0:0:
133,296,20636,5,0,3:0:0:0:
219,286,20773,1,0,3:0:0:0:
231,373,20909,1,0,3:0:0:0:
144,384,21045,1,8,3:0:0:0:
221,153,21182,6,0,B|194:156|194:156|197:185|197:185|225:181|225:181|222:153|222:153,1,110,0|0,3:0|3:0,3:0:0:0:
78,168,21455,1,8,3:0:0:0:
91,308,21591,1,4,3:0:0:0:
234,295,21727,1,0,3:0:0:0:
377,282,21864,1,0,3:0:0:0:
364,139,22000,1,12,3:0:0:0:
352,1,22136,1,0,3:0:0:0:
194,156,22273,6,0,B|191:222|191:222|258:224|258:224|260:158|260:158|194:156|194:156,1,263.99999194336,0|8,3:0|3:0,3:0:0:0:
51,151,22818,6,0,B|48:217|48:217|115:219|115:219|117:153|117:153|51:151|51:151,1,263.99999194336,0|8,3:0|3:0,3:0:0:0:
442,323,23364,6,0,B|386:320|386:320|388:265|388:265|443:267|443:267|442:323|442:323,1,220,0|0,3:0|3:0,3:0:0:0:
448,189,23636,6,0,B|392:186|392:186|394:131|394:131|449:133|449:133|448:189|448:189,1,220,8|0,3:0|3:0,3:0:0:0:
452,56,23909,6,0,B|438:55|438:55|438:41|438:41|452:42|452:42|452:56|452:56,1,55,4|0,3:0|3:0,3:0:0:0:
362,53,23977,2,0,B|348:52|348:52|348:38|348:38|362:39|362:39|362:53|362:53,1,55,0|0,3:0|3:0,3:0:0:0:
272,47,24045,2,0,B|258:46|258:46|258:32|258:32|272:33|272:33|272:47|272:47,1,55,0|0,3:0|3:0,3:0:0:0:
253,122,24114,2,0,B|266:122|266:122|266:136|266:136|252:135|252:135|253:122|253:122,1,55,0|0,3:0|3:0,3:0:0:0:
252,215,24182,6,0,B|252:212|250:268|250:268|305:270|305:270|307:214|307:214|252:212,1,220,8|0,3:0|3:0,3:0:0:0:
65,285,24455,1,8,3:0:0:0:
60,147,24591,1,0,3:0:0:0:
197,142,24727,1,4,3:0:0:0:
202,280,24864,1,0,3:0:0:0:
260,39,25000,5,0,3:0:0:0:
64,32,25136,1,0,3:0:0:0:
56,230,25273,1,8,3:0:0:0:
255,237,25409,1,0,3:0:0:0:
357,160,25545,5,8,3:0:0:0:
210,154,25682,1,0,3:0:0:0:
204,305,25818,1,8,3:0:0:0:
355,311,25955,1,0,3:0:0:0:
293,206,26091,5,0,3:0:0:0:
298,77,26227,1,0,3:0:0:0:
428,83,26364,1,8,3:0:0:0:
426,212,26500,1,8,3:0:0:0:
428,352,26636,6,0,B|455:352|455:352|455:324|455:324|428:324|428:324|428:352|428:352,1,110,2|0,3:0|3:0,3:0:0:0:
337,353,26773,2,0,B|350:353|350:353|350:338|350:338|337:338|337:338|337:353|337:353,1,55,0|0,3:0|3:0,3:0:0:0:
233,354,26909,2,0,B|260:354|260:354|260:326|260:326|233:326|233:326|233:354|233:354,1,110,2|0,3:0|3:0,3:0:0:0:
230,249,27045,2,0,B|257:249|257:249|257:221|257:221|230:221|230:221|230:249|230:249,1,110,0|0,3:0|3:0,3:0:0:0:
89,329,27182,6,0,B|89:314|89:314|102:314|102:314|102:329|102:329|89:329,1,55,2|0,3:0|3:0,3:0:0:0:
179,330,27318,2,0,B|179:316|179:316|192:316|192:316|192:330|192:330|179:330,1,55,0|0,3:0|3:0,3:0:0:0:
268,330,27455,2,0,B|268:315|268:315|281:315|281:315|281:330|281:330|268:330,1,55,2|0,3:0|3:0,3:0:0:0:
359,329,27591,2,0,B|359:301|359:301|386:301|386:301|386:329|386:329|359:329,1,110,0|0,3:0|3:0,3:0:0:0:
283,188,27727,6,0,B|256:188|256:188|256:160|256:160|283:160|283:160|283:188|283:188,1,110,2|0,3:0|3:0,3:0:0:0:
180,188,27864,2,0,B|153:188|153:188|153:160|153:160|180:160|180:160|180:188|180:188,1,110,2|0,3:0|3:0,3:0:0:0:
78,188,28000,2,2,B|65:188|65:188|65:173|65:173|78:173|78:173|78:188|78:188,1,55,2|2,3:0|3:0,3:0:0:0:
78,291,28136,2,0,B|51:291|51:291|51:263|51:263|78:263|78:263|78:291|78:291,1,110,0|0,3:0|3:0,3:0:0:0:
221,157,28273,6,0,B|235:157|235:157|235:142|235:142|221:142|221:142|221:157,1,55,2|0,3:0|3:0,3:0:0:0:
216,68,28409,2,0,B|244:68|244:68|244:38|244:38|216:38|216:38|216:67,1,110,2|0,3:0|3:0,3:0:0:0:
321,63,28545,1,8,3:0:0:0:
186,247,28818,6,0,B|187:302|187:302|242:301|242:301|241:245|241:245|186:246,1,220,4|8,3:0|3:0,3:0:0:0:
95,249,29227,1,0,3:0:0:0:
280,168,29364,5,0,3:0:0:0:
274,343,29500,1,0,3:0:0:0:
99,337,29636,1,8,3:0:0:0:
20,101,29909,5,4,3:0:0:0:
82,318,30318,5,0,3:0:0:0:
230,316,30455,1,0,3:0:0:0:
229,166,30591,1,4,3:0:0:0:
80,166,30727,1,8,3:0:0:0:
392,167,31000,6,0,B|419:167|419:167|419:139|419:139|392:139|392:139|392:167|392:167,1,110,0|0,3:0|3:0,3:0:0:0:
393,270,31273,6,0,B|420:270|420:270|420:242|420:242|393:242|393:242|393:270|393:270,1,110,8|0,3:0|3:0,3:0:0:0:
181,271,31545,1,0,3:0:0:0:
181,66,31682,1,0,3:0:0:0:
390,64,31818,6,0,B|417:64|417:64|417:36|417:36|390:36|390:36|390:64|390:64,1,110,12|0,3:0|3:0,3:0:0:0:
391,185,32227,2,0,B|433:185|433:185|433:142|433:142|391:142|391:142|391:185|391:185,1,165.000006294251,12|0,3:0|3:0,3:0:0:0:
255,185,32636,2,0,B|312:185|312:185|312:127|312:127|255:127|255:127|255:185|255:185,1,220,12|0,3:0|3:0,3:0:0:0:
257,314,32909,2,8,B|307:314|307:314|307:263|307:263|257:263|257:263|257:314|257:314,1,197.99999395752,8|8,3:0|3:0,3:0:0:0:
41,267,33182,6,0,B|55:267|55:267|55:252|55:252|41:252|41:252|41:267|41:267,1,55,4|0,3:0|3:0,3:0:0:0:
43,356,33250,2,0,B|57:356|57:356|57:341|57:341|43:341|43:341|43:356|43:356,1,55,4|0,3:0|3:0,3:0:0:0:
134,355,33318,2,0,B|148:355|148:355|148:340|148:340|134:340|134:340|134:355|134:355,1,55,4|0,3:0|3:0,3:0:0:0:
226,201,33455,6,0,B|281:201|281:201|280:257|280:257|225:256|225:256|226:201|226:201,1,220,8|0,3:0|3:0,3:0:0:0:
253,354,33727,5,0,3:0:0:0:
382,355,33864,1,0,3:0:0:0:
384,226,34000,1,8,3:0:0:0:
255,224,34136,1,0,3:0:0:0:
254,317,34273,5,0,3:0:0:0:
69,314,34409,1,0,3:0:0:0:
72,128,34545,1,8,3:0:0:0:
256,131,34682,1,0,3:0:0:0:
289,211,34818,5,8,3:0:0:0:
448,211,34955,1,0,3:0:0:0:
447,55,35091,1,8,3:0:0:0:
290,55,35227,1,0,3:0:0:0:
265,185,35364,6,2,B|210:185|210:185|210:129|210:129|265:129|265:129|265:185|265:185,1,220,2|2,3:0|3:0,3:0:0:0:
74,131,35773,2,2,B|129:131|129:131|129:187|129:187|74:187|74:187|74:131|74:131,1,220,2|2,3:0|3:0,3:0:0:0:
130,323,36182,2,2,B|75:323|75:323|75:268|75:268|129:268|129:268|130:323,1,220,2|2,3:0|3:0,3:0:0:0:
337,157,36455,6,2,B|391:157|391:157|391:101|391:101|337:101|337:101|337:157,1,220,2|2,3:0|3:0,3:0:0:0:
336,317,36864,1,8,3:0:0:0:
497,317,37136,1,4,3:0:0:0:
40,238,37545,6,2,B|19:238|19:238|19:218|19:218|40:218|40:218|40:238|40:238,1,82.5000031471254,2|2,3:0|3:0,3:0:0:0:
134,216,37682,2,2,B|133:237|133:237|113:237|113:237|113:216|113:216|133:216|133:216,1,82.5000031471254,2|2,3:0|3:0,3:0:0:0:
229,238,37818,2,2,B|208:238|208:238|208:218|208:218|229:218|229:218|229:238|229:238,1,82.5000031471254,2|2,3:0|3:0,3:0:0:0:
207,13,38023,5,0,3:0:0:0:
207,101,38091,2,2,B|249:102|249:102|249:143|249:143|208:142|208:142|207:101|207:101,1,165.000006294251,8|0,3:0|3:0,3:0:0:0:
25,173,38500,5,0,3:0:0:0:
478,239,38636,6,2,B|499:239|499:239|499:218|499:218|478:218|478:218|477:239|477:239,1,82.5000031471254,2|2,3:0|3:0,3:0:0:0:
382,218,38773,2,2,B|381:239|381:239|402:239|402:239|402:218|402:218|381:217|381:217,1,82.5000031471254,2|2,3:0|3:0,3:0:0:0:
283,239,38909,2,2,B|304:239|304:239|304:218|304:218|283:218|283:218|282:239|282:239,1,82.5000031471254,2|2,3:0|3:0,3:0:0:0:
305,13,39114,5,0,3:0:0:0:
305,104,39182,2,2,B|305:101|304:143|304:143|262:143|262:143|262:101|262:101|305:101,1,165.000006294251,8|0,3:0|3:0,3:0:0:0:
399,102,39455,1,0,3:0:0:0:
490,102,39591,1,0,3:0:0:0:
388,346,39727,6,2,B|409:346|409:346|409:325|409:325|388:325|388:325|387:346|387:346,1,82.5000031471254,2|2,3:0|3:0,3:0:0:0:
290,326,39864,2,2,B|290:346|290:346|311:346|311:346|311:325|311:325|290:325|290:325,1,82.5000031471254,2|2,3:0|3:0,3:0:0:0:
193,348,40000,2,2,B|214:348|214:348|214:327|214:327|193:327|193:327|192:348|192:348,1,82.5000031471254,2|2,3:0|3:0,3:0:0:0:
219,118,40205,5,0,3:0:0:0:
219,206,40273,2,2,B|177:207|177:207|178:249|178:249|218:248|218:248|219:206|219:206,1,165.000006294251,8|0,3:0|3:0,3:0:0:0:
87,209,40682,1,0,3:0:0:0:
314,69,40818,6,2,B|314:40|314:40|343:41|343:41|342:69|342:69|314:69,1,110,6|2,3:0|3:0,3:0:0:0:
343,144,41091,2,2,B|342:172|342:172|313:171|313:171|314:143|314:143|343:144,1,110,2|2,3:0|3:0,3:0:0:0:
314,69,41364,6,2,B|315:33|315:33|350:34|350:34|349:70|349:70|314:69,1,137.5,6|2,3:0|3:0,3:0:0:0:
343,144,41636,2,2,B|341:179|341:179|306:178|306:178|307:142|307:142|343:144,1,137.5,2|2,3:0|3:0,3:0:0:0:
18,355,41909,6,2,B|18:286|18:286|88:287|88:287|86:356|86:356|18:355,1,275,6|2,3:0|3:0,3:0:0:0:
28,210,42455,2,2,B|29:154|29:154|83:155|83:155|82:210|82:210|28:210,1,220,6|2,3:0|3:0,3:0:0:0:
38,77,42864,2,2,B|38:55|38:55|60:55|60:55|60:77|60:77|38:77,1,82.5000031471254,6|2,3:0|3:0,3:0:0:0:
259,236,43000,6,2,B|260:257|260:257|281:256|281:256|281:235|281:235|259:236|259:236,1,82.5000031471254,2|2,3:0|3:0,3:0:0:0:
254,137,43136,2,2,B|255:157|255:157|276:157|276:157|276:136|276:136|254:137|254:137,1,82.5000031471254,2|2,3:0|3:0,3:0:0:0:
251,38,43273,2,2,B|252:58|252:58|273:58|273:58|273:37|273:37|251:38|251:38,1,82.5000031471254,2|2,3:0|3:0,3:0:0:0:
77,51,43545,5,10,3:0:0:0:
81,271,43682,1,2,3:0:0:0:
323,263,43818,1,6,3:0:0:0:
394,297,44091,6,0,B|395:327|395:327|366:328|366:328|365:299|365:299|385:298,1,110,8|0,0:0|0:0,0:0:0:0:
290,331,44227,2,0,B|289:300|289:300|260:302|260:302|261:331|261:331|291:330,1,110
254,227,44364,2,0,B|252:196|252:196|281:195|281:195|282:224|282:224|252:226,1,110
358,195,44500,2,0,B|358:225|358:225|388:224|388:224|387:195|387:195|356:195,1,110,8|0,0:0|0:0,0:0:0:0:
353,334,44636,6,0,B|333:356|333:356|311:336|311:336|331:314|331:314|346:329,1,110
264,294,44773,2,0,B|285:272|285:272|263:252|263:252|243:273|243:273|265:294,1,110
303,208,44909,2,0,B|322:185|322:185|344:205|344:205|324:227|324:227|302:206,1,110,8|0,0:0|0:0,0:0:0:0:
392,246,45045,2,0,B|370:267|370:267|392:287|392:287|412:266|412:266|390:245,1,110
305,318,45182,6,0,B|274:319|274:319|273:290|273:290|302:289|302:289|303:309,1,110,8|0,0:0|0:0,0:0:0:0:
276,252,45318,2,0,B|306:251|306:251|305:222|305:222|276:222|276:222|276:253,1,110
338,218,45455,2,0,B|368:216|368:216|369:245|369:245|340:246|340:246|338:216,1,110
374,288,45591,2,0,B|343:288|343:288|345:318|345:318|374:317|374:317|373:286,1,110,8|0,0:0|0:0,0:0:0:0:
292,288,45727,6,0,B|275:273|275:273|289:257|289:257|306:271|306:271|294:282,1,82.5000031471254
306,240,45864,2,0,B|321:255|321:255|336:239|336:239|320:224|320:224|305:240,1,82.5000031471254
352,248,46000,2,0,B|368:262|368:262|353:278|353:278|337:263|337:263|352:247,1,82.5000031471254,8|0,0:0|0:0,0:0:0:0:
338,298,46136,2,0,B|321:281|321:281|307:298|307:298|322:312|322:312|338:296,1,82.5000031471254
307,262,46273,6,0,B|306:247|306:247|292:248|292:248|293:262|293:262|307:261,1,55,2|0,0:0|0:0,0:0:0:0:
326,261,46409,2,0,B|326:246|326:246|339:247|339:247|339:261|339:261|325:260,1,55
327,278,46545,2,0,B|327:291|327:291|340:291|340:291|340:278|340:278|326:278,1,55
307,277,46682,2,0,B|306:290|306:290|294:291|294:291|293:277|293:277|307:277,1,55
318,267,46818,6,0,B|312:261|312:261|307:267|307:267|312:272|312:272|318:266,1,27.5,2|0,0:0|0:0,0:0:0:0:
325,267,46955,6,0,B|329:262|329:262|334:267|334:267|329:271|329:271|324:266,1,27.5
327,274,47091,2,0,B|322:278|322:278|327:283|327:283|331:278|331:278|326:273,1,27.5
320,279,47227,2,0,B|314:283|314:283|310:278|310:278|315:274|315:274|320:279,1,27.5
320,279,47364,6,0,B|337:279|337:279|319:294|319:294|303:277|303:277|320:261|320:261|337:279,1,110,2|0,0:0|0:0,0:0:0:0:
320,279,47636,2,0,B|345:280|345:280|332:293|318:303|318:303|304:290|295:276|295:276|305:265|320:253|320:253|333:265|344:279,1,165.000006294251,2|0,0:0|0:0,0:0:0:0:
320,279,47909,2,0,B|350:281|350:281|344:297|318:308|318:308|296:297|291:276|291:276|297:258|319:249|319:249|338:252|349:277,1,197.99999395752,2|0,0:0|0:0,0:0:0:0:
320,279,48182,2,0,B|297:317|290:286|290:286|268:209|450:214|362:376|292:332|271:291|292:262|292:262,1,220,2|0,0:0|0:0,0:0:0:0:
320,279,48455,6,0,B|273:246|274:344|340:299,1,110,8|0,0:0|0:0,0:0:0:0:
320,279,48591,2,0,B|339:225|237:266|305:303,1,110
320,279,48727,2,0,B|377:284|311:195|292:271,1,110
320,279,48864,2,0,B|329:335|398:248|320:250,1,110,8|0,0:0|0:0,0:0:0:0:
320,279,49000,2,0,B|267:303|369:346|347:271,1,110
320,279,49136,2,0,B|283:234|267:344|334:303,1,110
320,279,49273,2,0,B|353:232|243:244|300:299,1,110,8|0,0:0|0:0,0:0:0:0:
320,279,49409,2,0,B|373:298|333:196|295:264,1,110
279,317,49545,6,0,B|311:362|377:273|320:279,1,110,8|0,0:0|0:0,0:0:0:0:
272,249,49682,2,0,B|237:292|339:332|320:279,1,110
335,225,49818,2,0,B|285:202|273:312|320:279,1,110
376,280,49955,2,0,B|385:226|275:242|320:279,1,110,8|0,0:0|0:0,0:0:0:0:
333,333,50091,2,0,B|387:328|344:226|320:279,1,110
270,306,50227,2,0,B|289:357|376:288|320:279,1,110
281,238,50364,2,0,B|236:270|325:336|320:279,1,110,8|0,0:0|0:0,0:0:0:0:
349,231,50500,2,0,B|307:196|266:298|320:279,1,110
371,311,50636,6,0,B|384:261|317:219|273:315|345:303,1,110
360,228,50773,2,0,B|312:204|254:258|335:326|343:252,1,110
276,221,50909,2,0,B|240:258|277:328|363:267|294:241,1,110
245,293,51045,2,0,B|273:341|350:324|313:225|270:284,1,110
306,354,51182,2,0,B|362:329|365:251|260:260|307:317,1,110
386,299,51318,2,0,B|374:240|299:217|281:321|348:291,1,110
351,214,51455,2,0,B|291:204|249:271|345:315|333:243,1,110
259,228,51591,2,0,B|234:276|288:333|356:252|282:245,1,110
308,275,51727,6,0,B|326:280|332:257|332:257|317:237|282:231|263:261|262:302|281:315|324:320|342:306|347:275|336:261|328:252|328:252|310:245|293:245|280:262|277:275|279:292|299:304|312:301|312:301|326:298|336:287|338:273|331:261|323:250|307:247|289:250|275:273|293:289|293:289|304:299|318:299|328:290|334:278|333:268|323:262|318:252|305:251|291:258|291:276|291:276|295:294|313:296|323:288|322:280|321:272|321:272|316:267|308:265|297:265|295:273|292:290|310:293|319:289|322:278|319:273|314:269|311:269|307:270|300:272|303:282|313:283|314:278|308:275|308:275,1,660,4|0,0:0|0:0,0:0:0:0:
89,311,52818,5,0,2:0:0:0:
89,99,52955,1,0,2:0:0:0:
292,169,53091,2,0,B|269:218|269:218|235:176|235:176|292:169,1,165.000006294251,8|0,2:0|2:0,2:0:0:0:
408,254,53364,2,0,B|335:257|335:257|366:190|366:190|408:254,1,220,0|0,2:0|2:0,2:0:0:0:
500,117,53568,1,0,0:0:0:0:
500,117,53636,2,0,B|462:179|462:179|423:119|423:119|500:117,1,220,12|0,2:0|2:0,2:0:0:0:
363,314,53909,5,0,2:0:0:0:
242,120,54045,1,0,2:0:0:0:
140,317,54182,2,0,B|189:339|189:339|147:373|147:373|140:317,1,165.000006294251,8|0,2:0|2:0,2:0:0:0:
226,192,54455,6,0,B|233:264|233:264|162:234|162:234|226:192,1,220,0|0,2:0|2:0,2:0:0:0:
84,109,54659,1,0,0:0:0:0:
84,109,54727,6,0,B|146:145|146:145|87:185|87:185|84:109,1,220,12|0,2:0|2:0,2:0:0:0:
94,303,55000,5,0,2:0:0:0:
258,190,55136,1,0,2:0:0:0:
246,381,55273,6,0,B|332:375|332:375|285:309|285:309|247:382,1,247.500009441376,8|0,2:0|2:0,2:0:0:0:
387,316,55545,6,0,B|392:298|392:298|374:301|374:301|385:315,1,55,0|0,2:0|2:0,2:0:0:0:
353,226,55682,6,0,B|390:221|390:221|368:190|368:190|352:225,1,110,0|0,2:0|2:0,2:0:0:0:
425,123,55818,6,0,B|478:120|478:120|452:170|452:170|419:125,1,165.000006294251,12|0,2:0|2:0,2:0:0:0:
387,316,56091,5,0,2:0:0:0:
251,146,56227,1,0,2:0:0:0:
478,119,56364,6,0,B|440:193|440:193|397:126|397:126|481:118,1,247.500009441376,8|0,2:0|2:0,2:0:0:0:
436,46,56636,6,0,B|423:31|423:31|416:48|416:48|434:47,1,55,0|0,2:0|2:0,2:0:0:0:
355,0,56773,6,0,B|317:2|317:2|337:34|337:34|355:1,1,110,0|0,2:0|2:0,2:0:0:0:
273,77,56909,6,0,B|245:28|245:28|213:74|213:74|272:77,1,165.000006294251,12|0,2:0|2:0,2:0:0:0:
65,72,57182,5,0,2:0:0:0:
168,232,57318,1,0,2:0:0:0:
273,77,57455,1,8,2:0:0:0:
0,201,57591,5,0,2:0:0:0:
0,201,57659,1,0,2:0:0:0:
0,200,57727,6,0,B|19:252|19:252|56:211|56:211|0:200,1,165.000006294251,0|0,2:0|2:0,2:0:0:0:
102,278,58000,2,0,B|158:289|158:289|138:236|138:236|102:276,1,165.000006294251,12|0,2:0|2:0,2:0:0:0:
294,215,58273,5,0,2:0:0:0:
134,268,58409,1,0,2:0:0:0:
258,371,58545,1,8,2:0:0:0:
294,215,58682,5,0,2:0:0:0:
294,215,58750,1,0,2:0:0:0:
294,215,58818,6,0,B|223:227|223:227|246:157|246:157|294:213,1,220,0|0,2:0|2:0,2:0:0:0:
156,174,59091,6,0,B|109:119|109:119|180:102|180:102|157:173,1,220,12|0,2:0|2:0,2:0:0:0:
376,63,59364,5,0,2:0:0:0:
215,266,59500,1,0,2:0:0:0:
463,308,59636,1,8,2:0:0:0:
355,205,59773,5,0,2:0:0:0:
355,205,59841,1,0,2:0:0:0:
355,205,59909,6,0,B|337:210|337:210|351:224|351:224|355:206,1,55,0|0,2:0|2:0,2:0:0:0:
302,283,60045,6,0,B|275:259|275:259|264:292|264:292|301:283,1,110,0|0,2:0|2:0,2:0:0:0:
184,296,60182,6,0,B|199:241|199:241|144:252|144:252|183:295,1,165.000006294251,12|0,2:0|2:0,2:0:0:0:
136,62,60455,6,2,B|166:130|166:130|126:127,1,110,2|2,2:0|2:0,2:0:0:0:
109,124,60591,2,2,B|34:119|34:119|52:89,1,110,2|2,2:0|2:0,2:0:0:0:
67,72,60727,2,2,B|109:10|109:10|124:41,1,110,2|2,2:0|2:0,2:0:0:0:
389,230,61000,6,2,B|450:275|450:275|413:292,1,110,2|2,2:0|2:0,2:0:0:0:
396,300,61136,2,2,B|329:333|329:333|331:293,1,110,2|2,2:0|2:0,2:0:0:0:
332,271,61273,2,2,B|340:197|340:197|373:220,1,110,2|2,2:0|2:0,2:0:0:0:
213,55,61545,6,8,B|254:123|254:123|293:55|293:55|213:55,1,220,8|8,2:0|2:0,2:0:0:0:
149,89,61955,2,8,B|131:121|131:121|167:121|167:121|149:89,1,110,8|8,2:0|2:0,2:0:0:0:
126,193,62091,2,8,B|140:216|140:216|153:193|153:193|126:193,1,82.5000031471254,8|8,2:0|2:0,2:0:0:0:
214,234,62227,2,0,B|223:249|223:249|205:250|205:250|214:234,1,55,4|0,2:0|2:0,2:0:0:0:
228,322,62364,2,8,B|200:324|200:324|215:346|215:346|228:322,1,82.5000031471254,8|8,2:0|2:0,2:0:0:0:
151,382,62636,6,0,B|140:367|140:367|132:383|132:383|151:382,1,55,4|0,2:0|2:0,2:0:0:0:
65,356,62909,2,0,B|76:330|76:330|49:332|49:332|65:356,1,82.5000031471254,8|0,2:0|2:0,2:0:0:0:
42,260,63182,2,0,B|69:257|69:257|54:234|54:234|42:260,1,82.5000031471254,4|0,2:0|2:0,2:0:0:0:
114,193,63455,2,8,B|130:215|130:215|141:190|141:190|114:193,1,82.5000031471254,8|8,2:0|2:0,2:0:0:0:
330,340,63727,6,8,B|280:283|280:283|256:352|256:352|330:340,1,220,8|8,2:0|2:0,2:0:0:0:
185,324,64136,2,8,B|196:290|196:290|161:295|161:295|185:324,1,110,8|8,2:0|2:0,2:0:0:0:
153,220,64273,2,8,B|186:213|186:213|165:188|165:188|153:220,1,98.9999969787599,8|8,2:0|2:0,2:0:0:0:
224,139,64409,2,0,B|246:164|246:164|257:133|257:133|224:139,1,98.9999969787599,4|0,2:0|2:0,2:0:0:0:
243,60,64545,2,8,B|215:63|215:63|225:38|225:38|243:60,1,82.5,8|8,2:0|2:0,2:0:0:0:
418,29,64818,6,8,B|392:38|392:38|412:57|412:57|418:29,1,82.5000031471254,4|0,2:0|2:0,2:0:0:0:
447,135,65091,6,8,B|432:168|432:168|410:140|410:140|447:135,1,110,8|0,2:0|2:0,2:0:0:0:
402,264,65364,6,8,B|361:226|361:226|348:279|348:279|402:264,1,165.000006294251,4|8,2:0|2:0,2:0:0:0:
265,340,65636,6,0,B|181:331|181:331|228:263|228:263|265:340,1,247.500009441376,8|0,2:0|2:0,2:0:0:0:
115,87,65909,6,8,B|57:90|57:90|105:157|105:157|137:85,1,220,8|8,2:0|2:0,2:0:0:0:
189,286,66318,6,8,B|167:255|167:255|151:288|151:288|189:286,1,110,8|8,2:0|2:0,2:0:0:0:
232,216,66455,6,8,B|254:245|254:245|268:212|268:212|232:216,1,110,8|0,2:0|2:0,2:0:0:0:
383,275,66591,6,4,B|361:244|361:244|345:277|345:277|383:275,1,110,12|0,2:0|2:0,2:0:0:0:
457,164,66727,6,8,B|481:199|481:199|498:163|498:163|457:164,1,123.750004720688,8|8,2:0|2:0,2:0:0:0:
357,39,67000,6,8,B|415:43|415:43|367:110|367:110|334:37,1,220,8|8,2:0|2:0,2:0:0:0:
281,259,67409,6,8,B|303:228|303:228|319:261|319:261|281:259,1,110,8|8,2:0|2:0,2:0:0:0:
238,171,67545,6,8,B|216:200|216:200|202:167|202:167|238:171,1,110,8|0,2:0|2:0,2:0:0:0:
82,263,67682,6,4,B|104:232|104:232|120:265|120:265|82:263,1,110,4|0,2:0|2:0,2:0:0:0:
5,126,67818,6,8,B|-23:157|-23:157|-37:119|-37:119|5:126,1,123.750004720688,8|8,2:0|2:0,2:0:0:0:
156,163,68091,5,8,2:0:0:0:
59,272,68227,1,8,2:0:0:0:
4,145,68364,1,8,2:0:0:0:
214,168,68500,1,8,2:0:0:0:
89,332,68636,1,8,2:0:0:0:
4,145,68773,1,4,2:0:0:0:
239,221,68909,6,0,B|205:196|205:196|275:202|275:202|235:259|235:259|204:196,1,247.500009441376,8|8,2:0|2:0,2:0:0:0:
360,310,69182,1,8,2:0:0:0:
91,283,69318,1,8,2:0:0:0:
261,61,69455,1,8,2:0:0:0:
360,310,69591,1,8,2:0:0:0:
138,384,69727,6,0,B|139:346|139:346|106:362|106:362|138:384,1,110,8|0,2:0|2:0,2:0:0:0:
28,307,69864,2,0,B|62:289|62:289|34:267|34:267|28:307,1,110,4|0,2:0|2:0,2:0:0:0:
32,156,70000,2,8,B|74:189|74:189|85:136|85:136|32:156,1,165.000006294251,8|0,2:0|2:0,2:0:0:0:
198,147,70273,6,0,B|272:134|272:134|225:76|225:76|198:147,1,220,8|0,2:0|2:0,2:0:0:0:
289,29,70545,2,0,B|336:87|336:87|364:19|364:19|289:29,1,220,8|0,2:0|2:0,2:0:0:0:
409,121,70818,2,0,B|483:108|483:108|436:50|436:50|409:121,1,220,8|0,2:0|2:0,2:0:0:0:
246,271,71091,6,0,B|258:236|258:236|222:242|222:242|246:271,1,110,4|0,2:0|2:0,2:0:0:0:
138,314,71227,2,0,B|174:307|174:307|150:279|150:279|138:314,1,110,4|0,2:0|2:0,2:0:0:0:
240,100,71364,1,8,2:0:0:0:
383,290,71500,1,8,2:0:0:0:
383,290,71773,6,0,B|439:357|439:357|473:278|473:278|383:290,1,263.99999194336,8|8,2:0|2:0,2:0:0:0:
281,299,72182,2,0,B|258:368|258:368|329:357|329:357|281:299,1,220,12|8,2:0|2:0,2:0:0:0:
99,76,72455,6,0,B|171:76|171:76|135:11|135:11|98:75,1,220,8|8,2:0|2:0,2:0:0:0:
33,25,72727,2,0,B|-3:22|-3:22|12:55|12:55|33:25,1,110,8|0,2:0|2:0,2:0:0:0:
97,223,72864,1,8,2:0:0:0:
253,72,73000,1,8,2:0:0:0:
295,157,73136,6,0,B|301:172|301:172|311:155|311:155|293:155,1,55,8|0,2:0|2:0,2:0:0:0:
375,192,73205,2,0,B|368:208|368:208|387:206|387:206|375:190,1,55,8|0,2:0|2:0,2:0:0:0:
442,156,73273,6,0,B|487:215|487:215|516:147|516:147|442:156,1,220,12|8,2:0|2:0,2:0:0:0:
205,168,73545,5,8,2:0:0:0:
341,366,73682,1,8,2:0:0:0:
443,151,73818,1,8,2:0:0:0:
285,73,73955,6,0,B|300:78|300:78|295:58|295:58|285:71,1,55,8|0,2:0|2:0,2:0:0:0:
265,144,74023,2,0,B|264:161|264:161|281:151|281:151|266:144,1,55,8|0,2:0|2:0,2:0:0:0:
313,223,74091,2,0,B|319:258|319:258|284:246|284:246|312:222,1,110,4|8,2:0|2:0,2:0:0:0:
508,205,74227,6,0,B|492:237|492:237|470:208|470:208|508:205,1,110,8|0,2:0|2:0,2:0:0:0:
425,376,74364,2,0,B|439:348|439:348|400:351|400:351|422:384,1,110,12|0,2:0|2:0,2:0:0:0:
318,216,74500,2,0,B|337:245|337:245|354:214|354:214|314:215,1,110,8|0,2:0|2:0,2:0:0:0:
416,260,74636,6,4,B|424:274|424:274|406:275|406:275|414:258,10,55,4|4|4|4|4|4|4|4|4|4|4,2:0|2:0|2:0|2:0|2:0|2:0|2:0|2:0|2:0|2:0|2:0,2:0:0:0:
330,227,75045,6,4,B|347:225|347:225|338:241|338:241|329:227,10,55,4|4|4|4|4|4|4|4|4|4|4,2:0|2:0|2:0|2:0|2:0|2:0|2:0|2:0|2:0|2:0|2:0,2:0:0:0:
266,269,75455,6,4,B|275:283|275:283|257:284|257:284|264:268,10,55,4|4|4|4|4|4|4|4|4|4|4,2:0|2:0|2:0|2:0|2:0|2:0|2:0|2:0|2:0|2:0|2:0,2:0:0:0:
187,258,75864,6,12,B|194:242|194:242|175:242|175:242|186:258,1,55,12|12,2:0|2:0,2:0:0:0:
107,303,75932,2,12,B|123:300|123:300|113:285|113:285|105:302,1,55,12|12,2:0|2:0,2:0:0:0:
37,271,76000,6,4,B|44:255|44:255|25:255|25:255|36:271,6,55,4|4|4|4|4|4|4,2:0|2:0|2:0|2:0|2:0|2:0|2:0,2:0:0:0:
26,183,76273,6,4,B|42:180|42:180|31:165|31:165|24:182,6,55,4|4|4|4|4|4|4,2:0|2:0|2:0|2:0|2:0|2:0|2:0,2:0:0:0:
95,125,76545,6,8,B|105:138|105:138|112:121|112:121|93:124,1,55,8|8,2:0|2:0,2:0:0:0:
211,173,76682,2,8,B|227:170|227:170|217:155|217:155|209:172,1,55,8|8,2:0|2:0,2:0:0:0:
341,113,76818,5,0,2:0:0:0:
175,109,76955,1,0,2:0:0:0:
256,254,77091,1,12,2:0:0:0:
341,113,77227,1,0,2:0:0:0:
222,183,77364,5,0,2:0:0:0:
387,180,77500,1,8,2:0:0:0:
307,325,77636,1,12,2:0:0:0:
222,183,77773,1,0,2:0:0:0:
427,239,77909,5,0,2:0:0:0:
291,250,78045,1,0,2:0:0:0:
348,127,78182,1,8,2:0:0:0:
427,239,78318,1,4,2:0:0:0:
305,312,78455,5,0,2:0:0:0:
183,271,78591,1,8,2:0:0:0:
280,186,78727,1,12,2:0:0:0:
305,312,78864,1,0,2:0:0:0:
128,63,79000,6,4,B|167:102|167:102|182:50|182:50|126:62,3,165,4|4|4|4,2:0|2:0|2:0|2:0,2:0:0:0:
10,268,81182,6,0,B|85:317|85:317|89:229|89:229|10:268,1,263.99999194336,8|0,2:0|2:0,2:0:0:0:
166,356,81591,2,0,B|245:312|245:312|169:268|169:268|166:356,1,263.99999194336,8|0,2:0|2:0,2:0:0:0:
173,92,82000,2,0,B|222:120|222:120|221:65|221:65|173:92,1,165.000006294251,0|0,2:0|2:0,2:0:0:0:
305,176,82273,6,0,B|380:127|380:127|301:89|301:89|305:176,1,263.99999194336,8|0,2:0|2:0,2:0:0:0:
480,82,82682,1,8,2:0:0:0:
274,0,82955,1,0,2:0:0:0:
447,292,83364,6,2,B|475:317|475:317|483:280|483:280|447:292,1,110,10|2,2:0|2:0,2:0:0:0:
355,351,83500,2,2,B|392:341|392:341|365:314|365:314|355:351,1,110,2|2,2:0|2:0,2:0:0:0:
246,345,83636,2,2,B|272:372|272:372|282:336|282:336|246:345,1,110,2|2,2:0|2:0,2:0:0:0:
379,82,83841,5,2,2:0:0:0:
462,151,83909,2,0,B|452:204|452:204|504:188|504:188|462:151,1,165.000006294251,0|0,2:0|2:0,2:0:0:0:
31,132,84318,1,0,2:0:0:0:
124,35,84455,6,0,B|149:7|149:7|112:-1|112:-1|124:35,1,110,10|0,2:0|2:0,2:0:0:0:
216,103,84591,2,0,B|206:66|206:66|179:93|179:93|216:103,1,110,2|0,2:0|2:0,2:0:0:0:
163,208,84727,2,0,B|190:182|190:182|154:172|154:172|163:208,1,110,2|0,2:0|2:0,2:0:0:0:
358,94,84932,5,2,2:0:0:0:
325,197,85000,2,0,B|312:251|312:251|364:234|364:234|325:197,1,165,0|0,2:0|2:0,2:0:0:0:
508,190,85273,5,0,2:0:0:0:
343,58,85409,1,0,2:0:0:0:
274,258,85545,6,2,B|310:244|310:244|281:221|281:221|274:258,1,110,10|2,2:0|2:0,2:0:0:0:
362,339,85682,2,2,B|370:301|370:301|334:313|334:313|362:339,1,110,2|2,2:0|2:0,2:0:0:0:
477,315,85818,2,2,B|448:288|448:288|440:325|440:325|477:315,1,110,2|2,2:0|2:0,2:0:0:0:
302,139,86023,5,2,2:0:0:0:
200,174,86091,2,0,B|147:189|147:189|186:228|186:228|200:174,1,165,0|0,2:0|2:0,2:0:0:0:
256,19,86500,1,0,2:0:0:0:
327,261,86636,6,0,B|336:225|336:225|362:251|362:251|326:261,1,110,10|0,2:0|2:0,2:0:0:0:
386,324,86909,6,0,B|376:359|376:359|350:333|350:333|386:323,1,110,10|0,2:0|2:0,2:0:0:0:
327,261,87182,6,0,B|338:218|338:218|369:249|369:249|326:261,1,131.99999597168,10|0,2:0|2:0,2:0:0:0:
386,324,87455,6,0,B|374:366|374:366|343:335|343:335|386:323,1,131.99999597168,10|0,2:0|2:0,2:0:0:0:
392,100,87727,6,0,B|471:187|471:187|506:73|506:73|436:88,1,307.999990600586,10|0,2:0|2:0,2:0:0:0:
280,192,88273,2,2,B|354:182|354:182|308:125|308:125|280:192,1,220,10|2,2:0|2:0,2:0:0:0:
190,108,88682,2,0,B|225:104|225:104|212:138|212:138|190:108,1,110,0|0,2:0|2:0,2:0:0:0:
149,282,88818,6,0,B|113:286|113:286|126:252|126:252|149:282,1,110,10|0,2:0|2:0,2:0:0:0:
55,231,88955,2,0,B|30:204|30:204|66:195|66:195|55:231,1,110,2|0,2:0|2:0,2:0:0:0:
76,118,89091,2,2,B|36:127|36:127|46:87|46:87|76:118,1,123.750004720688,10|2,2:0|2:0,2:0:0:0:
76,3,89364,5,8,2:0:0:0:
23,252,89500,1,0,2:0:0:0:
255,193,89636,1,0,2:0:0:0:
246,87,89909,5,0,0:0:0:0:
249,93,89977,1,0,0:0:0:0:
249,93,90045,1,0,0:0:0:0:
133,260,90182,5,0,0:0:0:0:
133,260,90250,1,0,0:0:0:0:
133,260,90318,1,0,0:0:0:0:
344,265,90455,5,0,0:0:0:0:
344,265,90523,1,0,0:0:0:0:
344,265,90591,1,0,0:0:0:0:
246,87,90727,5,0,0:0:0:0:
249,93,90795,1,0,0:0:0:0:
249,93,90863,1,0,0:0:0:0:
163,248,91000,6,2,B|200:249|200:249|182:217|182:217|161:247,1,110,10|2,2:0|2:0,2:0:0:0:
311,253,91136,2,2,B|294:219|294:219|274:250|274:250|311:254,1,110,10|2,2:0|2:0,2:0:0:0:
242,122,91273,2,2,B|220:152|220:152|257:154|257:154|242:120,1,110,10|2,2:0|2:0,2:0:0:0:
237,294,91409,6,2,B|257:262|257:262|220:262|220:262|236:295,1,110,10|2,2:0|2:0,2:0:0:0:
314,167,91545,2,2,B|276:164|276:164|294:197|294:197|315:167,1,110,10|2,2:0|2:0,2:0:0:0:
166,161,91682,2,2,B|181:194|181:194|202:163|202:163|165:159,1,110,10|2,2:0|2:0,2:0:0:0:
241,210,91818,6,0,B|220:208|220:208|222:188|239:181|254:180|270:196|278:216|265:233|244:239|224:237|213:227|216:197|228:197|228:197|239:192|252:197|263:210|249:227|225:227|223:210|235:202|241:208|241:208,1,220
328,47,92091,6,0,B|275:37|275:37|230:68|230:68|283:81|283:81|328:47,1,220
452,63,92500,1,0,0:0:0:0:
122,140,92636,5,0,0:0:0:0:
307,175,92773,1,0,0:0:0:0:
452,63,92909,1,0,0:0:0:0:
277,37,93045,1,0,0:0:0:0:
298,258,93182,6,0,B|315:311|315:311|363:335|363:335|349:283|349:283|298:258|298:258,1,220
222,277,93455,2,0,B|193:325|193:325|206:377|206:377|236:332|236:332|222:277|222:279,1,220
255,91,93727,5,0,0:0:0:0:
156,227,93864,1,0,0:0:0:0:
206,374,94000,1,0,0:0:0:0:
302,243,94136,1,0,0:0:0:0:
325,65,94273,6,0,B|324:64|334:93|334:93|359:96|359:96|349:67|349:67|324:64,1,110
458,166,94409,1,0,0:0:0:0:
294,207,94545,6,0,B|295:208|285:179|285:179|260:176|260:176|270:205|270:205|295:208,1,110
164,103,94682,1,0,0:0:0:0:
14,353,94818,6,0,B|-1:329|-1:329|-28:326|-28:326|-13:348|-13:348|14:353,1,110
82,313,94955,2,0,B|91:286|91:286|78:263|78:263|69:288|69:288|82:313,1,110
153,349,95091,2,0,B|170:310|170:310|208:296|208:296|194:334|194:334|153:349|155:349,1,165.000006294251
140,178,95364,5,0,0:0:0:0:
284,265,95500,1,0,0:0:0:0:
436,195,95636,1,0,0:0:0:0:
290,110,95773,1,0,0:0:0:0:
62,336,95909,6,0,B|61:337|60:323|60:323|70:314|70:314|71:327|71:327|61:337,1,55
160,317,95978,2,0,B|160:331|160:331|150:340|150:340|149:326|149:326|160:317,1,55
235,369,96045,2,0,B|234:370|233:356|233:356|243:347|243:347|244:360|244:360|234:370,1,55
334,355,96114,2,0,B|333:355|332:341|332:341|321:334|321:334|322:347|322:347|333:355,1,55
417,383,96182,6,0,B|415:385|462:352|462:352|458:297|458:297|412:327|412:327|416:383,1,220
488,110,96455,6,0,B|499:101|499:101|500:89|500:89|489:96|489:96|488:110,1,55
418,44,96523,2,0,B|417:42|415:57|415:57|424:66|424:66|426:52|426:52|417:42,1,55
333,35,96591,2,0,B|334:33|287:65|287:65|281:119|281:119|325:88|325:88|334:33,1,220
188,83,96864,2,0,B|188:81|184:110|184:110|202:130|202:130|205:103|205:103|188:81,1,110
132,170,97000,6,0,B|122:228|122:228|159:271|159:271|167:215|167:215|132:170,1,220
365,242,97273,6,0,B|374:300|374:300|337:343|337:343|329:287|329:287|365:242,1,220
176,71,97545,5,0,0:0:0:0:
108,221,97681,1,0,0:0:0:0:
193,367,97817,1,0,0:0:0:0:
263,215,97954,1,0,0:0:0:0:
296,63,98091,5,0,0:0:0:0:
178,134,98227,1,0,0:0:0:0:
54,76,98363,1,0,0:0:0:0:
173,7,98500,1,0,0:0:0:0:
430,71,98636,6,0,B|430:69|423:99|423:99|397:113|397:113|404:85|404:85|430:69,1,110
488,181,98773,2,0,B|488:180|461:194|461:194|434:183|434:183|460:170|460:170|488:180,1,110
441,295,98909,2,0,B|442:295|413:284|413:284|403:257|403:257|430:267|430:267|442:295,1,110
324,320,99045,2,0,B|316:300|316:300|326:282|326:282|333:301|333:301|324:320,1,82.5000031471254
148,141,99182,6,0,B|147:139|158:168|158:168|144:194|144:194|134:166|134:166|147:139,1,110
209,240,99318,2,0,B|208:238|219:267|219:267|205:293|205:293|195:265|195:265|205:245,1,110
130,384,99455,2,0,B|130:385|119:356|119:356|133:330|133:330|143:358|143:358|133:378,1,110
70,284,99591,2,0,B|70:285|59:256|59:256|73:230|73:230|83:258|83:258|73:278,1,110
299,99,99727,6,0,B|298:99|287:71|287:71|260:62|260:62|271:89|271:89|292:97,1,110
190,146,99864,2,0,B|188:147|203:119|203:119|192:92|192:92|179:118|179:118|186:140,1,110
112,28,100000,2,0,B|112:27|97:55|97:55|107:81|107:81|120:55|120:55|114:34,1,110
0,74,100136,2,0,B|0:73|9:101|9:101|37:112|37:112|26:85|26:85|5:75,1,110
194,292,100273,6,0,B|193:293|205:264|205:264|232:255|232:255|221:281|221:281|200:290,1,110
305,341,100409,2,0,B|291:314|291:314|302:287|302:287|315:313|315:313|307:334,1,110
414,288,100545,2,0,B|415:288|385:278|385:278|374:252|374:252|401:261|401:261|411:281,1,110
455,172,100682,2,0,B|455:171|429:187|429:187|402:178|402:178|426:163|426:163|448:169,1,110
401,36,100818,6,0,B|355:66|355:66|345:120|345:120|391:91|391:91|400:34|401:36,1,220
228,11,101091,2,0,B|258:56|258:56|247:110|247:110|214:65|214:65|227:8|228:11,1,220,0|0,0:3|0:3,0:0:0:0:
225,298,101364,1,0,0:0:0:0:
132,107,101500,1,0,0:0:0:0:
345,120,101636,1,0,0:0:0:0:
416,289,101909,5,0,0:0:0:0:
230,284,102318,1,0,0:0:0:0:
154,127,102455,1,0,0:0:0:0:
329,137,102591,1,0,0:0:0:0:
416,289,102727,5,0,0:0:0:0:
193,359,103000,6,0,B|164:311|164:311|179:258|179:258|209:304|209:304|192:360|193:358,1,220
40,308,103273,2,0,B|57:255|57:255|106:231|106:231|91:284|91:284|39:308|40:307,1,220
19,165,103545,2,0,B|44:154|44:154|69:165|69:165|45:176|45:176|18:164|19:165,1,110
67,58,103682,2,0,B|92:68|92:68|102:94|102:94|77:84|77:84|66:57|67:58,1,110
181,0,103818,2,0,B|196:38|196:38|179:75|179:75|162:38|162:38|181:0|180:0,1,165.000006294251
171,162,104091,1,0,0:0:0:0:
309,64,104227,6,0,B|289:99|289:99|250:110|250:110|267:73|267:73|309:64|308:63,1,165.000006294251
377,104,104636,2,0,B|387:130|387:130|376:156|376:156|364:130|364:130|377:104|376:104,1,110
446,67,104909,2,0,B|485:77|485:77|505:114|505:114|465:105|465:105|446:67|445:67,1,165.000006294251
336,240,105182,6,0,B|329:232|329:232|330:222|330:222|337:229|337:229|335:240|335:239,1,41.2500015735627
247,234,105250,2,0,B|247:223|247:223|254:216|254:216|254:227|254:227|246:234|247:233,1,41.2500015735627
190,168,105318,2,0,B|194:126|194:126|227:101|227:101|224:142|224:142|188:168|190:167,1,165.000006294251
98,150,105591,6,0,B|97:150|98:139|98:139|91:132|91:132|90:142|90:142|98:150,1,41.2500015735627
49,209,105659,2,0,B|40:202|40:202|30:205|30:205|39:211|39:211|49:209,1,41.2500015735627
78,283,105727,2,0,B|62:321|62:321|24:336|24:336|37:298|37:298|79:283|77:283,1,165.000006294251
151,310,106000,2,0,B|170:347|170:347|156:386|156:386|136:350|136:350|151:309|150:310,1,165.000006294251
331,303,106273,6,0,B|341:303|341:303|348:310|348:310|338:310|338:310|330:302|331:303,1,41.2500015735627
243,250,106409,2,0,B|232:250|232:250|225:257|225:257|235:257|235:257|243:249|242:250,1,41.2500015735627
338,182,106545,2,0,B|337:171|337:171|330:164|330:164|330:174|330:174|338:182|337:181,1,41.2500015735627
434,236,106682,2,0,B|444:235|444:235|451:228|451:228|441:228|441:228|433:236|434:235,1,41.2500015735627
330,313,106818,5,0,0:0:0:0:
196,163,106955,1,0,0:0:0:0:
126,337,107091,1,0,0:0:0:0:
20,183,107227,1,0,0:0:0:0:
256,192,107364,12,0,108454,0:0:0:0:
