osu file format v14

[General]
AudioFilename: audio.mp3
AudioLeadIn: 0
PreviewTime: 320
Countdown: 1
SampleSet: Normal
StackLeniency: 0.7
Mode: 0
LetterboxInBreaks: 0
WidescreenStoryboard: 0

[Editor]
Bookmarks: 22133,26496,30860,35224,52678,61405,91956,100683
DistanceSpacing: 3.9
BeatDivisor: 6
GridSize: 4
TimelineZoom: 7.100001

[Metadata]
Title:SCREAM SQUAD
TitleUnicode:SCREAM SQUAD
Artist:CALF
ArtistUnicode:CALF
Creator:rustbell
Version:Acceleration
Source:beatmania IIDX 12 HAPPY SKY
Tags:BREAK CORE breakcore SLAKE SPARKER Takehiko Fujii 藤井岳彦 spro sprosive electronic instrumental
BeatmapID:1447280
BeatmapSetID:683828

[Difficulty]
HPDrainRate:2.8
CircleSize:3.2
OverallDifficulty:10
ApproachRate:10
SliderMultiplier:1
SliderTickRate:2

[Events]
//Background and Video events
0,0,"25_waifu2x_photo_noise1_scale_tta_1.png",0,0
//Break Periods
2,79292,80597
//Storyboard Layer 0 (Background)
//Storyboard Layer 1 (Fail)
//Storyboard Layer 2 (Pass)
//Storyboard Layer 3 (Foreground)
//Storyboard Layer 4 (Overlay)
//Storyboard Sound Samples

[TimingPoints]
320,272.727272727273,4,1,0,60,1,0
4683,-50,4,1,0,60,0,0
9047,-100,4,1,0,60,0,0
13410,-66.6666666666667,4,1,0,60,0,0
17774,-50,4,1,0,60,0,0
19683,-16.6666666666667,4,1,0,60,0,0
19956,-133.333333333333,4,1,0,60,0,0
20365,-66.6666666666667,4,1,0,60,0,0
22138,-16,4,1,0,60,0,1
22274,-12,4,1,0,60,0,1
22410,-16,4,1,0,60,0,1
22547,-12,4,1,0,60,0,1
22683,-20,4,1,0,60,0,1
22820,-40,4,1,0,60,0,1
22956,-14.2857142857143,4,1,0,60,0,1
23365,-33.3333333333333,4,1,0,60,0,1
23638,-14.2857142857143,4,1,0,60,0,1
23910,-33.3333333333333,4,1,0,60,0,1
24320,-10,4,1,0,60,0,1
24456,-50,4,1,0,60,0,1
24729,-25,4,1,0,60,0,1
24865,-50,4,1,0,60,0,1
25138,-25,4,1,0,60,0,1
25410,-20,4,1,0,60,0,1
25547,-10,4,1,0,60,0,1
25683,-20,4,1,0,60,0,1
25820,-10,4,1,0,60,0,1
25956,-20,4,1,0,60,0,1
26229,-14.2857142857143,4,1,0,60,0,1
26501,-100,4,1,0,60,0,0
28683,-133.333333333333,4,1,0,60,0,0
29092,-66.6666666666667,4,1,0,60,0,0
30865,-25,4,1,0,60,0,1
31138,-10,4,1,0,60,0,1
31410,-20,4,1,0,60,0,1
31547,-40,4,1,0,60,0,1
31956,-20,4,1,0,60,0,1
32092,-100,4,1,0,60,0,1
32365,-10,4,1,0,60,0,1
32501,-50,4,1,0,60,0,1
33047,-10,4,1,0,60,0,1
33115,-20,4,1,0,60,0,1
33183,-40,4,1,0,60,0,1
33456,-20,4,1,0,60,0,1
33592,-10,4,1,0,60,0,1
34138,-33.3333333333333,4,1,0,60,0,1
34922,-40,4,1,0,60,0,1
35229,-50,4,1,0,60,0,0
47501,-12,4,1,0,60,0,0
47774,-10,4,1,0,60,0,0
48320,-200,4,1,0,60,0,0
52956,-50,4,1,0,60,0,0
61410,-200,4,1,0,60,0,0
62229,-50,4,1,0,60,0,0
62501,-200,4,1,0,60,0,0
63320,-50,4,1,0,60,0,0
65774,-200,4,1,0,60,0,0
66320,-50,4,1,0,60,0,0
66865,-200,4,1,0,60,0,0
67410,-50,4,1,0,60,0,0
70138,-25,4,1,0,60,0,1
71229,-15,4,1,0,60,0,1
71774,-50,4,1,0,60,0,1
72320,-20,4,1,0,60,0,1
72456,-50,4,1,0,60,0,1
73547,-25,4,1,0,60,0,1
74229,-50,4,1,0,60,0,1
74501,-25,4,1,0,60,0,1
74524,-25,4,1,0,10,0,1
74774,-25,4,1,0,60,0,1
74797,-25,4,1,0,10,0,1
74910,-25,4,1,0,60,0,1
74933,-25,4,1,0,10,0,1
75183,-50,4,1,0,60,0,1
75342,-25,4,1,0,10,0,1
75592,-25,4,1,0,60,0,1
75615,-25,4,1,0,10,0,1
75729,-25,4,1,0,60,0,1
75751,-25,4,1,0,10,0,1
76001,-25,4,1,0,60,0,1
76160,-25,4,1,0,10,0,1
76274,-25,4,1,0,60,0,1
76683,-50,4,1,0,60,0,1
77501,-25,4,1,0,60,0,1
77774,-16.6666666666667,4,1,0,60,0,1
78047,-15,4,1,0,60,0,1
78865,-200,4,1,0,60,0,0
79092,-200,4,2,0,5,0,0
81047,-66.6666666666667,4,1,0,60,0,0
90865,-50,4,1,0,60,0,0
91683,-16.6666666666667,4,1,0,60,0,0
91956,-133.333333333333,4,1,0,60,0,0
92365,-66.6666666666667,4,1,0,60,0,0
94138,-100,4,1,0,60,0,1
94274,-10,4,1,0,60,0,1
94410,-100,4,1,0,60,0,1
94547,-10,4,1,0,60,0,1
94683,-12,4,1,0,60,0,1
95229,-10,4,1,0,60,0,1
95365,-20,4,1,0,60,0,1
95774,-10,4,1,0,60,0,1
95910,-16.6666666666667,4,1,0,60,0,1
96592,-10,4,1,0,60,0,1
96729,-33.3333333333333,4,1,0,60,0,1
96865,-10,4,1,0,60,0,1
97138,-20,4,1,0,60,0,1
97547,-10,4,1,0,60,0,1
97683,-20,4,1,0,60,0,1
97820,-10,4,1,0,60,0,1
98501,-100,4,1,0,60,0,0
99592,-12.5,4,1,0,60,0,0
100683,-33.3333333333333,4,1,0,60,0,0
102865,-100,4,1,0,60,0,1
103138,-10,4,1,0,60,0,1
103410,-33.3333333333333,4,1,0,60,0,1
103956,-12,4,1,0,60,0,1
104092,-50,4,1,0,60,0,1
104365,-10,4,1,0,60,0,1
104501,-33.3333333333333,4,1,0,60,0,1
104774,-16.6666666666667,4,1,0,60,0,1
105047,-10,4,1,0,60,0,1
105183,-20,4,1,0,60,0,1
105456,-33.3333333333333,4,1,0,60,0,1
105592,-10,4,1,0,60,0,1
106274,-11.1111111111111,4,1,0,60,0,1
106410,-12.5,4,1,0,60,0,1
106547,-14.2857142857143,4,1,0,60,0,1
106956,-10,4,1,0,60,0,1
107229,-100,4,1,0,60,0,0
107297,-100,4,1,0,5,0,0

[HitObjects]
160,320,320,6,0,P|200:296|264:296,1,100
96,256,865,2,0,P|128:224|192:192,1,100
16,224,1410,1,0,0:0:0:0:
48,336,1956,1,0,0:0:0:0:
160,320,2501,6,0,L|264:296,1,100
96,256,3046,2,0,L|192:192,1,100
16,224,3591,1,0,0:0:0:0:
0,96,4137,1,0,0:0:0:0:
48,336,4683,5,0,0:0:0:0:
112,224,4956,1,0,0:0:0:0:
128,304,5092,1,0,0:0:0:0:
144,144,5229,1,0,0:0:0:0:
32,272,5638,1,0,0:0:0:0:
144,288,5775,1,0,0:0:0:0:
32,272,5911,1,0,0:0:0:0:
224,336,6320,6,0,L|328:328,1,100
416,352,6592,1,0,0:0:0:0:
512,344,6729,1,0,0:0:0:0:
496,328,6865,5,0,0:0:0:0:
352,240,7138,1,0,0:0:0:0:
440,224,7274,1,0,0:0:0:0:
264,216,7410,1,0,0:0:0:0:
408,304,7820,1,0,0:0:0:0:
416,144,7956,1,0,0:0:0:0:
408,304,8092,1,0,0:0:0:0:
328,248,8501,6,0,P|272:248|224:240,1,100
160,168,8774,1,0,0:0:0:0:
200,328,8910,1,0,0:0:0:0:
488,312,9047,6,0,P|440:328|384:336,1,100
304,296,9592,2,0,P|254:285|201:264,1,100
432,184,10138,1,0,0:0:0:0:
400,272,10683,1,0,0:0:0:0:
488,312,11229,6,0,P|440:328|384:336,1,100
304,296,11774,2,0,P|254:285|201:264,1,100
432,184,12320,1,0,0:0:0:0:
448,48,12865,1,0,0:0:0:0:
448,280,13410,6,0,L|384:272,1,62.5000023841859,0|0,0:0|2:0,0:0:0:0:
304,280,13592,2,0,L|240:272,1,62.5000023841859,0|0,0:0|2:0,0:0:0:0:
160,280,13774,2,0,L|96:272,1,62.5000023841859,0|0,0:0|2:0,0:0:0:0:
24,200,13956,6,0,L|88:176,1,62.5000023841859,0|0,0:0|2:0,0:0:0:0:
160,200,14138,2,0,L|224:176,1,62.5000023841859,0|0,0:0|2:0,0:0:0:0:
296,200,14320,2,0,L|360:176,1,62.5000023841859,0|0,0:0|2:0,0:0:0:0:
456,128,14501,6,0,P|448:96|448:56,1,62.5000023841859,0|0,0:0|2:0,0:0:0:0:
424,216,14683,2,0,P|401:192|381:157,1,62.5000023841859,0|0,0:0|2:0,0:0:0:0:
432,304,14865,2,0,P|400:294|365:274,1,62.5000023841859,0|0,0:0|2:0,0:0:0:0:
224,280,15047,6,0,P|256:288|296:288,1,62.5000023841859,0|0,0:0|2:0,0:0:0:0:
136,312,15229,2,0,P|160:335|195:355,1,62.5000023841859,0|0,0:0|2:0,0:0:0:0:
48,304,15411,2,0,P|58:336|78:371,1,62.5000023841859,0|0,0:0|2:0,0:0:0:0:
72,216,15592,5,0,0:0:0:0:
72,216,15729,1,0,0:0:0:0:
56,64,15865,1,0,0:0:0:0:
440,216,16138,5,0,0:0:0:0:
440,216,16275,1,0,0:0:0:0:
456,64,16411,1,0,0:0:0:0:
72,216,16683,5,0,0:0:0:0:
72,216,16820,1,0,0:0:0:0:
56,64,16956,1,0,0:0:0:0:
208,104,17092,1,0,0:0:0:0:
440,216,17229,1,0,0:0:0:0:
440,216,17366,1,0,0:0:0:0:
456,64,17502,1,0,0:0:0:0:
480,312,17774,5,0,0:0:0:0:
488,328,17842,1,0,0:0:0:0:
328,312,17910,1,0,0:0:0:0:
264,240,18047,5,0,0:0:0:0:
256,256,18115,1,0,0:0:0:0:
416,240,18183,1,0,0:0:0:0:
480,160,18320,5,0,0:0:0:0:
488,176,18388,1,0,0:0:0:0:
328,160,18456,1,0,0:0:0:0:
264,88,18593,5,0,0:0:0:0:
256,104,18661,1,0,0:0:0:0:
416,88,18729,1,0,0:0:0:0:
504,256,18865,6,0,P|480:296|416:328,1,100,4|0,0:0|2:0,0:0:0:0:
280,296,19070,1,0,1:0:0:0:
288,272,19138,1,0,0:0:0:0:
0,168,19274,6,0,P|24:208|88:240,1,100,4|0,0:0|2:0,0:0:0:0:
224,208,19479,1,0,0:0:0:0:
216,184,19547,1,0,0:0:0:0:
504,80,19683,6,0,L|192:72,1,300.000011444092,4|0,0:0|2:0,0:0:0:0:
24,328,19956,6,0,L|104:320,1,75.0000028610231
184,272,20365,2,0,L|200:232,1,37.5000014305115
192,152,20501,1,0,0:0:0:0:
208,360,20638,1,0,0:0:0:0:
296,200,20774,1,0,0:0:0:0:
72,224,20910,1,0,0:0:0:0:
384,336,21047,6,0,L|440:328,1,37.5000014305115,0|0,0:0|2:0,0:0:0:0:
504,320,21183,1,0,0:0:0:0:
320,192,21320,1,0,0:0:0:0:
296,384,21456,1,0,0:0:0:0:
296,384,21524,1,0,0:0:0:0:
296,384,21592,1,0,0:0:0:0:
408,232,21729,5,0,0:0:0:0:
208,216,21865,1,0,0:0:0:0:
432,144,22001,1,0,0:0:0:0:
424,336,22138,6,0,P|424:256|376:312,1,156.25,4|0,0:0|2:0,0:0:0:0:
424,336,22274,2,0,B|384:312|384:312|216:328,1,208.333333333333,0|0,0:0|2:0,0:0:0:0:
96,240,22410,6,0,P|96:160|144:216,1,156.25,0|0,0:0|2:0,0:0:0:0:
96,240,22546,2,0,B|136:216|136:216|304:232,1,208.333333333333,0|0,0:0|2:0,0:0:0:0:
328,120,22683,6,0,P|328:88|352:56,1,62.5,0|0,0:0|2:0,0:0:0:0:
424,48,22751,2,0,P|451:64|467:100,1,62.5,0|0,0:0|2:0,0:0:0:0:
440,168,22820,2,0,P|412:183|372:179,1,62.5,0|0,0:0|2:0,0:0:0:0:
376,16,22956,6,0,P|424:216|308:64,1,525.00000500679,0|0,0:0|2:0,0:0:0:0:
200,192,23229,6,0,B|152:208|152:208|24:184,1,175.00000166893,0|0,0:0|2:0,0:0:0:0:
68,108,23365,6,0,L|148:124,1,75.0000028610231,0|0,0:0|2:0,0:0:0:0:
156,292,23501,2,0,L|76:276,1,75.0000028610231,0|0,0:0|2:0,0:0:0:0:
264,336,23638,6,0,P|352:288|336:232,1,175.00000166893,0|0,0:0|2:0,0:0:0:0:
384,144,23774,2,0,P|378:63|456:39,1,175.00000166893,0|0,0:0|2:0,0:0:0:0:
496,128,23910,6,0,L|488:216,1,75.0000028610231,0|0,0:0|2:0,0:0:0:0:
200,264,24047,1,0,0:0:0:0:
203,226,24115,1,0,0:0:0:0:
206,189,24183,1,0,0:0:0:0:
56,216,24320,6,0,B|112:248|112:248|304:232,1,250,4|0,0:0|2:0,0:0:0:0:
368,288,24456,2,0,L|360:352,1,50,0|0,0:0|2:0,0:0:0:0:
440,240,24592,2,0,L|456:296,1,50,0|0,0:0|2:0,0:0:0:0:
488,168,24729,6,0,P|488:144|496:112,1,50,0|0,0:0|2:0,0:0:0:0:
416,112,24797,2,0,P|420:88|433:58,1,50,0|0,0:0|2:0,0:0:0:0:
352,48,24865,2,0,P|364:24|386:3,1,50,0|0,0:0|2:0,0:0:0:0:
304,240,25001,1,0,0:0:0:0:
304,240,25070,1,0,0:0:0:0:
304,240,25138,2,0,P|240:272|88:272,1,200
24,192,25410,6,0,P|56:152|71:201,1,125,0|0,0:0|2:0,0:0:0:0:
144,40,25547,2,0,P|173:137|239:57,1,250,4|0,0:0|2:0,0:0:0:0:
280,208,25683,6,0,P|312:168|327:217,1,125,0|0,0:0|2:0,0:0:0:0:
392,264,25820,2,0,P|421:361|487:281,1,250,4|0,0:0|2:0,0:0:0:0:
232,304,25956,6,0,P|200:304|160:320,1,62.5,0|0,0:0|2:0,0:0:0:0:
84,342,26024,2,0,P|55:352|24:352,1,62.5,0|0,0:0|2:0,0:0:0:0:
240,296,26092,6,0,P|208:290|166:299,1,62.5,0|0,0:0|2:0,0:0:0:0:
87,308,26160,2,0,P|56:312|26:307,1,62.5,0|0,0:0|2:0,0:0:0:0:
248,288,26229,6,0,P|440:216|240:232,1,525.00000500679,4|0,0:2|2:0,0:0:0:0:
328,232,26501,5,4,0:0:0:0:
360,240,26570,1,0,0:0:0:0:
488,224,26638,1,0,0:0:0:0:
432,152,26774,5,0,0:0:0:0:
400,160,26843,1,0,0:0:0:0:
272,144,26911,1,0,0:0:0:0:
312,72,27047,5,0,0:0:0:0:
312,72,27115,1,0,0:0:0:0:
312,72,27183,1,0,0:0:0:0:
336,328,27320,5,0,0:0:0:0:
336,328,27388,1,0,0:0:0:0:
336,328,27456,1,0,0:0:0:0:
408,248,27592,5,0,0:0:0:0:
304,256,27729,1,0,0:0:0:0:
208,264,27865,1,0,0:0:0:0:
112,272,28001,1,0,0:0:0:0:
96,176,28138,5,0,0:0:0:0:
0,168,28274,1,0,0:0:0:0:
192,184,28410,1,4,0:2:0:0:
488,328,28683,6,0,L|408:320,1,75.0000028610231
328,368,29092,2,0,L|330:330,1,37.5000014305115
336,200,29229,1,0,0:0:0:0:
328,368,29365,1,0,0:0:0:0:
432,232,29501,1,0,0:0:0:0:
64,272,29774,5,0,0:0:0:0:
288,264,29910,1,0,0:0:0:0:
64,272,30047,1,0,0:0:0:0:
216,216,30183,1,0,0:0:0:0:
64,272,30320,2,0,L|152:264,1,75.0000028610231
464,232,30592,1,0,0:0:0:0:
64,192,30865,6,0,L|80:72,1,100,4|0,0:0|2:0,0:0:0:0:
168,84,31001,2,0,L|200:188,1,100,0|0,0:0|2:0,0:0:0:0:
0,272,31138,6,0,L|32:24,1,250,0|0,0:0|2:0,0:0:0:0:
200,12,31274,2,0,L|272:252,1,250,0|0,0:0|2:0,0:0:0:0:
352,360,31410,6,0,L|368:232,1,125,0|0,0:0|2:0,0:0:0:0:
440,280,31547,2,0,L|432:352,1,62.5,0|0,0:0|2:0,0:0:0:0:
512,320,31683,1,0,1:0:0:0:
440,80,31956,6,0,L|312:88,1,125,0|0,0:0|2:0,0:0:0:0:
182,114,32092,2,0,L|232:112,1,50,0|0,0:0|2:0,0:0:0:0:
388,200,32365,6,0,L|136:212,1,250,4|0,0:0|2:0,0:0:0:0:
52,232,32501,2,0,L|101:229,1,50,0|0,0:0|2:0,0:0:0:0:
192,224,32638,2,0,L|241:221,1,50,0|0,0:0|2:0,0:0:0:0:
332,216,32774,2,0,L|436:208,1,100,0|0,0:0|2:0,0:0:0:0:
64,64,33047,6,0,P|32:120|88:136,1,125,4|0,0:0|2:0,0:0:0:0:
72,72,33115,2,0,L|144:80,1,62.5,0|0,0:0|2:0,0:0:0:0:
80,80,33183,2,0,L|142:87,1,62.5,0|0,0:0|2:0,0:0:0:0:
200,168,33320,2,0,L|262:175,1,62.5,0|0,0:0|2:0,0:0:0:0:
328,248,33456,6,0,L|390:255,1,62.5,0|0,0:0|2:0,0:0:0:0:
336,256,33524,2,0,L|398:263,1,62.5,0|0,0:0|2:0,0:0:0:0:
344,264,33592,2,0,P|388:229|392:160,1,125,4|0,0:0|2:0,0:0:0:0:
456,336,33729,5,0,0:0:0:0:
456,336,33797,1,0,0:0:0:0:
456,336,33865,1,0,0:0:0:0:
496,104,34001,1,0,0:0:0:0:
512,248,34138,6,0,P|472:264|432:256,1,75.0000028610231,0|0,0:0|2:0,0:0:0:0:
312,216,34274,2,0,L|232:224,1,75.0000028610231,4|0,0:0|2:0,0:0:0:0:
512,248,34410,6,0,L|432:240,1,75.0000028610231,0|0,0:0|2:0,0:0:0:0:
237,223,34547,2,0,L|160:216,1,75.0000028610231,4|0,0:0|2:0,0:0:0:0:
48,184,34683,5,0,0:0:0:0:
99,215,34751,1,0,0:0:0:0:
109,275,34819,1,0,0:0:0:0:
71,322,34887,1,0,0:0:0:0:
24,336,34956,6,0,P|37:344|51:350,1,31.25,4|0,0:0|2:0,0:0:0:0:
141,372,35024,2,0,P|156:371|171:367,1,31.25,0|0,0:0|2:0,0:0:0:0:
244,313,35092,2,0,P|254:301|263:288,1,31.25,0|0,0:0|2:0,0:0:0:0:
269,197,35160,2,0,P|267:181|265:166,1,31.25,0|0,0:0|2:0,0:0:0:0:
240,80,35229,6,0,B|320:80|320:80|352:112|352:112|432:112,1,200,4|0,0:0|0:0,0:0:0:0:
272,168,35638,2,0,B|192:168|192:168|160:200|160:200|80:200,1,200
240,256,36047,1,0,0:0:0:0:
336,256,36183,1,0,0:0:0:0:
432,256,36320,6,0,B|480:224|480:224|480:80,1,200
320,176,36729,2,0,B|272:208|272:208|272:352,1,200
400,128,37138,1,4,0:0:0:0:
80,288,37410,5,0,0:0:0:0:
80,192,37547,1,0,0:0:0:0:
80,96,37683,1,0,0:0:0:0:
160,144,37820,1,0,0:0:0:0:
160,144,37888,2,0,B|208:176|208:176|320:176,1,150
496,176,38365,5,0,0:0:0:0:
416,224,38501,1,0,0:0:0:0:
416,128,38638,1,0,0:0:0:0:
416,32,38774,1,0,0:0:0:0:
336,80,38910,1,0,0:0:0:0:
336,80,38979,2,0,B|288:112|288:112|195:112,1,150
16,112,39320,1,4,0:0:0:0:
112,288,39592,5,0,0:0:0:0:
208,288,39729,1,0,0:0:0:0:
304,288,39865,1,0,0:0:0:0:
400,288,40001,1,0,0:0:0:0:
400,288,40070,2,0,L|240:288,1,150
48,288,40547,1,0,0:0:0:0:
80,192,40683,5,0,0:0:0:0:
432,192,40956,1,0,0:0:0:0:
80,192,41229,1,0,0:0:0:0:
432,192,41502,1,0,0:0:0:0:
80,192,41774,1,0,0:0:0:0:
432,192,42047,1,0,0:0:0:0:
80,192,42320,1,0,0:0:0:0:
112,96,42456,1,0,0:0:0:0:
432,192,42593,1,0,0:0:0:0:
400,96,42729,1,0,0:0:0:0:
48,288,42865,5,0,0:0:0:0:
80,192,43001,1,0,0:0:0:0:
112,96,43138,1,0,0:0:0:0:
256,240,43342,1,0,0:0:0:0:
400,96,43546,1,0,0:0:0:0:
400,96,43683,1,4,0:0:0:0:
464,288,43956,5,4,0:0:0:0:
464,288,44024,1,0,0:0:0:0:
464,288,44092,1,0,0:0:0:0:
464,288,44160,1,0,0:0:0:0:
464,288,44229,1,0,0:0:0:0:
464,288,44297,1,0,0:0:0:0:
464,288,44365,1,0,0:0:0:0:
464,288,44433,1,0,0:0:0:0:
464,288,44501,1,0,0:0:0:0:
464,288,44570,1,0,0:0:0:0:
464,288,44638,1,0,0:0:0:0:
464,288,44706,1,0,0:0:0:0:
464,288,44774,1,0,0:0:0:0:
464,288,44842,1,0,0:0:0:0:
464,288,44910,1,0,0:0:0:0:
464,288,44979,1,0,0:0:0:0:
464,288,45047,1,0,0:0:0:0:
464,288,45115,1,0,0:0:0:0:
464,288,45183,1,0,0:0:0:0:
464,288,45251,1,0,0:0:0:0:
464,288,45320,1,0,0:0:0:0:
464,288,45388,1,0,0:0:0:0:
464,288,45456,1,0,0:0:0:0:
464,288,45524,1,0,0:0:0:0:
464,288,45592,1,0,0:0:0:0:
464,288,45660,1,0,0:0:0:0:
464,288,45729,1,0,0:0:0:0:
464,288,45797,1,0,0:0:0:0:
464,288,45865,1,0,0:0:0:0:
464,288,45933,1,0,0:0:0:0:
464,288,46001,1,0,0:0:0:0:
464,288,46070,1,0,0:0:0:0:
464,288,46138,6,0,L|400:288,1,50,0|0,0:0|2:0,0:0:0:0:
414,208,46274,2,0,L|478:208,1,50,0|0,0:0|2:0,0:0:0:0:
336,320,46410,6,0,L|272:320,1,50,0|0,0:0|2:0,0:0:0:0:
286,200,46546,2,0,L|350:200,1,50,0|0,0:0|2:0,0:0:0:0:
208,336,46683,6,0,L|144:336,1,50,0|0,0:0|2:0,0:0:0:0:
158,176,46819,2,0,L|222:176,1,50,0|0,0:0|2:0,0:0:0:0:
80,352,46956,6,0,L|16:352,1,50,0|0,0:0|2:0,0:0:0:0:
30,152,47092,2,0,L|94:152,1,50,0|0,0:0|2:0,0:0:0:0:
164,256,47229,6,0,L|64:256,1,100,0|0,1:0|2:0,2:0:0:0:
271,232,47501,6,0,L|64:256,1,208.333333333333,4|0,0:0|2:0,0:0:0:0:
370,193,47774,6,0,L|64:256,1,312.5,4|0,0:0|2:0,0:0:0:0:
463,138,48047,6,0,L|64:256,1,416.666666666667,4|0,0:0|2:0,0:0:0:0:
112,128,48320,6,0,L|112:120,1,6.25,0|0,0:0|2:0,0:0:0:0:
208,128,48456,2,0,L|208:120,1,6.25,0|0,0:0|2:0,0:0:0:0:
304,128,48592,2,0,L|304:120,1,6.25,0|0,0:0|2:0,0:0:0:0:
400,128,48728,2,0,L|400:120,1,6.25,0|0,0:0|2:0,0:0:0:0:
400,224,48865,6,0,L|400:232,1,6.25,0|0,0:0|2:0,0:0:0:0:
304,224,49001,2,0,L|304:232,1,6.25,0|0,0:0|2:0,0:0:0:0:
208,224,49137,2,0,L|208:232,1,6.25,0|0,0:0|2:0,0:0:0:0:
112,224,49273,2,0,L|112:232,1,6.25,0|0,0:0|2:0,0:0:0:0:
40,112,49410,6,0,L|48:112,1,6.25,0|0,0:0|2:0,0:0:0:0:
184,112,49546,2,0,L|192:112,1,6.25,0|0,0:0|2:0,0:0:0:0:
328,112,49682,2,0,L|336:112,1,6.25,0|0,0:0|2:0,0:0:0:0:
472,112,49818,2,0,L|480:112,1,6.25,0|0,0:0|2:0,0:0:0:0:
472,272,49956,6,0,L|464:272,1,6.25,0|0,0:0|2:0,0:0:0:0:
328,272,50092,2,0,L|320:272,1,6.25,0|0,0:0|2:0,0:0:0:0:
192,280,50229,2,0,L|190:273,1,6.25,0|0,0:0|2:0,0:0:0:0:
137,296,50297,2,0,L|138:289,1,6.25,0|0,0:0|2:0,0:0:0:0:
84,281,50365,2,0,L|87:275,1,6.25,0|0,0:0|2:0,0:0:0:0:
44,243,50433,2,0,L|49:240,1,6.25,0|0,0:0|2:0,0:0:0:0:
32,192,50518,6,0,L|32:188,1,3.125
112,96,50655,2,0,L|112:92,1,3.125
160,208,50791,2,0,L|160:204,1,3.125
240,112,50927,2,0,L|240:108,1,3.125
304,224,51064,6,0,L|304:227,1,3.125
384,320,51201,2,0,L|384:323,1,3.125
432,208,51337,2,0,L|432:211,1,3.125
512,304,51473,2,0,L|512:307,1,3.125
256,192,51592,12,4,52683,0:0:0:0:
96,240,52956,5,0,0:0:0:0:
96,240,53024,1,0,0:0:0:0:
80,144,53228,1,0,0:0:0:0:
184,216,53365,5,0,0:0:0:0:
190,248,53433,1,0,0:0:0:0:
181,280,53501,1,0,0:0:0:0:
158,304,53569,1,0,0:0:0:0:
40,344,53706,1,0,0:0:0:0:
40,344,53774,1,0,0:0:0:0:
16,232,53910,6,0,P|16:208|32:176,1,50
88,104,54047,1,0,0:0:0:0:
0,40,54183,1,0,0:0:0:0:
192,88,54320,5,0,0:0:0:0:
280,144,54456,1,0,0:0:0:0:
304,166,54524,1,0,0:0:0:0:
336,175,54592,1,0,0:0:0:0:
368,169,54660,1,0,0:0:0:0:
472,136,54797,1,0,0:0:0:0:
472,136,54865,1,0,0:0:0:0:
416,240,55001,5,0,0:0:0:0:
422,207,55069,1,0,0:0:0:0:
413,175,55137,1,0,0:0:0:0:
390,151,55205,1,0,0:0:0:0:
280,112,55342,1,0,0:0:0:0:
280,112,55410,1,0,0:0:0:0:
328,216,55547,5,0,0:0:0:0:
321,248,55615,1,0,0:0:0:0:
330,280,55683,1,0,0:0:0:0:
353,304,55751,1,0,0:0:0:0:
472,344,55888,1,0,0:0:0:0:
472,344,55956,1,0,0:0:0:0:
496,232,56092,6,0,L|504:176,1,50
408,128,56229,1,0,0:0:0:0:
416,264,56365,1,0,0:0:0:0:
312,96,56502,5,0,0:0:0:0:
312,96,56570,1,0,0:0:0:0:
312,96,56638,1,0,0:0:0:0:
312,296,56774,1,0,0:0:0:0:
216,136,56910,1,0,0:0:0:0:
200,336,57047,6,0,P|168:344|136:344,1,50
32,296,57183,1,0,0:0:0:0:
240,248,57320,1,0,0:0:0:0:
32,296,57456,5,0,0:0:0:0:
39,263,57524,1,0,0:0:0:0:
46,231,57592,1,0,0:0:0:0:
54,198,57660,1,0,0:0:0:0:
80,72,57797,1,0,0:0:0:0:
80,72,57865,1,0,0:0:0:0:
144,248,58001,6,0,P|152:272|168:296,1,50
296,344,58138,1,0,0:0:0:0:
496,264,58274,1,0,0:0:0:0:
296,344,58410,1,0,0:0:0:0:
328,232,58547,1,0,0:0:0:0:
328,232,58615,1,0,0:0:0:0:
328,232,58683,2,0,L|320:176,1,50
384,56,58888,2,0,L|368:120,1,50
504,200,59092,5,0,0:0:0:0:
480,192,59160,1,0,0:0:0:0:
456,184,59229,1,0,0:0:0:0:
232,240,59365,1,0,0:0:0:0:
242,288,59433,1,0,0:0:0:0:
279,321,59501,1,0,0:0:0:0:
328,327,59569,1,0,0:0:0:0:
440,288,59706,5,0,0:0:0:0:
440,288,59774,1,0,0:0:0:0:
400,72,59910,1,0,0:0:0:0:
352,232,60047,1,0,0:0:0:0:
352,232,60115,1,0,0:0:0:0:
352,232,60183,1,0,0:0:0:0:
200,200,60320,5,0,0:0:0:0:
198,175,60388,1,0,0:0:0:0:
196,150,60456,1,0,0:0:0:0:
194,125,60524,1,0,0:0:0:0:
192,100,60592,1,0,0:0:0:0:
112,48,60660,1,0,0:0:0:0:
312,304,60865,5,0,0:0:0:0:
313,279,60933,1,0,0:0:0:0:
315,254,61001,1,0,0:0:0:0:
317,229,61069,1,0,0:0:0:0:
319,204,61137,1,0,0:0:0:0:
400,152,61205,1,0,0:0:0:0:
0,328,61410,6,0,L|32:328,1,25,4|0,0:0|0:0,0:0:0:0:
392,328,61683,1,0,0:0:0:0:
176,280,61888,1,0,0:0:0:0:
176,280,61956,1,0,0:0:0:0:
288,304,62092,1,0,0:0:0:0:
80,192,62229,2,0,L|96:296,1,100,0|0,0:0|2:0,2:0:0:0:
0,328,62501,6,0,L|32:328,1,25
392,328,62774,1,0,0:0:0:0:
176,280,62979,1,0,0:0:0:0:
176,280,63047,1,0,0:0:0:0:
288,304,63183,1,0,0:0:0:0:
80,192,63320,2,0,L|96:296,1,100,0|0,0:0|2:0,2:0:0:0:
56,328,63592,5,0,0:0:0:0:
144,328,63729,1,0,0:0:0:0:
232,328,63865,1,0,0:0:0:0:
272,192,64070,1,0,0:0:0:0:
272,192,64138,1,0,0:0:0:0:
360,192,64274,1,0,0:0:0:0:
448,192,64410,2,0,L|463:93,1,100,0|0,0:0|2:0,2:0:0:0:
56,192,64683,5,4,0:0:0:0:
144,192,64820,1,0,0:0:0:0:
232,192,64956,1,0,0:0:0:0:
272,56,65161,1,0,0:0:0:0:
272,56,65229,1,0,0:0:0:0:
360,56,65365,1,0,0:0:0:0:
448,56,65501,2,0,L|463:154,1,100,0|0,0:0|2:0,2:0:0:0:
488,328,65706,5,0,0:0:0:0:
488,328,65774,2,0,L|456:328,1,25,4|0,0:0|0:0,0:0:0:0:
256,328,66047,1,0,0:0:0:0:
216,248,66183,1,0,0:0:0:0:
216,248,66251,1,0,0:0:0:0:
216,248,66320,2,0,L|104:240,1,100
16,232,66592,1,0,0:0:0:0:
488,328,66797,5,0,0:0:0:0:
488,328,66865,2,0,L|456:328,1,25
256,328,67138,1,0,0:0:0:0:
216,248,67274,1,0,0:0:0:0:
216,248,67342,1,0,0:0:0:0:
216,248,67411,2,0,L|224:136,1,100
232,48,67683,1,0,0:0:0:0:
488,328,67888,5,0,0:0:0:0:
488,328,67956,1,0,0:0:0:0:
400,328,68093,1,0,0:0:0:0:
312,328,68229,1,0,0:0:0:0:
224,328,68365,1,0,0:0:0:0:
224,328,68433,1,0,0:0:0:0:
224,328,68501,1,0,0:0:0:0:
136,328,68638,1,0,0:0:0:0:
48,328,68774,1,0,0:0:0:0:
488,328,68979,5,0,0:0:0:0:
488,328,69047,1,4,0:0:0:0:
400,328,69184,1,0,0:0:0:0:
312,328,69320,1,0,0:0:0:0:
224,328,69456,1,0,0:0:0:0:
224,328,69524,1,0,0:0:0:0:
224,328,69592,1,0,0:0:0:0:
136,328,69729,1,0,0:0:0:0:
48,328,69865,1,0,0:0:0:0:
488,192,70070,5,0,0:0:0:0:
488,192,70138,2,0,B|432:200|388:192|388:192|432:200|488:192,1,200,4|0,0:0|0:0,0:0:0:0:
240,152,70410,2,0,B|296:160|340:152|340:152|296:160|240:152,1,200
488,104,70683,2,0,B|432:112|388:104|388:104|432:112|488:104,1,200
184,48,70956,2,0,L|176:104,1,50,0|0,0:0|2:0,0:0:0:0:
272,32,71092,2,0,L|280:88,1,50,0|0,0:0|2:0,0:0:0:0:
336,176,71229,6,0,L|512:168,1,166.666666666667,4|0,0:0|2:0,0:0:0:0:
488,352,71365,2,0,L|321:344,1,166.666666666667,0|0,0:0|2:0,0:0:0:0:
256,256,71501,5,0,0:0:0:0:
288,96,71638,1,0,0:0:0:0:
328,208,71774,2,0,P|376:216|432:216,1,100
480,96,72047,2,0,L|472:40,2,50
400,296,72320,6,0,L|408:160,1,125,4|0,0:0|2:0,0:0:0:0:
304,256,72456,2,0,P|296:312|320:368,1,100
504,208,72865,6,0,L|448:200,1,50,0|0,0:0|2:0,0:0:0:0:
344,208,73001,2,0,B|294:201|294:201|344:208,1,100,0|0,0:0|2:0,0:0:0:0:
400,272,73274,5,0,0:0:0:0:
408,192,73342,1,0,0:0:0:0:
416,112,73410,1,4,0:0:0:0:
288,128,73547,2,0,P|336:160|392:152,1,100,0|0,0:0|2:0,0:0:0:0:
472,112,73683,2,0,P|505:65|499:8,1,100,0|0,0:0|2:0,0:0:0:0:
488,240,73820,5,0,0:0:0:0:
488,240,73888,1,0,0:0:0:0:
488,240,73956,2,0,L|376:256,1,100,0|0,0:0|2:0,0:0:0:0:
256,328,74092,1,0,0:0:0:0:
512,344,74229,2,0,L|400:336,1,100,0|0,0:0|2:0,0:0:0:0:
288,224,74501,6,0,L|296:176,11,33.3333333333333,4|0|0|0|0|0|0|0|0|0|0|0,0:0|2:0|2:0|2:0|2:0|2:0|2:0|2:0|2:0|2:0|2:0|2:0,2:0:0:0:
360,280,74774,2,0,L|368:328,5,33.3333333333333,2|0|0|0|0|0,2:0|2:0|2:0|2:0|2:0|2:0,2:0:0:0:
432,208,74910,6,0,L|480:200,11,33.3333333333333,0|0|0|0|0|0|0|0|0|0|0|0,0:0|2:0|2:0|2:0|2:0|2:0|2:0|2:0|2:0|2:0|2:0|2:0,2:0:0:0:
388,120,75183,5,2,2:0:0:0:
388,120,75229,1,2,2:0:0:0:
388,120,75274,1,2,2:0:0:0:
388,120,75320,2,0,L|392:148,11,16.6666666666667,0|0|0|0|0|0|0|0|0|0|0|0,1:0|2:0|2:0|2:0|2:0|2:0|2:0|2:0|2:0|2:0|2:0|2:0,2:0:0:0:
304,96,75592,6,0,L|312:48,5,33.3333333333333,2|0|0|0|0|0,2:0|2:0|2:0|2:0|2:0|2:0,2:0:0:0:
320,176,75728,2,0,L|312:224,11,33.3333333333333,0|0|0|0|0|0|0|0|0|0|0|0,0:0|2:0|2:0|2:0|2:0|2:0|2:0|2:0|2:0|2:0|2:0|2:0,2:0:0:0:
400,152,76001,5,2,2:0:0:0:
400,152,76047,1,2,2:0:0:0:
400,152,76092,1,2,2:0:0:0:
400,152,76138,2,0,L|432:144,5,33.3333333333333,0|0|0|0|0|0,1:0|2:0|2:0|2:0|2:0|2:0,2:0:0:0:
504,192,76274,5,0,2:0:0:0:
496,272,76410,1,0,0:0:0:0:
488,352,76547,1,2,2:0:0:0:
408,384,76683,6,0,P|360:384|312:336,1,100,0|0,0:0|2:0,0:0:0:0:
272,272,76956,2,0,P|272:224|320:176,1,100,0|0,0:0|2:0,0:0:0:0:
288,56,77229,2,0,P|288:88|264:112,1,50,0|0,0:0|2:0,0:0:0:0:
200,136,77365,1,2,2:0:0:0:
384,208,77501,2,0,L|496:200,1,100,0|0,0:0|2:0,0:0:0:0:
400,224,77638,2,0,L|512:216,1,100,0|0,0:0|2:0,0:0:0:0:
304,160,77774,6,0,B|272:328|272:328|416:304,1,300.000011444092,4|0,0:0|0:0,0:0:0:0:
384,56,78047,6,0,L|392:232,1,166.666666666667,4|0,0:0|2:0,0:0:0:0:
208,208,78183,2,0,L|215:41,1,166.666666666667,0|0,0:0|2:0,0:0:0:0:
308,120,78320,5,0,0:0:0:0:
304,152,78410,1,0,0:0:0:0:
292,184,78501,1,0,0:0:0:0:
248,256,78592,5,0,0:0:0:0:
176,304,78683,1,0,0:0:0:0:
92,320,78774,1,0,0:0:0:0:
8,304,78865,2,2,B|4:284|4:284|8:304,1,41.6666666666667,2|0,2:0|2:0,2:0:0:0:
48,112,81047,6,0,L|208:112,1,150.000005722046
320,112,81456,2,0,L|480:112,1,150.000005722046
470,112,81865,1,0,0:0:0:0:
464,272,82138,6,0,L|304:272,1,150.000005722046
192,272,82547,2,0,L|32:272,1,150.000005722046
42,272,82956,1,4,0:0:0:0:
72,112,83229,5,0,0:0:0:0:
160,112,83365,1,0,0:0:0:0:
248,112,83501,1,0,0:0:0:0:
336,112,83638,1,0,0:0:0:0:
336,112,83706,2,0,L|456:112,1,112.500004291535
488,272,84183,5,0,0:0:0:0:
400,272,84320,1,0,0:0:0:0:
312,272,84456,1,0,0:0:0:0:
224,272,84592,1,0,0:0:0:0:
136,272,84729,1,0,0:0:0:0:
136,272,84797,2,0,L|16:272,1,112.500004291535
23,272,85138,1,4,0:0:0:0:
72,112,85410,5,0,0:0:0:0:
160,112,85546,1,0,0:0:0:0:
248,112,85682,1,0,0:0:0:0:
336,112,85819,1,0,0:0:0:0:
336,112,85887,2,0,L|456:112,1,112.500004291535
488,272,86365,5,0,0:0:0:0:
400,320,86501,2,0,L|408:240,1,75.0000028610231
112,320,86774,2,0,L|104:240,1,75.0000028610231
400,320,87047,2,0,L|408:240,1,75.0000028610231
112,320,87320,2,0,L|104:240,1,75.0000028610231
400,320,87592,2,0,L|408:240,1,75.0000028610231
112,320,87865,2,0,L|104:240,1,75.0000028610231
400,320,88138,1,0,0:0:0:0:
416,160,88274,1,0,0:0:0:0:
112,320,88410,1,0,0:0:0:0:
96,160,88547,1,0,0:0:0:0:
16,248,88683,5,0,0:0:0:0:
136,248,88820,1,0,0:0:0:0:
256,248,88956,1,0,0:0:0:0:
504,248,89160,1,0,0:0:0:0:
360,328,89365,5,0,0:0:0:0:
376,64,89501,1,4,0:0:0:0:
32,312,89774,5,4,0:0:0:0:
24,328,89842,1,0,0:0:0:0:
184,312,89910,1,0,0:0:0:0:
248,240,90047,5,0,0:0:0:0:
256,256,90115,1,0,0:0:0:0:
96,240,90183,1,0,0:0:0:0:
32,160,90320,5,0,0:0:0:0:
24,176,90388,1,0,0:0:0:0:
184,160,90456,1,0,0:0:0:0:
248,88,90593,5,0,0:0:0:0:
256,104,90661,1,0,0:0:0:0:
96,88,90729,1,0,0:0:0:0:
8,256,90865,6,0,P|32:296|96:328,1,100,4|0,0:0|2:0,0:0:0:0:
232,296,91070,1,0,1:0:0:0:
224,272,91138,1,0,0:0:0:0:
512,168,91274,6,0,P|488:208|424:240,1,100,4|0,0:0|2:0,0:0:0:0:
288,208,91479,1,0,0:0:0:0:
296,184,91547,1,0,0:0:0:0:
8,80,91683,6,0,L|320:72,1,300.000011444092,4|0,0:0|2:0,0:0:0:0:
488,328,91956,6,0,L|408:320,1,75.0000028610231
328,280,92365,1,0,0:0:0:0:
320,200,92433,1,0,0:0:0:0:
312,120,92501,1,0,0:0:0:0:
304,360,92638,1,0,0:0:0:0:
216,96,92774,1,0,0:0:0:0:
208,336,92910,1,0,0:0:0:0:
96,144,93047,6,0,L|152:136,1,37.5000014305115,0|0,0:0|2:0,0:0:0:0:
384,104,93183,1,0,0:0:0:0:
184,48,93320,1,0,0:0:0:0:
240,240,93456,5,0,0:0:0:0:
136,232,93524,1,0,0:0:0:0:
32,224,93592,1,0,0:0:0:0:
264,152,93729,1,0,0:0:0:0:
32,224,93865,1,0,0:0:0:0:
280,64,94001,1,0,0:0:0:0:
132,140,94138,6,0,L|136:115,1,25,0|0,0:0|2:0,0:0:0:0:
28,128,94274,2,0,P|100:240|212:208,1,250,4|0,0:0|2:0,0:0:0:0:
284,184,94410,6,0,L|288:159,1,25,0|0,0:0|2:0,0:0:0:0:
180,172,94547,2,0,P|252:284|364:252,1,250,4|0,0:0|2:0,0:0:0:0:
432,224,94683,5,0,0:0:0:0:
440,136,94751,1,0,0:0:0:0:
448,48,94820,1,0,0:0:0:0:
488,288,94956,2,0,B|480:200|368:200|352:248|344:288|344:288|344:328|368:368|440:376|464:320|464:288|464:288|464:256|424:192|320:208|280:288,1,625,0|0,0:0|2:0,0:0:0:0:
236,200,95229,6,0,B|20:192|20:192|68:168,1,250,0|0,0:0|2:0,0:0:0:0:
156,116,95365,6,0,L|291:122,1,125,0|0,0:0|2:0,0:0:0:0:
188,280,95501,2,0,L|53:274,1,125,0|0,0:0|2:0,0:0:0:0:
356,200,95638,6,0,P|386:146|389:84,1,125,0|0,0:0|2:0,0:0:0:0:
463,41,95774,2,0,P|467:159|386:288,1,250,0|0,0:0|2:0,0:0:0:0:
480,320,95910,6,0,L|320:312,1,150.000005722046,0|0,0:0|2:0,0:0:0:0:
208,264,96047,1,0,0:0:0:0:
120,280,96115,1,0,0:0:0:0:
32,296,96183,1,0,0:0:0:0:
96,80,96320,6,0,P|128:104|168:112,1,75.0000028610231,4|0,0:0|2:0,0:0:0:0:
240,96,96388,2,0,L|328:88,1,75.0000028610231,0|0,0:0|2:0,0:0:0:0:
336,96,96456,2,0,L|248:104,1,75.0000028610231,0|0,0:0|2:0,0:0:0:0:
112,128,96592,6,0,L|368:104,1,250,0|0,0:0|2:0,0:0:0:0:
336,232,96729,6,0,P|338:214|344:192,1,37.5000014305115,0|0,0:0|2:0,0:0:0:0:
424,232,96797,2,0,P|421:249|416:272,1,37.5000014305115,0|0,0:0|2:0,0:0:0:0:
512,216,96865,2,0,L|240:208,1,250,0|0,0:0|2:0,0:0:0:0:
56,312,97001,1,0,0:0:0:0:
32,328,97138,6,0,L|304:320,1,250,4|0,0:0|2:0,0:0:0:0:
464,136,97410,6,0,L|336:144,1,125
464,136,97547,2,0,B|384:104|384:104|320:200|320:200|264:192|264:192|232:120|232:120|176:120,1,375,4|0,0:0|2:0,0:0:0:0:
32,216,97683,6,0,L|160:200,1,125,0|0,0:0|2:0,0:0:0:0:
32,216,97820,2,0,B|88:256|88:256|128:192|128:192|136:152|136:152|176:176|176:176|296:200|296:200|280:240|280:240,1,375,4|0,0:0|2:0,0:0:0:0:
240,320,97956,5,0,0:0:0:0:
321,335,98024,1,0,0:0:0:0:
404,331,98092,1,0,0:0:0:0:
484,308,98160,1,0,0:0:0:0:
296,304,98229,5,4,0:0:0:0:
339,312,98297,1,0,0:0:0:0:
383,310,98365,1,0,0:0:0:0:
426,298,98433,1,0,0:0:0:0:
464,208,98501,6,0,L|460:192,1,12.5,4|0,0:0|2:0,0:0:0:0:
352,208,98638,2,0,L|348:192,1,12.5,0|0,0:0|2:0,0:0:0:0:
240,208,98774,2,0,L|236:192,1,12.5,0|0,0:0|2:0,0:0:0:0:
128,208,98910,2,0,L|124:192,1,12.5,0|0,0:0|2:0,0:0:0:0:
352,80,99047,6,0,L|348:64,1,12.5,0|0,0:0|2:0,0:0:0:0:
240,80,99184,2,0,L|236:64,1,12.5,0|0,0:0|2:0,0:0:0:0:
128,80,99320,2,0,L|124:64,1,12.5,0|0,0:0|2:0,0:0:0:0:
16,80,99456,2,0,L|12:64,1,12.5,0|0,0:0|2:0,0:0:0:0:
48,176,99592,6,0,L|64:288,1,100,4|0,0:0|2:0,0:0:0:0:
176,176,99729,2,0,L|192:288,1,100,0|0,0:0|2:0,0:0:0:0:
304,176,99865,2,0,L|320:288,1,100,0|0,0:0|2:0,0:0:0:0:
432,176,100001,2,0,L|448:288,1,100,0|0,0:0|2:0,0:0:0:0:
400,32,100138,6,0,L|384:144,1,100,4|0,0:0|2:0,0:0:0:0:
272,32,100275,2,0,L|256:144,1,100,0|0,0:0|2:0,0:0:0:0:
144,32,100411,2,0,L|128:144,1,100,0|0,0:0|2:0,0:0:0:0:
16,32,100547,2,0,L|0:144,1,100,0|0,0:0|2:0,0:0:0:0:
48,240,100683,6,0,P|88:224|128:224,1,75.0000028610231,0|0,0:0|2:0,0:0:0:0:
144,304,100820,2,0,P|104:320|64:320,1,75.0000028610231,0|0,0:0|2:0,0:0:0:0:
224,256,100956,1,2,0:0:0:0:
224,256,101092,1,0,0:0:0:0:
56,232,101229,6,0,P|98:223|137:230,1,75.0000028610231,0|0,0:0|2:0,0:0:0:0:
139,311,101366,2,0,P|96:319|57:312,1,75.0000028610231,0|0,0:0|2:0,0:0:0:0:
304,224,101501,1,2,0:0:0:0:
296,304,101638,1,0,0:0:0:0:
16,288,101774,6,0,L|96:280,1,75.0000028610231,0|0,0:0|2:0,0:0:0:0:
176,312,101910,2,0,L|256:304,1,75.0000028610231,0|0,0:0|2:0,0:0:0:0:
384,264,102047,1,2,0:0:0:0:
384,264,102183,1,0,0:0:0:0:
24,224,102320,6,0,P|32:264|72:288,1,75.0000028610231,0|0,0:0|2:0,0:0:0:0:
144,336,102456,2,0,P|176:344|224:328,1,75.0000028610231,0|0,0:0|2:0,0:0:0:0:
456,208,102592,1,2,0:0:0:0:
440,336,102729,1,0,0:0:0:0:
120,216,102865,6,0,L|128:176,1,25,4|0,0:0|2:0,0:0:0:0:
200,224,103001,2,0,L|192:256,1,25,0|0,0:0|2:0,0:0:0:0:
32,248,103138,6,0,L|80:0,1,250,0|0,0:0|2:0,0:0:0:0:
296,136,103274,2,0,L|248:384,1,250,0|0,0:0|2:0,0:0:0:0:
80,328,103410,6,0,P|152:360|224:360,1,150.000005722046,0|0,0:0|2:0,0:0:0:0:
240,344,103547,2,0,P|264:288|352:256,1,150.000005722046,0|0,0:0|2:0,0:0:0:0:
360,264,103683,2,0,L|521:288,1,150.000005722046,0|0,0:0|2:0,0:0:0:0:
392,72,103956,6,0,P|416:160|344:104,1,208.333333333333,0|0,0:0|2:0,0:0:0:0:
264,104,104092,2,0,L|208:104,1,50,0|0,0:0|2:0,0:0:0:0:
88,160,104229,6,0,L|160:160,1,50,0|0,0:0|2:0,0:0:0:0:
208,224,104365,2,0,B|304:224|344:248|376:272|464:272,1,250,4|0,0:0|2:0,0:0:0:0:
504,344,104501,6,0,L|488:192,1,150.000005722046,0|0,0:0|2:0,0:0:0:0:
464,160,104638,2,0,L|480:312,1,150.000005722046,0|0,0:0|2:0,0:0:0:0:
464,328,104774,2,0,B|416:272|336:296|360:456|272:408|184:360,1,300.000011444092
64,272,105047,6,0,B|120:240|120:240|136:176,1,125,4|0,0:0|2:0,0:0:0:0:
64,272,105115,2,0,B|128:256|128:256|200:264,1,125,0|0,0:0|2:0,0:0:0:0:
64,272,105183,2,0,L|56:136,1,125,0|0,0:0|2:0,0:0:0:0:
208,56,105320,2,0,L|216:200,1,125,0|0,0:0|2:0,0:0:0:0:
368,264,105456,6,0,P|376:288|392:304,1,37.5000014305115,0|0,0:0|2:0,0:0:0:0:
456,256,105524,2,0,P|448:232|432:216,1,37.5000014305115,0|0,0:0|2:0,0:0:0:0:
328,232,105592,2,0,P|424:280|440:168,1,250,0|0,0:0|2:0,0:0:0:0:
360,144,105729,1,0,0:0:0:0:
248,304,105865,2,0,P|152:256|136:368,1,250,0|0,0:0|2:0,0:0:0:0:
0,216,106001,2,0,P|101:182|33:91,1,250,0|0,0:0|2:0,0:0:0:0:
48,0,106138,6,0,P|168:40|296:40,1,250,0|0,0:0|2:0,0:0:0:0:
504,104,106274,6,0,P|408:128|280:128,1,225.000008583069,0|0,0:0|2:0,0:0:0:0:
72,184,106410,6,0,P|160:208|272:216,1,200,0|0,0:0|2:0,0:0:0:0:
432,280,106547,6,0,P|368:296|256:304,1,175.00000166893,0|0,0:0|2:0,0:0:0:0:
252,384,106683,5,0,0:0:0:0:
252,384,106751,1,0,0:0:0:0:
252,384,106820,1,0,0:0:0:0:
176,360,106956,6,0,P|204:4|320:344,1,1000,4|0,0:0|0:0,0:0:0:0:
256,192,107297,12,0,108320,2:0:0:0:
