osu file format v14

[General]
AudioFilename: audio.mp3
AudioLeadIn: 0
PreviewTime: 63499
Countdown: 1
SampleSet: Soft
StackLeniency: 0.7
Mode: 2
LetterboxInBreaks: 0
WidescreenStoryboard: 0

[Editor]
Bookmarks: 6226,25317,33499,47476,56169,63499,88044,101680,139351,164408,204635,215714,229862,232589,242135
DistanceSpacing: 1
BeatDivisor: 4
GridSize: 8
TimelineZoom: 1

[Metadata]
Title:Saite Jewel
TitleUnicode:Saite Jewel
Artist:CAERULA
ArtistUnicode:CAERULA
Creator:brenkip
Version:Jewel of Love
Source:IDOLM@STER
Tags:idols idolm@ster caerula jewel anime japanese
BeatmapID:1508879
BeatmapSetID:713949

[Difficulty]
HPDrainRate:7
CircleSize:4.4
OverallDifficulty:9.4
ApproachRate:9.4
SliderMultiplier:1.6
SliderTickRate:1

[Events]
//Background and Video events
0,0,"saite.jpg",0,0
//Break Periods
//Storyboard Layer 0 (Background)
//Storyboard Layer 1 (Fail)
//Storyboard Layer 2 (Pass)
//Storyboard Layer 3 (Foreground)
//Storyboard Sound Samples

[TimingPoints]
771.996801944939,340.908696468179,4,2,0,30,1,0
30090,-142.857142857143,4,2,0,30,0,0
30771,-83.3333333333333,4,2,0,30,0,0
35203,-125,4,2,0,30,0,0
41681,-90.9090909090909,4,2,0,30,0,0
47476,-76.9230769230769,4,2,0,30,0,0
47476,-90.9090909090909,4,2,0,30,0,0
47817,-100,4,2,0,30,0,0
54465,-90.9090909090909,4,2,0,30,0,0
57192,-111.111111111111,4,2,0,30,0,0
63499,-90.9090909090908,4,2,0,30,0,1
88044,-90.9090909090908,4,2,0,30,0,0
101680,-125,4,2,0,30,0,0

[Colours]
Combo1 : 119,117,138
Combo2 : 18,81,184
Combo3 : 24,248,220
Combo4 : 94,172,151

[HitObjects]
424,304,6226,6,0,P|489:286|438:255,1,160
96,312,6908,2,0,P|34:300|85:260,1,160
416,208,7590,2,0,P|469:188|404:180,1,160
96,152,8271,5,0,0:0:0:0:
272,112,8527,1,0,0:0:0:0:
480,64,8783,1,0,0:0:0:0:
256,192,8953,12,0,10317,0:0:0:0:
256,192,11681,12,0,14067,0:0:0:0:
392,160,14408,6,0,L|416:96,1,40
472,192,14578,2,0,L|432:256,1,40
248,208,14749,2,0,L|200:184,1,40
144,224,14919,2,0,L|176:272,1,40
248,280,15090,2,0,L|248:240,1,40
56,256,15260,5,0,0:0:0:0:
16,224,15345,1,0,0:0:0:0:
8,176,15431,1,0,0:0:0:0:
40,136,15516,1,0,0:0:0:0:
352,232,15601,2,0,L|384:192,1,40
432,184,15771,2,0,P|400:160|344:168,1,80
224,160,16112,1,0,0:0:0:0:
384,192,16283,1,0,0:0:0:0:
136,208,16453,2,0,P|64:184|120:120,1,160
344,104,17135,5,0,0:0:0:0:
384,128,17220,1,0,0:0:0:0:
400,176,17306,1,0,0:0:0:0:
376,216,17391,1,0,0:0:0:0:
112,288,17476,1,0,0:0:0:0:
72,272,17561,1,0,0:0:0:0:
48,232,17646,1,0,0:0:0:0:
64,192,17732,1,0,0:0:0:0:
96,184,17817,6,0,L|144:160,1,40
384,128,17987,2,0,L|424:104,1,40
136,120,18158,2,0,L|88:144,1,40
384,168,18328,2,0,L|456:200,1,40
208,224,18499,2,0,P|160:216|112:168,1,80
288,168,18840,2,0,P|336:176|384:208,1,80
112,216,19181,2,0,P|48:192|112:184,1,160
408,160,19862,6,0,L|408:112,1,40
96,192,20374,2,0,L|96:248,1,40
456,184,20885,2,0,L|456:240,1,40
80,152,21396,2,0,L|80:80,1,40
424,192,21908,5,0,0:0:0:0:
264,144,22249,1,0,0:0:0:0:
408,112,22419,1,0,0:0:0:0:
256,192,22590,12,0,25146,0:0:0:0:
184,104,25317,6,0,P|152:136|160:192,1,80
288,240,25658,2,0,P|328:208|336:160,1,80
144,256,25999,2,0,P|176:320|272:304,1,160
496,288,26681,2,0,P|504:230|416:192,1,160
320,192,27192,5,0,0:0:0:0:
488,160,27362,1,0,0:0:0:0:
320,136,27533,1,0,0:0:0:0:
488,128,27703,1,0,0:0:0:0:
432,120,27874,1,0,0:0:0:0:
176,112,28044,6,0,P|216:128|240:176,1,80
80,192,28385,2,0,P|40:224|40:272,1,80
240,224,28726,2,0,P|240:288|136:312,1,160
32,208,29408,2,0,P|48:128|136:152,1,160
352,288,30090,2,0,P|392:248|320:128,1,195.999994018555
128,136,30771,6,0,P|96:184|128:224,1,95.9999970703126
440,280,31112,2,0,P|464:232|440:192,1,95.9999970703126
152,232,31453,2,0,P|160:176|240:128,1,143.999995605469
280,136,31794,2,0,P|232:96|160:96,1,95.9999970703126
504,192,32306,1,0,0:0:0:0:
264,192,32646,1,0,0:0:0:0:
384,288,32987,6,0,P|480:232|408:144,1,239.999992675781
56,208,33499,2,0,P|40:272|80:328,1,95.9999970703126
352,296,33840,2,0,P|392:271|403:226,1,95.9999970703126
104,216,34181,2,0,B|112:152|112:152|224:144,1,143.999995605469
232,136,34521,2,0,P|191:111|145:119,1,95.9999970703126
472,192,35033,1,0,0:0:0:0:
248,192,35374,2,0,B|176:152|176:152|288:104,1,192
424,128,36226,6,0,B|504:168|504:168|448:272,2,192
192,288,37590,2,0,B|152:224|152:224|176:152,1,128
256,144,38101,1,0,0:0:0:0:
96,104,38271,1,0,0:0:0:0:
216,80,38442,1,0,0:0:0:0:
88,72,38612,1,0,0:0:0:0:
352,80,38783,1,0,0:0:0:0:
120,80,38953,6,0,P|72:112|160:192,1,192
288,208,39635,2,0,P|352:248|296:336,1,192
184,352,40317,2,0,P|272:384|288:280,1,224
136,320,40999,5,0,0:0:0:0:
88,312,41084,1,0,0:0:0:0:
48,280,41169,1,0,0:0:0:0:
32,240,41254,1,0,0:0:0:0:
40,200,41340,1,0,0:0:0:0:
64,168,41425,1,0,0:0:0:0:
104,144,41510,1,0,0:0:0:0:
152,136,41595,1,0,0:0:0:0:
416,128,41681,6,0,P|472:192|384:208,1,176.000005371094
136,224,42362,2,0,P|80:240|152:288,1,176.000005371094
424,296,43044,2,0,P|480:224|296:160,1,352.000010742188
224,184,43896,2,0,P|272:208|336:208,1,88.000002685547
392,224,44237,1,0,0:0:0:0:
112,288,44408,6,0,P|72:272|64:208,1,88.000002685547
200,200,44749,1,0,0:0:0:0:
128,176,44919,2,0,L|240:184,1,88.000002685547
352,192,45260,2,0,L|256:184,1,88.000002685547
136,184,45601,2,0,P|112:240|152:264,1,88.000002685547
304,104,45942,5,0,0:0:0:0:
456,160,46112,1,0,0:0:0:0:
296,192,46283,1,0,0:0:0:0:
440,224,46453,1,0,0:0:0:0:
280,272,46624,1,0,0:0:0:0:
80,264,46794,1,0,0:0:0:0:
400,264,46965,2,0,P|472:184|416:176,1,220.000006713867
104,120,47476,6,0,P|64:152|56:208,1,88.000002685547,4|0,0:0|0:0,0:0:0:0:
240,144,47817,2,0,P|248:96|216:48,1,80
48,176,48158,2,0,P|32:232|48:272,1,80
176,288,48499,1,0,0:0:0:0:
48,328,48669,1,0,0:0:0:0:
344,320,48840,2,0,P|376:272|376:232,1,80
208,224,49181,2,0,P|240:168|280:160,1,80
424,176,49521,2,0,P|440:144|424:96,1,80
264,160,49862,2,0,P|216:192|264:208,1,120
456,296,50203,6,0,P|488:280|464:192,1,120
376,192,50544,2,0,P|344:160|376:152,1,80
496,136,50885,1,0,0:0:0:0:
248,192,51056,2,0,L|152:200,2,80
400,184,51567,2,0,L|288:192,1,80
472,184,51908,2,0,P|498:154|464:128,1,80
112,184,52249,2,0,P|96:152|128:104,1,80
432,176,52590,6,0,P|480:192|432:216,1,120
320,208,52931,2,0,P|256:232|272:304,1,120
416,320,53271,2,0,L|504:336,2,80
176,208,53783,2,0,L|72:216,1,80
408,192,54124,2,0,L|512:184,1,80
160,104,54465,2,0,P|88:160|176:232,1,220.000006713867
224,232,54976,1,0,0:0:0:0:
280,240,55061,1,0,0:0:0:0:
328,272,55146,1,0,0:0:0:0:
280,296,55232,1,0,0:0:0:0:
56,240,55317,6,0,B|32:192|32:192|184:136,1,176.000005371094
312,112,55828,1,0,0:0:0:0:
160,112,55999,2,0,P|112:112|88:168,2,88.000002685547
480,192,56510,2,0,P|448:240|400:240,1,88.000002685547
56,248,56851,2,0,P|88:208|136:208,1,88.000002685547
384,208,57192,2,0,P|464:184|392:120,1,215.999993408203
152,128,58044,5,0,0:0:0:0:
112,96,58129,1,0,0:0:0:0:
392,192,58556,5,0,0:0:0:0:
432,232,58641,1,0,0:0:0:0:
184,192,59067,5,0,0:0:0:0:
160,240,59152,1,0,0:0:0:0:
336,200,59578,6,0,L|344:128,1,71.9999978027344
184,192,59919,2,0,L|176:248,2,35.9999989013672
336,184,60260,2,0,L|344:136,2,35.9999989013672
136,176,60771,5,0,0:0:0:0:
80,176,60857,1,0,0:0:0:0:
392,192,61283,5,0,0:0:0:0:
440,192,61368,1,0,0:0:0:0:
128,104,61794,5,0,0:0:0:0:
80,104,61879,1,0,0:0:0:0:
280,88,62306,5,0,0:0:0:0:
328,128,62391,1,0,0:0:0:0:
304,184,62476,1,0,0:0:0:0:
248,200,62561,1,0,0:0:0:0:
56,200,62646,2,0,P|40:230|80:280,1,71.9999978027344
176,312,62987,2,0,L|256:312,2,71.9999978027344
480,192,63499,5,0,0:0:0:0:
336,192,63669,1,0,0:0:0:0:
176,192,63840,1,0,0:0:0:0:
480,192,64010,1,0,0:0:0:0:
328,192,64181,1,0,0:0:0:0:
200,192,64351,1,0,0:0:0:0:
472,192,64521,5,0,0:0:0:0:
304,232,64692,1,0,0:0:0:0:
448,256,64862,2,0,P|472:232|456:176,1,88.000002685547
288,160,65203,2,0,P|248:192|240:232,1,88.000002685547
424,184,65544,2,0,P|408:128|352:120,1,88.000002685547
224,112,65885,1,0,0:0:0:0:
376,88,66056,1,0,0:0:0:0:
112,96,66226,6,0,P|88:136|104:184,1,88.000002685547
232,208,66567,1,0,0:0:0:0:
88,208,66737,1,0,0:0:0:0:
