osu file format v14

[General]
AudioFilename: audio.mp3
AudioLeadIn: 0
PreviewTime: 1194
Countdown: 0
SampleSet: Normal
StackLeniency: 0.7
Mode: 1
LetterboxInBreaks: 0
WidescreenStoryboard: 1

[Editor]
DistanceSpacing: 0.1
BeatDivisor: 8
GridSize: 16
TimelineZoom: 0.4

[Metadata]
Title:Wet Hands
TitleUnicode:Wet Hands
Artist:C418
ArtistUnicode:C418
Creator:Horiiizon
Version:Kantan
Source:Minecraft
Tags:volume alpha soundtrack ost original vgm video game music daniel rosenfeld ambient classical instrumental electronic
BeatmapID:2824371
BeatmapSetID:1365389

[Difficulty]
HPDrainRate:10
CircleSize:5
OverallDifficulty:2
ApproachRate:5
SliderMultiplier:1.4
SliderTickRate:1

[Events]
//Background and Video events
0,0,"0.jpg",0,-20
//Break Periods
//Storyboard Layer 0 (Background)
//Storyboard Layer 1 (Fail)
//Storyboard Layer 2 (Pass)
//Storyboard Layer 3 (Foreground)
//Storyboard Layer 4 (Overlay)
//Storyboard Sound Samples

[TimingPoints]
1296,811.90798376184,4,1,0,10,1,0
7689,-100,4,1,0,20,0,0
10531,-100,4,1,0,30,0,0
79543,-100,4,1,0,20,0,0
80051,-100,4,1,0,19,0,0
80457,-100,4,1,0,18,0,0
80862,-100,4,1,0,17,0,0
81268,-100,4,1,0,16,0,0
81674,-100,4,1,0,15,0,0
82080,-100,4,1,0,14,0,0
82486,-100,4,1,0,13,0,0
82892,-100,4,1,0,12,0,0
83298,-100,4,1,0,11,0,0
83704,-100,4,1,0,10,0,0
84110,-100,4,1,0,9,0,0
84516,-100,4,1,0,8,0,0
84922,-100,4,1,0,7,0,0
85328,-100,4,1,0,6,0,0
85734,-100,4,1,0,5,0,0

[HitObjects]
228,192,1296,5,0,0:0:0:0:
242,210,2919,1,8,0:0:0:0:
183,139,4543,1,8,0:0:0:0:
206,153,5355,1,8,0:0:0:0:
255,207,6167,1,0,0:0:0:0:
255,207,6573,1,0,0:0:0:0:
228,192,7791,5,0,0:0:0:0:
242,210,9414,1,8,0:0:0:0:
183,139,11038,5,8,0:0:0:0:
206,153,11850,1,8,0:0:0:0:
255,207,12662,1,0,0:0:0:0:
255,207,13068,1,0,0:0:0:0:
216,187,14286,5,8,0:0:0:0:
242,210,15909,1,8,0:0:0:0:
196,134,16722,1,8,0:0:0:0:
204,127,17534,1,0,0:0:0:0:
208,176,19969,1,8,0:0:0:0:
202,142,20781,1,8,0:0:0:0:
186,114,21593,1,0,0:0:0:0:
242,210,22405,1,8,0:0:0:0:
194,144,23217,1,8,0:0:0:0:
200,159,23623,1,8,0:0:0:0:
255,207,24435,1,0,0:0:0:0:
191,120,26465,1,8,0:0:0:0:
191,120,27277,1,8,0:0:0:0:
179,105,28494,1,8,0:0:0:0:
173,74,28900,1,8,0:0:0:0:
182,119,29712,1,0,0:0:0:0:
191,91,30118,1,0,0:0:0:0:
191,120,33772,1,8,0:0:0:0:
126,103,34584,1,8,0:0:0:0:
189,141,35396,1,0,0:0:0:0:
187,116,36208,1,8,0:0:0:0:
182,119,36613,1,8,0:0:0:0:
198,98,39455,1,8,0:0:0:0:
228,192,40267,5,0,0:0:0:0:
242,210,41890,1,8,0:0:0:0:
167,129,43515,1,0,0:0:0:0:
202,164,44327,1,0,0:0:0:0:
176,103,45139,1,8,0:0:0:0:
208,138,45950,1,8,0:0:0:0:
208,138,46356,1,8,0:0:0:0:
222,166,48386,5,8,0:0:0:0:
136,105,49604,1,0,0:0:0:0:
193,133,50010,1,0,0:0:0:0:
192,127,50822,1,8,0:0:0:0:
204,143,51228,1,8,0:0:0:0:
216,116,52040,1,8,0:0:0:0:
238,159,54070,1,0,0:0:0:0:
223,164,54881,1,8,0:0:0:0:
171,111,55693,1,8,0:0:0:0:
221,138,56099,1,8,0:0:0:0:
228,137,56911,1,8,0:0:0:0:
221,124,58129,1,0,0:0:0:0:
177,137,60565,1,8,0:0:0:0:
191,142,61377,1,0,0:0:0:0:
242,210,63000,5,8,0:0:0:0:
155,139,64624,1,0,0:0:0:0:
153,158,65436,1,0,0:0:0:0:
153,158,66248,1,8,0:0:0:0:
169,130,67872,1,0,0:0:0:0:
196,138,68684,1,0,0:0:0:0:
196,138,69496,1,8,0:0:0:0:
204,133,70308,1,8,0:0:0:0:
202,134,70714,1,8,0:0:0:0:
106,144,71526,1,0,0:0:0:0:
185,117,72743,1,8,0:0:0:0:
191,127,74367,1,8,0:0:0:0:
142,126,75179,1,0,0:0:0:0:
189,105,75991,1,8,0:0:0:0:
148,124,77615,1,0,0:0:0:0:
177,117,78427,1,0,0:0:0:0:
181,109,79239,1,8,0:0:0:0:
256,192,79645,12,0,85734,0:0:0:0:
