osu file format v14

[General]
AudioFilename: audio.mp3
AudioLeadIn: 0
PreviewTime: 33398
Countdown: 0
SampleSet: Soft
StackLeniency: 0.7
Mode: 2
LetterboxInBreaks: 0
WidescreenStoryboard: 0

[Editor]
Bookmarks: 11921,13285,17376,18739,24194,39194,40558,44648,66467,66489,70558,73285,77376,95103,95785,99194,104648,106694,110103,112830,113342,113683,114194,114216,116944,118626,126467,148285,148967,149648,150160,150330,151012,152376,153058,153398,153739,155103,155785,156126,156467,159194,160558,161239,161921,162603,163285,163967,164308,164648,166012,166694,167035,167376,170103,170785,171467,172148,172830,173512,174194,174876,175217,175558,176921,177603,177944,178285,181012,182376,183739,185103,185785,186467,187830,189194,191921,193285,194648,196012,196694,197376,198569,200103,202830,204194,205558,206921,208285,209648,211012,213739,215103
DistanceSpacing: 0.1
BeatDivisor: 8
GridSize: 16
TimelineZoom: 1.6

[Metadata]
Title:Sweden
TitleUnicode:Sweden
Artist:C418
ArtistUnicode:C418
Creator:DreaMMM
Version:The Childhood We're Grateful For
Source:Minecraft
Tags:instrumental daniel rosenfeld volume alpha ambient original soundtrack video game piano nostalgia ost vgm
BeatmapID:3133554
BeatmapSetID:1532199

[Difficulty]
HPDrainRate:3
CircleSize:3.5
OverallDifficulty:6
ApproachRate:6
SliderMultiplier:1.4
SliderTickRate:0.5

[Events]
//Background and Video events
0,0,"bg.jpg",0,0
//Break Periods
2,126690,136349
//Storyboard Layer 0 (Background)
//Storyboard Layer 1 (Fail)
//Storyboard Layer 2 (Pass)
//Storyboard Layer 3 (Foreground)
//Storyboard Layer 4 (Overlay)
//Storyboard Sound Samples

[TimingPoints]
1035,681.818181818182,4,2,0,5,1,0
11921,-100,4,2,0,10,0,0
17375,-100,4,2,0,15,0,0
20102,-100,4,2,0,15,0,0
22830,-100,4,2,0,15,0,0
28284,-100,4,2,0,17,0,0
31012,-100,4,2,0,17,0,0
33739,-100,4,2,2,20,0,0
35103,-100,4,2,1,20,0,0
35784,-100,4,2,2,20,0,0
36466,-100,4,2,3,20,0,0
38512,-100,4,2,4,20,0,0
38853,-100,4,2,5,20,0,0
39194,-100,4,2,6,20,0,0
41239,-100,4,2,3,20,0,0
41580,-100,4,2,1,20,0,0
41921,-100,4,2,5,20,0,0
44648,-100,4,2,5,20,0,0
45330,-100,4,2,7,22,0,0
46012,-100,4,2,2,22,0,0
46694,-100,4,2,1,22,0,0
47375,-100,4,2,3,22,0,0
49421,-100,4,2,4,22,0,0
49762,-100,4,2,5,22,0,0
50103,-100,4,2,6,22,0,0
52148,-100,4,2,1,22,0,0
52489,-100,4,2,3,22,0,0
52830,-100,4,2,5,22,0,0
55557,-100,4,2,5,22,0,0
56921,-100,4,2,1,24,0,0
57603,-100,4,2,2,24,0,0
58284,-100,4,2,7,24,0,0
60330,-100,4,2,8,24,0,0
60671,-100,4,2,9,24,0,0
61012,-100,4,2,10,24,0,0
63057,-100,4,2,7,24,0,0
63398,-100,4,2,10,24,0,0
63739,-100,4,2,1,24,0,0
67830,-100,4,2,2,24,0,0
68512,-100,4,2,1,24,0,0
69194,-100,4,2,3,24,0,0
71239,-100,4,2,4,24,0,0
71580,-100,4,2,5,24,0,0
71921,-100,4,2,6,24,0,0
73966,-100,4,2,3,24,0,0
74307,-100,4,2,1,24,0,0
74648,-100,4,2,5,24,0,0
78739,-100,4,2,1,24,0,0
79421,-100,4,2,2,24,0,0
80103,-100,4,2,7,24,0,0
82148,-100,4,2,4,24,0,0
82489,-100,4,2,5,24,0,0
82830,-100,4,2,6,24,0,0
84875,-100,4,2,3,24,0,0
85216,-100,4,2,1,24,0,0
85557,-100,4,2,5,24,0,0
89648,-100,4,2,1,24,0,0
90330,-100,4,2,2,24,0,0
91012,-100,4,2,7,24,0,0
93057,-100,4,2,4,24,0,0
93398,-100,4,2,5,24,0,0
93739,-100,4,2,6,24,0,0
95103,-100,4,2,8,24,0,0
95784,-100,4,2,3,24,0,0
96125,-100,4,2,1,24,0,0
96466,-100,4,2,5,24,0,0
99194,-100,4,2,3,24,0,0
100557,-100,4,2,3,24,0,0
101239,-100,4,2,2,20,0,0
101580,-100,4,2,1,20,0,0
101921,-100,4,2,11,20,0,0
103284,-100,4,2,5,20,0,0
103966,-100,4,2,4,20,0,0
104648,-100,4,2,6,18,0,0
106694,-100,4,2,4,18,0,0
107034,-100,4,2,5,18,0,0
107375,-100,4,2,12,18,0,0
110102,-100,4,2,7,16,0,0
112148,-100,4,2,2,16,0,0
112489,-100,4,2,1,16,0,0
112830,-100,4,2,11,16,0,0
114194,-100,4,2,5,16,0,0
114875,-100,4,2,9,16,0,0
115557,-100,4,2,10,16,0,0
116921,-100,4,2,7,16,0,0
117603,-100,4,2,8,16,0,0
118284,-100,4,2,2,16,0,0
121012,-100,4,2,2,16,0,0
125272,-100,4,2,2,16,0,0
126466,-100,4,2,2,16,0,0
137375,-100,4,2,0,16,0,0
138739,-100,4,2,0,16,0,0
144193,-100,4,2,0,16,0,0
144875,-100,4,2,0,16,0,0
145216,-100,4,2,0,16,0,0
145557,-100,4,2,0,16,0,0
147602,-100,4,2,0,16,0,0
148284,-100,4,2,2,16,0,0
148796,-100,4,2,2,16,0,0
148966,-100,4,2,8,15,0,0
149477,-100,4,2,8,15,0,0
149648,-100,4,2,13,15,0,0
150159,-100,4,2,13,15,0,0
150330,-100,4,2,8,15,0,0
150841,-100,4,2,8,15,0,0
151012,-100,4,2,1,15,0,0
153057,-100,4,2,4,15,0,0
153398,-100,4,2,5,15,0,0
153739,-100,4,2,6,17,0,0
155784,-100,4,2,2,17,0,0
156125,-100,4,2,1,17,0,0
156466,-100,4,2,5,17,0,0
159193,-100,4,2,5,17,0,0
160557,-100,4,2,1,20,0,0
161239,-100,4,2,2,20,0,0
161921,-100,4,2,7,20,0,0
162603,-100,4,2,9,20,0,0
163284,-100,4,2,8,20,0,0
163966,-100,4,2,14,20,0,0
164307,-100,4,2,8,20,0,0
164648,-100,4,2,10,20,0,0
166012,-100,4,2,2,20,0,0
166694,-100,4,2,7,20,0,0
167034,-100,4,2,10,20,0,0
167375,-100,4,2,1,20,0,0
170102,-100,4,2,8,22,0,0
170614,-100,4,2,8,22,0,0
170784,-100,4,2,7,22,0,0
171296,-100,4,2,7,22,0,0
171466,-100,4,2,2,22,0,0
171977,-100,4,2,2,22,0,0
172148,-100,4,2,1,22,0,0
172659,-100,4,2,1,22,0,0
172830,-100,4,2,7,22,0,0
173341,-100,4,2,7,22,0,0
173512,-100,4,2,9,22,0,0
174023,-100,4,2,9,22,0,0
174193,-100,4,2,8,20,0,0
174875,-100,4,2,14,20,0,0
175557,-100,4,2,8,20,0,0
176921,-100,4,2,7,20,0,0
177602,-100,4,2,3,17,0,0
177943,-100,4,2,1,15,0,0
178284,-100,4,2,9,15,0,0
180330,-100,4,2,9,15,0,0
181012,-100,4,2,2,10,0,0
182205,-100,4,2,2,10,0,0
182375,-100,4,2,1,10,0,0
183568,-100,4,2,1,10,0,0
183739,-100,4,2,3,10,0,0
184932,-100,4,2,3,10,0,0
185102,-100,4,2,3,10,0,0
185784,-100,4,2,4,10,0,0
186466,-100,4,2,5,10,0,0
187830,-100,4,2,3,10,0,0
189194,-100,4,2,1,10,0,0
191921,-100,4,2,2,10,0,0
193114,-100,4,2,2,10,0,0
193284,-100,4,2,7,10,0,0
194477,-100,4,2,7,10,0,0
194648,-100,4,2,9,10,0,0
195841,-100,4,2,9,10,0,0
196012,-100,4,2,7,10,0,0
196694,-100,4,2,1,10,0,0
197375,-100,4,2,3,10,0,0
198739,-100,4,2,3,10,0,0
200102,-100,4,2,1,5,0,0

[Colours]
Combo1 : 171,208,231
Combo2 : 107,218,80
Combo3 : 162,113,64

[HitObjects]
128,288,1035,6,0,L|336:64,2,280,2|0|2,0:2|0:2|0:2,0:2:0:0:
248,280,5125,6,0,L|47:80,2,280,0|2|0,0:2|0:2|0:2,0:2:0:0:
352,224,9216,5,2,0:2:0:0:
208,256,11944,6,0,P|128:128|208:64,1,280,2|0,0:2|0:2,0:2:0:0:
352,240,14671,5,2,0:2:0:0:
272,240,16035,1,0,0:2:0:0:
80,288,17399,6,0,B|100:159|207:159|208:16,1,280,2|0,0:2|0:2,0:2:0:0:
358,192,20126,5,2,0:2:0:0:
288,336,22853,6,0,B|97:128,1,280,2|0,0:2|0:2,0:2:0:0:
373,194,25581,5,2,0:2:0:0:
290,206,26945,1,0,0:2:0:0:
103,284,28308,6,0,P|247:204|359:140,1,280,2|0,0:2|0:2,0:2:0:0:
432,192,31035,5,2,0:2:0:0:
197,192,33762,5,2,0:2:0:0:
408,193,35126,1,2,0:2:0:0:
261,195,35808,1,2,0:2:0:0:
77,294,36490,6,0,L|204:25,1,280,2|0,0:2|0:2,0:2:0:0:
309,191,38535,1,2,0:2:0:0:
429,188,38876,1,2,0:2:0:0:
328,276,39217,6,0,L|197:26,1,280,2|0,0:2|0:2,0:2:0:0:
94,173,41262,1,2,0:2:0:0:
203,180,41603,1,2,0:2:0:0:
64,384,41944,6,0,L|512:0,1,560,2|0,0:2|0:2,0:2:0:0:
352,192,45353,5,2,0:2:0:0:
256,192,46035,1,2,0:2:0:0:
176,192,46717,1,2,0:2:0:0:
64,336,47399,6,0,L|368:336,1,280,2|0,0:2|0:2,0:2:0:0:
448,192,49444,1,2,0:2:0:0:
352,192,49785,1,2,0:2:0:0:
222,227,50126,6,0,L|45:0,1,280,2|0,0:2|0:2,0:2:0:0:
124,190,52171,1,2,0:2:0:0:
213,192,52512,1,2,0:2:0:0:
346,398,52853,6,0,B|616:185|315:-62,1,560,2|0,0:2|0:2,0:2:0:0:
137,191,56944,5,2,0:2:0:0:
34,189,57626,1,2,0:2:0:0:
154,255,58308,6,0,L|416:352,1,280,2|0,0:2|0:2,0:2:0:0:
228,184,60353,1,2,0:2:0:0:
305,108,60694,1,2,0:2:0:0:
428,233,61035,6,0,P|501:138|435:9,1,280,2|0,0:2|0:2,0:2:0:0:
336,189,63081,1,2,0:2:0:0:
245,189,63421,1,2,0:2:0:0:
157,396,63762,6,0,B|30:383|-74:189|30:-1|186:-16,1,560,2|0,0:2|0:2,0:2:0:0:
416,192,67853,5,2,0:2:0:0:
320,192,68535,1,2,0:2:0:0:
208,192,69217,6,0,P|112:112|208:16,1,280,2|0,0:2|0:2,0:2:0:0:
280,225,71262,1,2,0:2:0:0:
192,224,71603,1,2,0:2:0:0:
318,284,71944,6,0,P|400:254|319:133,1,280,2|0,0:2|0:2,0:2:0:0:
224,127,73990,1,2,0:2:0:0:
112,128,74331,1,2,0:2:0:0:
48,0,74671,6,0,L|448:400,1,560,2|0,0:2|0:2,0:2:0:0:
176,192,78762,5,2,0:2:0:0:
336,192,79444,1,2,0:2:0:0:
496,336,80126,6,0,L|208:336,1,280,2|0,0:2|0:2,0:2:0:0:
112,192,82171,1,2,0:2:0:0:
205,192,82512,1,2,0:2:0:0:
331,239,82853,6,0,L|43:239,1,280,2|0,0:2|0:2,0:2:0:0:
48,192,84899,1,2,0:2:0:0:
140,192,85240,1,2,0:2:0:0:
16,96,85581,6,0,B|512:368,1,560,2|0,0:2|0:2,0:2:0:0:
304,192,89671,5,2,0:2:0:0:
448,192,90353,1,2,0:2:0:0:
320,224,91035,6,0,P|256:112|176:-16,1,280,2|0,0:2|0:2,0:2:0:0:
64,192,93081,1,2,0:2:0:0:
176,192,93421,1,2,0:2:0:0:
288,352,93762,6,0,B|454:127|454:127|304:128,1,420,2|2,0:2|0:2,0:2:0:0:
240,144,96149,1,2,0:2:0:0:
112,0,96490,6,0,B|496:400,1,560,2|2,0:2|0:2,0:2:0:0:
335,195,101262,5,2,0:2:0:0:
244,191,101603,1,2,0:2:0:0:
153,198,101944,6,0,P|73:134|147:-1,1,280,2|2,0:2|0:2,0:2:0:0:
258,23,103990,1,2,0:2:0:0:
386,0,104672,6,0,L|270:407,1,420,2|0,0:2|0:2,0:2:0:0:
192,368,107058,1,2,0:2:0:0:
48,368,107399,6,0,B|416:-64,1,560,2|2,0:2|0:2,0:2:0:0:
352,192,112171,1,2,0:2:0:0:
446,192,112512,1,2,0:2:0:0:
358,320,112854,6,0,P|256:276|340:176,1,280,2|2,0:2|0:2,0:2:0:0:
457,190,114899,1,2,0:2:0:0:
338,288,115581,6,0,P|287:92|333:53,1,280,2|2,0:2|0:2,0:2:0:0:
379,169,117626,1,2,0:2:0:0:
293,169,117967,1,0,0:2:0:0:
168,169,118308,5,2,0:2:0:0:
256,192,118649,12,0,126490,0:2:0:0:
320,192,137399,5,2,0:2:0:0:
128,192,138762,1,0,0:2:0:0:
288,192,139444,1,0,0:2:0:0:
112,96,140126,5,2,0:2:0:0:
368,192,141490,1,0,0:2:0:0:
192,192,142171,1,0,0:2:0:0:
320,192,142513,1,0,0:2:0:0:
159,187,142854,5,2,0:2:0:0:
16,192,144217,5,0,0:2:0:0:
176,192,144899,1,0,0:2:0:0:
304,192,145240,1,0,0:2:0:0:
465,191,145581,5,0,0:2:0:0:
352,192,148308,5,2,0:2:0:0:
160,192,148990,1,2,0:2:0:0:
320,192,149671,1,2,0:2:0:0:
416,192,150353,1,2,0:2:0:0:
255,191,151035,6,0,P|159:111|255:31,1,280,2|0,0:2|0:2,0:2:0:0:
80,32,153081,1,2,0:2:0:0:
175,26,153421,1,2,0:2:0:0:
304,192,153762,6,0,L|480:-32,1,280,2|0,0:2|0:2,0:2:0:0:
304,192,155808,1,2,0:2:0:0:
420,191,156149,1,2,0:2:0:0:
304,288,156490,6,0,P|176:272|304:0,1,560,2|0,0:2|0:2,0:2:0:0:
80,192,160581,5,2,0:2:0:0:
288,192,161262,1,2,0:2:0:0:
422,192,161944,5,2,0:2:0:0:
240,192,162626,1,2,0:2:0:0:
464,190,163308,1,2,0:2:0:0:
299,191,163990,1,2,0:2:0:0:
200,174,164330,1,2,0:2:0:0:
38,172,164672,6,0,P|70:300|198:364,1,280,2|2,0:2|0:2,0:2:0:0:
303,194,166717,1,2,0:2:0:0:
408,191,167058,1,2,0:2:0:0:
480,16,167399,6,0,B|480:368|128:368,1,560,2|2,0:2|0:2,0:2:0:0:
218,198,170808,5,2,0:2:0:0:
342,198,171490,1,2,0:2:0:0:
488,198,172171,1,2,0:2:0:0:
312,200,172853,5,2,0:2:0:0:
483,198,173535,1,2,0:2:0:0:
256,200,174217,1,2,0:2:0:0:
129,241,174899,1,2,0:2:0:0:
248,243,175240,1,0,0:2:0:0:
371,248,175581,6,0,P|435:136|355:8,1,280,2|2,0:2|0:2,0:2:0:0:
282,205,177626,1,2,0:2:0:0:
152,205,177967,1,2,0:2:0:0:
288,400,178308,6,0,P|144:176|272:-64,1,560,2|2,0:2|0:2,0:2:0:0:
448,192,182399,1,2,0:2:0:0:
176,192,183762,5,2,0:2:0:0:
352,192,185126,1,0,0:2:0:0:
128,192,185808,1,2,0:2:0:0:
320,336,186490,6,0,L|384:32,1,280,2|2,0:2|0:2,0:2:0:0:
208,192,189217,5,2,0:2:0:0:
288,192,191944,5,2,0:2:0:0:
400,192,193308,1,2,0:2:0:0:
208,192,194671,5,2,0:2:0:0:
80,192,196035,1,2,0:2:0:0:
272,192,196717,1,2,0:2:0:0:
80,240,197399,6,0,L|224:0,1,280,2|0,0:2|0:2,0:2:0:0:
336,192,200126,5,2,0:2:0:0:
256,192,202853,12,0,213762,0:2:0:0:
