osu file format v14

[General]
AudioFilename: audio.mp3
AudioLeadIn: 0
PreviewTime: 33910
Countdown: 0
SampleSet: Normal
StackLeniency: 0.7
Mode: 1
LetterboxInBreaks: 0
WidescreenStoryboard: 1

[Editor]
Bookmarks: 1183,9364,12092,20273,23001,31183,33910,42092,44819,53001,55728,63910,66637,74819,77546,85728,88455,96637,99364,118455,126637,134819,137546,145728,148455,151183,152546,156637,159364,167546,170273,178455,181183,189364,192092,200273,203001,211183
DistanceSpacing: 0.1
BeatDivisor: 4
GridSize: 32
TimelineZoom: 0.6999999

[Metadata]
Title:Sweden
TitleUnicode:Sweden
Artist:C418
ArtistUnicode:C418
Creator:CrayZeei
Version:Futsuu
Source:Minecraft
Tags:Volume Alpha video game instrumental ost Daniel Rosenfeld original soundtrack
BeatmapID:2362256
BeatmapSetID:1074601

[Difficulty]
HPDrainRate:7
CircleSize:5
OverallDifficulty:2
ApproachRate:5
SliderMultiplier:1.4
SliderTickRate:1

[Events]
//Background and Video events
0,0,"Minecraft-1.15.png",0,80
//Break Periods
2,118655,125437
//Storyboard Layer 0 (Background)
//Storyboard Layer 1 (Fail)
//Storyboard Layer 2 (Pass)
//Storyboard Layer 3 (Foreground)
//Storyboard Layer 4 (Overlay)
//Storyboard Sound Samples

[TimingPoints]
1183,681.818181818182,4,1,0,5,1,0
3910,-100,4,1,0,6,0,0
6637,-100,4,1,0,7,0,0
9364,-100,4,1,0,8,0,0
12092,-100,4,1,0,9,0,0
14819,-100,4,1,0,10,0,0
17546,-100,4,1,0,11,0,0
20273,-100,4,1,0,12,0,0
23001,-100,4,1,0,13,0,0
25728,-100,4,1,0,14,0,0
28455,-100,4,1,0,15,0,0
31183,-100,4,1,0,16,0,0
33910,-100,4,1,0,20,0,0
118455,-100,4,1,0,20,0,0
120501,-100,4,1,0,15,0,0
122546,-100,4,1,0,10,0,0
124592,-100,4,1,0,5,0,0
126637,-100,4,1,0,15,0,8
137546,-100,4,1,0,18,0,0
148455,-100,4,1,0,23,0,0
152546,-100,4,1,0,20,0,0
159364,-100,4,1,0,23,0,0
160728,-100,4,1,0,20,0,0
170273,-100,4,1,0,25,0,0
175046,-100,4,1,0,20,0,0
181182,-100,4,1,0,16,0,0
183909,-100,4,1,0,15,0,0
186637,-100,4,1,0,14,0,0
189364,-100,4,1,0,13,0,0
192091,-100,4,1,0,12,0,0
194818,-100,4,1,0,11,0,0
197546,-100,4,1,0,10,0,0
200273,-100,4,1,0,9,0,0
203000,-100,4,1,0,8,0,0
205727,-100,4,1,0,7,0,0
208455,-100,4,1,0,6,0,0
211182,-100,4,1,0,5,0,0

[HitObjects]
257,192,1183,5,8,0:0:0:0:
257,192,2546,1,0,0:0:0:0:
257,192,3910,1,8,0:0:0:0:
257,192,5273,1,0,0:0:0:0:
257,192,6637,1,8,0:0:0:0:
257,192,8001,1,0,0:0:0:0:
257,192,9364,1,8,0:0:0:0:
257,192,12092,1,8,0:0:0:0:
257,192,13455,1,0,0:0:0:0:
257,192,14819,1,8,0:0:0:0:
257,192,16183,1,0,0:0:0:0:
257,192,17546,1,8,0:0:0:0:
257,192,18910,1,0,0:0:0:0:
257,192,20273,1,8,0:0:0:0:
257,192,23001,1,0,0:0:0:0:
257,192,24364,1,0,0:0:0:0:
257,192,25728,1,8,0:0:0:0:
257,192,27092,1,8,0:0:0:0:
257,192,28455,1,0,0:0:0:0:
257,192,29819,1,0,0:0:0:0:
257,192,31183,1,8,0:0:0:0:
257,192,33910,1,0,0:0:0:0:
257,192,35273,1,8,0:0:0:0:
257,192,35955,1,8,0:0:0:0:
257,192,36637,1,0,0:0:0:0:
257,192,38001,1,0,0:0:0:0:
257,192,38683,1,0,0:0:0:0:
257,192,39023,1,0,0:0:0:0:
257,192,39364,1,8,0:0:0:0:
257,192,40728,1,0,0:0:0:0:
257,192,41410,1,8,0:0:0:0:
257,192,41751,1,8,0:0:0:0:
257,192,42092,1,0,0:0:0:0:
257,192,44819,1,0,0:0:0:0:
257,192,45501,1,8,0:0:0:0:
257,192,46183,1,8,0:0:0:0:
257,192,46864,1,8,0:0:0:0:
257,192,47546,1,0,0:0:0:0:
257,192,48910,1,0,0:0:0:0:
257,192,49592,1,8,0:0:0:0:
257,192,49933,1,8,0:0:0:0:
257,192,50273,1,0,0:0:0:0:
257,192,51637,1,0,0:0:0:0:
257,192,52319,1,8,0:0:0:0:
257,192,52660,1,8,0:0:0:0:
257,192,53001,1,0,0:0:0:0:
257,192,55728,1,0,0:0:0:0:
257,192,57092,1,8,0:0:0:0:
257,192,57773,1,8,0:0:0:0:
257,192,58455,1,8,0:0:0:0:
257,192,59819,1,0,0:0:0:0:
257,192,60501,1,8,0:0:0:0:
256,192,60842,1,8,0:0:0:0:
256,192,61183,1,8,0:0:0:0:
256,192,62546,1,0,0:0:0:0:
256,192,63228,1,8,0:0:0:0:
256,192,63569,1,8,0:0:0:0:
256,192,63910,1,0,0:0:0:0:
256,192,66637,1,0,0:0:0:0:
256,192,68001,1,8,0:0:0:0:
256,192,68683,1,8,0:0:0:0:
256,192,69364,1,0,0:0:0:0:
256,192,70728,1,0,0:0:0:0:
256,192,71410,1,8,0:0:0:0:
256,192,71751,1,8,0:0:0:0:
256,192,72092,1,0,0:0:0:0:
256,192,73455,1,0,0:0:0:0:
256,192,74137,1,8,0:0:0:0:
256,192,74478,1,0,0:0:0:0:
256,192,74819,1,8,0:0:0:0:
256,192,77546,1,0,0:0:0:0:
256,192,78910,1,8,0:0:0:0:
256,192,79592,1,8,0:0:0:0:
256,192,80273,1,0,0:0:0:0:
256,192,81637,1,0,0:0:0:0:
256,192,82319,1,0,0:0:0:0:
256,192,82660,1,0,0:0:0:0:
256,192,83001,1,8,0:0:0:0:
256,192,84364,1,0,0:0:0:0:
256,192,85046,1,0,0:0:0:0:
256,192,85387,1,8,0:0:0:0:
256,192,85728,1,0,0:0:0:0:
256,192,88455,1,0,0:0:0:0:
256,192,89819,1,8,0:0:0:0:
256,192,90501,1,8,0:0:0:0:
256,192,91183,1,8,0:0:0:0:
256,192,92546,1,0,0:0:0:0:
256,192,93228,1,8,0:0:0:0:
256,192,93569,1,0,0:0:0:0:
256,192,93910,1,8,0:0:0:0:
256,192,95273,1,8,0:0:0:0:
256,192,95955,1,0,0:0:0:0:
256,192,96296,1,8,0:0:0:0:
256,192,96637,1,8,0:0:0:0:
256,192,99364,1,0,0:0:0:0:
256,192,101410,1,8,0:0:0:0:
256,192,101751,1,8,0:0:0:0:
256,192,102092,1,0,0:0:0:0:
256,192,103455,1,8,0:0:0:0:
256,192,104137,1,8,0:0:0:0:
256,192,104819,1,0,0:0:0:0:
256,192,106864,1,0,0:0:0:0:
256,192,107205,1,8,0:0:0:0:
255,192,107546,1,0,0:0:0:0:
255,192,110273,1,8,0:0:0:0:
255,192,112319,1,8,0:0:0:0:
255,192,112660,1,0,0:0:0:0:
255,192,113001,1,8,0:0:0:0:
255,192,114364,1,0,0:0:0:0:
255,192,115046,1,8,0:0:0:0:
255,192,115728,1,0,0:0:0:0:
255,192,117092,1,8,0:0:0:0:
255,192,117773,1,8,0:0:0:0:
257,192,118114,1,8,0:0:0:0:
257,192,118455,1,0,0:0:0:0:
257,192,126637,5,0,0:0:0:0:
257,192,128001,1,0,0:0:0:0:
257,192,128683,1,8,0:0:0:0:
257,192,129364,1,0,0:0:0:0:
257,192,130728,1,0,0:0:0:0:
257,192,131410,1,8,0:0:0:0:
257,192,131751,1,0,0:0:0:0:
257,192,132092,1,8,0:0:0:0:
257,192,133455,1,0,0:0:0:0:
257,192,134137,1,0,0:0:0:0:
257,192,134478,1,8,0:0:0:0:
257,192,134819,1,0,0:0:0:0:
257,192,137546,1,0,0:0:0:0:
257,192,138910,1,0,0:0:0:0:
257,192,139592,1,8,0:0:0:0:
257,192,140273,1,0,0:0:0:0:
257,192,141637,1,0,0:0:0:0:
257,192,142319,1,8,0:0:0:0:
257,193,142660,1,0,0:0:0:0:
257,193,143001,1,8,0:0:0:0:
257,193,144364,1,0,0:0:0:0:
257,193,145046,1,0,0:0:0:0:
257,193,145387,1,8,0:0:0:0:
257,193,145728,1,0,0:0:0:0:
257,193,148455,1,0,0:0:0:0:
257,193,149137,1,8,0:0:0:0:
257,193,149819,1,8,0:0:0:0:
257,193,150501,1,8,0:0:0:0:
257,193,151183,1,0,0:0:0:0:
257,193,152546,1,0,0:0:0:0:
257,193,153228,1,0,0:0:0:0:
257,193,153569,1,8,0:0:0:0:
257,193,153910,1,0,0:0:0:0:
257,193,155273,1,0,0:0:0:0:
257,193,155955,1,8,0:0:0:0:
257,193,156296,1,8,0:0:0:0:
256,192,156637,1,0,0:0:0:0:
257,191,159364,1,0,0:0:0:0:
254,190,160728,1,0,0:0:0:0:
254,190,161410,1,8,0:0:0:0:
258,189,162092,1,0,0:0:0:0:
258,189,162773,1,8,0:0:0:0:
258,189,163455,1,8,0:0:0:0:
258,189,164137,1,8,0:0:0:0:
258,189,164478,1,8,0:0:0:0:
258,189,164819,1,0,0:0:0:0:
256,191,166183,1,0,0:0:0:0:
256,191,166864,1,8,0:0:0:0:
256,191,167205,1,8,0:0:0:0:
256,191,167546,1,0,0:0:0:0:
257,191,170273,1,0,0:0:0:0:
257,191,170955,1,8,0:0:0:0:
257,191,171637,1,0,0:0:0:0:
257,191,172319,1,0,0:0:0:0:
257,191,173001,1,8,0:0:0:0:
257,191,173683,1,8,0:0:0:0:
257,191,174364,1,8,0:0:0:0:
257,191,175046,1,8,0:0:0:0:
257,191,175387,1,8,0:0:0:0:
257,191,175728,1,0,0:0:0:0:
255,191,177092,1,8,0:0:0:0:
255,191,177773,1,0,0:0:0:0:
255,191,178114,1,8,0:0:0:0:
255,191,178455,1,8,0:0:0:0:
257,190,181183,1,0,0:0:0:0:
255,191,182546,1,8,0:0:0:0:
255,191,183910,1,0,0:0:0:0:
254,191,185273,1,8,0:0:0:0:
254,191,185955,1,8,0:0:0:0:
254,191,186637,1,0,0:0:0:0:
254,191,188001,1,8,0:0:0:0:
254,191,189364,1,8,0:0:0:0:
255,193,192092,1,0,0:0:0:0:
255,194,193455,1,8,0:0:0:0:
252,195,194819,1,8,0:0:0:0:
252,195,196183,1,8,0:0:0:0:
252,195,196864,1,0,0:0:0:0:
252,195,197546,1,0,0:0:0:0:
257,193,198910,1,0,0:0:0:0:
256,192,200273,1,8,0:0:0:0:
256,191,203001,1,0,0:0:0:0:
255,191,204364,1,0,0:0:0:0:
256,191,205728,1,8,0:0:0:0:
255,191,207092,1,8,0:0:0:0:
255,191,208455,1,0,0:0:0:0:
255,191,209819,1,0,0:0:0:0:
255,191,211183,1,8,0:0:0:0:
