osu file format v14

[General]
AudioFilename: audio.mp3
AudioLeadIn: 0
PreviewTime: 109785
Countdown: 0
SampleSet: Normal
StackLeniency: 0.7
Mode: 1
LetterboxInBreaks: 0
WidescreenStoryboard: 0

[Editor]
Bookmarks: 22013,43956,65899,82356,85099,87842,108413,109785,131728,153671,174242,175613,197556,208528,214013,216756,219499,240071,241442,263385,285328,307271
DistanceSpacing: 1
BeatDivisor: 4
GridSize: 32
TimelineZoom: 2.5

[Metadata]
Title:Sweden (Caution & Crisis Remix)
TitleUnicode:Sweden (Caution & Crisis Remix)
Artist:C418
ArtistUnicode:C418
Creator:Irone OSU
Version:Nostalgia
Source:Minecraft
Tags:blocks harvey thompson daniel rosenfeld dnb drum and & bass video game instrumental ost original sound track soundtrack volume alpha james shakeshaft leeds roundhay liquid funk netsky danny byrd drum&bass electronic chiptune
BeatmapID:2868980
BeatmapSetID:1389245

[Difficulty]
HPDrainRate:6
CircleSize:2
OverallDifficulty:6
ApproachRate:2
SliderMultiplier:1.4
SliderTickRate:1

[Events]
//Background and Video events
0,0,"minecraft_background_lol.jpg",0,0
//Break Periods
//Storyboard Layer 0 (Background)
//Storyboard Layer 1 (Fail)
//Storyboard Layer 2 (Pass)
//Storyboard Layer 3 (Foreground)
//Storyboard Layer 4 (Overlay)
//Storyboard Sound Samples

[TimingPoints]
71,342.857142857143,4,1,0,20,1,0
71,-200,4,1,0,20,0,0
21928,-133.333333333333,4,1,0,30,0,0
41899,-125,4,1,0,35,0,0
42585,-117.647058823529,4,1,0,40,0,0
43271,-111.111111111111,4,1,0,45,0,0
43871,-111.111111111111,4,1,0,50,0,0
65813,-100,4,1,0,60,0,0
82356,-105.263157894737,4,1,0,60,0,0
85099,-100,4,1,0,60,0,0
86471,-100,4,1,0,60,0,0
86556,-99.173586503665,4,1,0,60,0,0
86642,-98.3606234883202,4,1,0,60,0,0
86728,-97.5609756097561,4,1,0,60,0,0
86813,-96.774224765879,4,1,0,60,0,0
86899,-95.9999692800098,4,1,0,60,0,0
86985,-95.2380952380952,4,1,0,60,0,0
87071,-94.4882187364469,4,1,0,60,0,0
87156,-93.7499707031342,4,1,0,60,0,0
87242,-93.0232558139535,4,1,0,60,0,0
87328,-92.3077207100679,4,1,0,60,0,0
87413,-91.6030254647251,4,1,0,60,0,0
87499,-90.9090909090909,4,1,0,60,0,0
87671,-90.0900900900901,4,1,0,60,0,0
87756,-89.2857142857143,4,1,0,60,0,0
87842,-88.4955752212389,4,1,0,70,0,1
87928,-90.9090909090909,4,1,0,70,0,1
108413,-83.3333333333333,4,1,0,65,0,0
108585,-84.2105263157895,4,1,0,65,0,0
108671,-84.6560846560847,4,1,0,65,0,0
108756,-85.1063829787234,4,1,0,65,0,0
108928,-86.0215053763441,4,1,0,65,0,0
109099,-86.9565217391304,4,1,0,65,0,0
109185,-87.431693989071,4,1,0,65,0,0
109271,-87.9120879120879,4,1,0,65,0,0
109356,-88.3977900552486,4,1,0,65,0,0
109442,-88.8888888888889,4,1,0,65,0,0
109528,-89.3854748603352,4,1,0,65,0,0
109613,-89.8876404494382,4,1,0,65,0,0
109785,-90.9090909090909,4,1,0,70,0,1
130699,-95.2380952380952,4,1,0,70,0,1
130871,-93.7600792085149,4,1,0,70,0,1
131042,-92.3273225168797,4,1,0,70,0,1
131128,-91.62719825102,4,1,0,70,0,1
131213,-90.9376122511151,4,1,0,70,0,1
131299,-90.2583283616037,4,1,0,70,0,1
131385,-89.5891174307275,4,1,0,70,0,1
131471,-88.9297570527967,4,1,0,70,0,1
131556,-88.2800313217551,4,1,0,70,0,1
131642,-87.6398074027592,4,1,0,70,0,1
131728,-87.0087269753156,4,1,0,70,0,0
131749,-111.111111111111,4,1,0,60,0,0
153628,-100,4,1,0,60,0,0
175635,-200,4,1,0,20,0,0
186499,-200,4,1,0,30,0,0
197471,-133.333333333333,4,1,0,35,0,0
208442,-111.111111111111,4,1,0,45,0,0
213328,-109.89010989011,4,1,0,45,0,0
213499,-108.695652173913,4,1,0,45,0,0
213671,-107.52688172043,4,1,0,45,0,0
213842,-106.382978723404,4,1,0,45,0,0
214013,-105.263157894737,4,1,0,50,0,0
216671,-105.263157894737,4,1,0,60,0,0
216756,-100,4,1,0,60,0,0
218128,-100,4,1,0,60,0,0
218213,-99.0712074303406,4,1,0,60,0,0
218299,-98.159509202454,4,1,0,60,0,0
218385,-97.2644376899696,4,1,0,60,0,0
218471,-96.3855421686747,4,1,0,60,0,0
218556,-95.5223880597015,4,1,0,60,0,0
218642,-94.6745562130178,4,1,0,60,0,0
218728,-93.841642228739,4,1,0,60,0,0
218813,-93.0232558139535,4,1,0,60,0,0
218899,-92.2190201729107,4,1,0,60,0,0
218985,-91.4285714285714,4,1,0,60,0,0
219071,-90.6515580736544,4,1,0,60,0,0
219156,-89.8876404494382,4,1,0,60,0,0
219242,-89.1364902506964,4,1,0,60,0,0
219328,-88.3977900552486,4,1,0,60,0,0
219413,-87.6712328767123,4,1,0,60,0,0
219499,-86.9565217391304,4,1,0,70,0,1
219542,-90.9090909090909,4,1,0,70,0,1
240071,-83.3333333333333,4,1,0,65,0,0
240242,-84.2105263157895,4,1,0,65,0,0
240328,-84.6560846560847,4,1,0,65,0,0
240413,-85.1063829787234,4,1,0,65,0,0
240585,-86.0215053763441,4,1,0,65,0,0
240756,-86.9565217391304,4,1,0,65,0,0
240842,-87.431693989071,4,1,0,65,0,0
240928,-87.9120879120879,4,1,0,65,0,0
241013,-88.3977900552486,4,1,0,65,0,0
241099,-88.8888888888889,4,1,0,65,0,0
241185,-89.3854748603352,4,1,0,65,0,0
241271,-89.8876404494382,4,1,0,65,0,0
241442,-90.9090909090909,4,1,0,70,0,1
262013,-90.9090909090909,4,1,0,70,0,1
262128,-90.5678149156134,4,1,0,70,0,1
262242,-90.2290916637342,4,1,0,70,0,1
262356,-89.8928926184451,4,1,0,70,0,1
262471,-89.5591896684519,4,1,0,70,0,1
262585,-89.2279551183386,4,1,0,70,0,1
262699,-88.8991616809054,4,1,0,70,0,1
262813,-88.5727040183664,4,1,0,70,0,1
262928,-88.248713113141,4,1,0,70,0,1
263042,-87.9270838279232,4,1,0,70,0,1
263156,-87.6077904351567,4,1,0,70,0,1
263271,-87.2908075796354,4,1,0,70,0,1
263385,-86.9957076317855,4,1,0,70,0,0
263406,-100,4,1,0,60,0,0
305899,-100,4,1,0,60,0,0
305985,-99.3820424599838,4,1,0,60,0,0
306071,-98.7717730027113,4,1,0,60,0,0
306156,-98.1688563230069,4,1,0,60,0,0
306242,-97.5733507664387,4,1,0,60,0,0
306328,-96.9849324208991,4,1,0,60,0,0
306413,-96.4035684744906,4,1,0,60,0,0
306499,-95.8292246553262,4,1,0,60,0,0
306585,-95.261593097726,4,1,0,60,0,0
306671,-94.7006465213138,4,1,0,60,0,0
306756,-94.1463561594312,4,1,0,60,0,0
306842,-93.5984290439669,4,1,0,60,0,0
306928,-93.0569294377221,4,1,0,60,0,0
307099,-91.9923425574055,4,1,0,60,0,0
307271,-90.9519209955233,4,1,0,60,0,0

[HitObjects]
254,186,71,5,2,0:0:0:0:
253,188,1442,1,0,0:0:0:0:
253,188,2813,1,2,0:0:0:0:
253,188,4185,1,0,0:0:0:0:
253,188,5556,1,2,0:0:0:0:
253,188,6928,1,0,0:0:0:0:
253,188,8299,1,2,0:0:0:0:
253,188,11042,1,2,0:0:0:0:
255,195,12413,1,0,0:0:0:0:
255,195,13785,1,2,0:0:0:0:
255,195,15156,1,0,0:0:0:0:
255,195,16528,1,2,0:0:0:0:
255,195,17899,1,0,0:0:0:0:
255,195,19271,1,2,0:0:0:0:
255,195,22013,1,2,0:0:0:0:
255,195,23385,1,0,0:0:0:0:
255,195,24071,1,2,0:0:0:0:
255,195,24756,1,0,0:0:0:0:
255,195,26128,1,0,0:0:0:0:
255,195,26813,1,0,0:0:0:0:
255,195,27156,1,2,0:0:0:0:
255,195,27499,1,2,0:0:0:0:
255,195,28871,1,0,0:0:0:0:
255,195,29556,1,0,0:0:0:0:
255,195,29899,1,2,0:0:0:0:
255,195,30242,1,0,0:0:0:0:
255,195,32985,1,0,0:0:0:0:
255,195,33671,1,2,0:0:0:0:
255,195,34356,1,2,0:0:0:0:
255,195,35042,1,2,0:0:0:0:
255,195,35728,1,0,0:0:0:0:
255,195,37099,1,0,0:0:0:0:
255,195,37785,1,0,0:0:0:0:
255,195,38128,1,2,0:0:0:0:
255,195,38471,1,2,0:0:0:0:
257,191,39842,1,0,0:0:0:0:
257,191,40528,1,2,0:0:0:0:
257,191,40871,1,2,0:0:0:0:
257,191,41213,1,0,0:0:0:0:
256,192,41385,12,0,43785,0:0:0:0:
252,192,43956,5,4,0:0:0:0:
252,192,44471,1,0,0:0:0:0:
252,192,44642,1,2,0:0:0:0:
252,192,44985,1,0,0:0:0:0:
252,192,45328,1,0,0:0:0:0:
252,192,45671,1,2,0:0:0:0:
252,192,45842,1,0,0:0:0:0:
252,192,46013,1,2,0:0:0:0:
252,192,46699,1,2,0:0:0:0:
252,192,47213,1,0,0:0:0:0:
252,192,47385,1,2,0:0:0:0:
252,192,47728,1,0,0:0:0:0:
252,192,48071,1,0,0:0:0:0:
252,192,48413,1,0,0:0:0:0:
252,192,48585,1,0,0:0:0:0:
252,192,48756,1,2,0:0:0:0:
252,192,49442,1,0,0:0:0:0:
252,192,49956,1,0,0:0:0:0:
252,192,50128,1,2,0:0:0:0:
252,192,50471,1,0,0:0:0:0:
252,192,50813,1,0,0:0:0:0:
252,192,51156,1,2,0:0:0:0:
252,192,51328,1,0,0:0:0:0:
252,192,51499,1,2,0:0:0:0:
252,192,51842,1,0,0:0:0:0:
252,192,52185,1,2,0:0:0:0:
252,192,52699,1,0,0:0:0:0:
252,192,52871,1,2,0:0:0:0:
252,192,53213,1,0,0:0:0:0:
252,192,53556,1,0,0:0:0:0:
252,192,53899,1,0,0:0:0:0:
252,192,54071,1,0,0:0:0:0:
252,192,54242,1,2,0:0:0:0:
252,192,54585,1,2,0:0:0:0:
252,192,54928,1,0,0:0:0:0:
252,192,55442,1,0,0:0:0:0:
252,192,55613,1,2,0:0:0:0:
252,192,55956,1,0,0:0:0:0:
252,192,56299,1,0,0:0:0:0:
252,192,56642,1,2,0:0:0:0:
252,192,56813,1,0,0:0:0:0:
252,192,56985,1,2,0:0:0:0:
252,192,57671,1,2,0:0:0:0:
252,192,58185,1,0,0:0:0:0:
252,192,58356,1,2,0:0:0:0:
252,192,58699,1,0,0:0:0:0:
252,192,59042,1,0,0:0:0:0:
252,192,59385,1,0,0:0:0:0:
252,192,59556,1,0,0:0:0:0:
252,192,59728,1,2,0:0:0:0:
252,192,60413,1,0,0:0:0:0:
252,192,60928,1,0,0:0:0:0:
252,192,61099,1,2,0:0:0:0:
252,192,61442,1,0,0:0:0:0:
252,192,61785,1,0,0:0:0:0:
252,192,62128,1,2,0:0:0:0:
252,192,62299,1,0,0:0:0:0:
252,192,62471,1,2,0:0:0:0:
252,192,62813,1,0,0:0:0:0:
252,192,63156,1,2,0:0:0:0:
252,192,63671,1,0,0:0:0:0:
252,192,63842,1,2,0:0:0:0:
252,192,64185,1,0,0:0:0:0:
252,192,64528,1,0,0:0:0:0:
252,192,64871,1,0,0:0:0:0:
252,192,65042,1,0,0:0:0:0:
252,192,65213,1,2,0:0:0:0:
252,192,65556,1,2,0:0:0:0:
252,192,65899,1,4,0:0:0:0:
252,192,66242,1,2,0:0:0:0:
252,192,66413,1,0,0:0:0:0:
252,192,66499,1,0,0:0:0:0:
252,192,66585,1,0,0:0:0:0:
252,192,66756,1,0,0:0:0:0:
252,192,66928,1,2,0:0:0:0:
252,192,67271,1,2,0:0:0:0:
252,192,67442,1,0,0:0:0:0:
252,192,67613,1,2,0:0:0:0:
252,192,67785,1,0,0:0:0:0:
252,192,67956,1,0,0:0:0:0:
252,192,68042,1,0,0:0:0:0:
252,192,68128,1,0,0:0:0:0:
252,192,68299,1,2,0:0:0:0:
252,192,68642,1,0,0:0:0:0:
252,192,68985,1,2,0:0:0:0:
252,192,69156,1,0,0:0:0:0:
252,192,69242,1,0,0:0:0:0:
252,192,69328,1,0,0:0:0:0:
252,192,69499,1,0,0:0:0:0:
252,192,69671,1,2,0:0:0:0:
252,192,70013,1,0,0:0:0:0:
252,192,70185,1,0,0:0:0:0:
252,192,70356,1,2,0:0:0:0:
252,192,70528,1,0,0:0:0:0:
252,192,70699,1,0,0:0:0:0:
252,192,70785,1,0,0:0:0:0:
252,192,70871,1,0,0:0:0:0:
252,192,71042,1,2,0:0:0:0:
252,192,71385,1,0,0:0:0:0:
252,192,71728,1,2,0:0:0:0:
252,192,71899,1,0,0:0:0:0:
252,192,71985,1,0,0:0:0:0:
252,192,72071,1,0,0:0:0:0:
252,192,72242,1,0,0:0:0:0:
252,192,72413,1,2,0:0:0:0:
252,192,72756,1,0,0:0:0:0:
252,192,72928,1,0,0:0:0:0:
252,192,73099,1,2,0:0:0:0:
252,192,73271,1,0,0:0:0:0:
252,192,73442,1,0,0:0:0:0:
252,192,73528,1,0,0:0:0:0:
252,192,73613,1,0,0:0:0:0:
252,192,73785,1,2,0:0:0:0:
252,192,74128,1,0,0:0:0:0:
252,192,74471,1,2,0:0:0:0:
252,192,74642,1,0,0:0:0:0:
252,192,74728,1,0,0:0:0:0:
252,192,74813,1,0,0:0:0:0:
252,192,74985,1,0,0:0:0:0:
252,192,75156,1,2,0:0:0:0:
252,192,75499,1,0,0:0:0:0:
252,192,75671,1,0,0:0:0:0:
252,192,75842,1,2,0:0:0:0:
252,192,76013,1,0,0:0:0:0:
252,192,76185,1,0,0:0:0:0:
252,192,76271,1,0,0:0:0:0:
252,192,76356,1,0,0:0:0:0:
252,192,76528,1,2,0:0:0:0:
252,192,76871,1,0,0:0:0:0:
252,192,77042,1,0,0:0:0:0:
252,192,77213,1,2,0:0:0:0:
252,192,77385,1,0,0:0:0:0:
252,192,77471,1,0,0:0:0:0:
252,192,77556,1,2,0:0:0:0:
252,192,77642,1,2,0:0:0:0:
252,192,77728,1,0,0:0:0:0:
252,192,77899,1,2,0:0:0:0:
252,192,78242,1,2,0:0:0:0:
252,192,78413,1,0,0:0:0:0:
252,192,78585,1,2,0:0:0:0:
252,192,78756,1,0,0:0:0:0:
252,192,78842,1,2,0:0:0:0:
252,192,78928,1,0,0:0:0:0:
252,192,79013,1,2,0:0:0:0:
252,192,79099,1,0,0:0:0:0:
252,192,79271,1,2,0:0:0:0:
252,192,79613,1,0,0:0:0:0:
252,192,79785,1,0,0:0:0:0:
252,192,79956,1,2,0:0:0:0:
252,192,80128,1,0,0:0:0:0:
252,192,80213,1,0,0:0:0:0:
252,192,80299,1,2,0:0:0:0:
252,192,80385,1,2,0:0:0:0:
252,192,80471,1,0,0:0:0:0:
252,192,80642,1,2,0:0:0:0:
252,192,80985,1,0,0:0:0:0:
252,192,81156,1,0,0:0:0:0:
252,192,81328,1,2,0:0:0:0:
252,192,81499,1,0,0:0:0:0:
252,192,81585,1,2,0:0:0:0:
252,192,81671,1,0,0:0:0:0:
252,192,81756,1,2,0:0:0:0:
252,192,81842,1,0,0:0:0:0:
252,192,82013,1,2,0:0:0:0:
252,192,82356,1,0,0:0:0:0:
252,192,82699,1,2,0:0:0:0:
252,192,83042,1,0,0:0:0:0:
252,192,83385,1,2,0:0:0:0:
252,192,83728,1,0,0:0:0:0:
252,192,84071,1,2,0:0:0:0:
252,192,84413,1,0,0:0:0:0:
252,192,84756,1,2,0:0:0:0:
252,192,85099,1,0,0:0:0:0:
252,192,85271,1,0,0:0:0:0:
252,192,85356,1,0,0:0:0:0:
252,192,85442,1,2,0:0:0:0:
252,192,85613,1,0,0:0:0:0:
252,192,85785,1,0,0:0:0:0:
252,192,85956,1,0,0:0:0:0:
252,192,86042,1,0,0:0:0:0:
252,192,86128,1,2,0:0:0:0:
252,192,86299,1,0,0:0:0:0:
252,192,86471,1,2,0:0:0:0:
252,192,86556,1,2,0:0:0:0:
252,192,86642,1,0,0:0:0:0:
252,192,86728,1,0,0:0:0:0:
252,192,86813,1,2,0:0:0:0:
252,192,86899,1,0,0:0:0:0:
252,192,86985,1,0,0:0:0:0:
252,192,87071,1,0,0:0:0:0:
252,192,87156,1,2,0:0:0:0:
252,192,87242,1,2,0:0:0:0:
252,192,87328,1,0,0:0:0:0:
252,192,87413,1,0,0:0:0:0:
252,192,87499,1,2,0:0:0:0:
252,192,87671,1,0,0:0:0:0:
252,192,87756,1,0,0:0:0:0:
252,192,87842,1,6,0:0:0:0:
252,192,88013,1,0,0:0:0:0:
252,192,88185,1,2,0:0:0:0:
252,192,88356,1,0,0:0:0:0:
252,192,88442,1,2,0:0:0:0:
252,192,88528,1,0,0:0:0:0:
252,192,88613,1,2,0:0:0:0:
252,192,88699,1,0,0:0:0:0:
252,192,88871,1,2,0:0:0:0:
252,192,89042,1,0,0:0:0:0:
252,192,89128,1,0,0:0:0:0:
252,192,89213,1,0,0:0:0:0:
252,192,89385,1,0,0:0:0:0:
252,192,89556,1,2,0:0:0:0:
252,192,89728,1,0,0:0:0:0:
252,192,89813,1,2,0:0:0:0:
252,192,89899,1,0,0:0:0:0:
252,192,89985,1,0,0:0:0:0:
252,192,90071,1,2,0:0:0:0:
252,192,90242,1,2,0:0:0:0:
252,192,90413,1,0,0:0:0:0:
252,192,90585,1,0,0:0:0:0:
252,192,90671,1,2,0:0:0:0:
252,192,90756,1,2,0:0:0:0:
252,192,90928,1,2,0:0:0:0:
252,192,91099,1,2,0:0:0:0:
252,192,91185,1,0,0:0:0:0:
252,192,91271,1,2,0:0:0:0:
252,192,91356,1,0,0:0:0:0:
252,192,91442,1,2,0:0:0:0:
252,192,91613,1,2,0:0:0:0:
252,192,91785,1,0,0:0:0:0:
252,192,91871,1,0,0:0:0:0:
252,192,91956,1,0,0:0:0:0:
252,192,92128,1,2,0:0:0:0:
252,192,92299,1,2,0:0:0:0:
252,192,92471,1,2,0:0:0:0:
252,192,92556,1,0,0:0:0:0:
252,192,92642,1,0,0:0:0:0:
252,192,92728,1,2,0:0:0:0:
257,197,92813,1,0,0:0:0:0:
257,197,92985,1,2,0:0:0:0:
257,197,93156,1,0,0:0:0:0:
257,198,93242,1,2,0:0:0:0:
257,197,93328,1,0,0:0:0:0:
257,197,93499,1,0,0:0:0:0:
257,197,93671,1,2,0:0:0:0:
257,197,93842,1,0,0:0:0:0:
257,197,93928,1,2,0:0:0:0:
257,197,94013,1,2,0:0:0:0:
257,197,94099,1,0,0:0:0:0:
257,197,94185,1,2,0:0:0:0:
257,197,94356,1,2,0:0:0:0:
257,197,94528,1,0,0:0:0:0:
257,197,94613,1,0,0:0:0:0:
257,197,94699,1,0,0:0:0:0:
257,197,94871,1,0,0:0:0:0:
257,197,95042,1,2,0:0:0:0:
257,197,95213,1,0,0:0:0:0:
257,197,95299,1,2,0:0:0:0:
257,197,95385,1,2,0:0:0:0:
257,197,95471,1,2,0:0:0:0:
257,197,95556,1,0,0:0:0:0:
257,197,95728,1,2,0:0:0:0:
257,197,95899,1,0,0:0:0:0:
257,197,96071,1,0,0:0:0:0:
257,197,96156,1,2,0:0:0:0:
257,197,96242,1,2,0:0:0:0:
257,197,96413,1,2,0:0:0:0:
257,197,96585,1,2,0:0:0:0:
257,197,96671,1,2,0:0:0:0:
257,197,96756,1,0,0:0:0:0:
257,197,96842,1,2,0:0:0:0:
257,197,96928,1,0,0:0:0:0:
257,197,97099,1,2,0:0:0:0:
257,197,97271,1,0,0:0:0:0:
257,197,97356,1,0,0:0:0:0:
257,197,97442,1,0,0:0:0:0:
257,197,97613,1,2,0:0:0:0:
257,197,97785,1,2,0:0:0:0:
257,197,97956,1,2,0:0:0:0:
257,197,98042,1,2,0:0:0:0:
257,197,98128,1,2,0:0:0:0:
257,197,98213,1,0,0:0:0:0:
257,197,98299,1,2,0:0:0:0:
257,197,98471,1,2,0:0:0:0:
264,198,98556,1,0,0:0:0:0:
257,197,98642,1,2,0:0:0:0:
257,197,98728,1,2,0:0:0:0:
257,197,98813,1,0,0:0:0:0:
257,197,98985,1,0,0:0:0:0:
257,197,99156,1,2,0:0:0:0:
257,197,99328,1,0,0:0:0:0:
257,197,99413,1,2,0:0:0:0:
257,197,99499,1,0,0:0:0:0:
257,197,99585,1,2,0:0:0:0:
257,197,99671,1,0,0:0:0:0:
257,197,99842,1,2,0:0:0:0:
257,197,100013,1,0,0:0:0:0:
264,198,100099,1,0,0:0:0:0:
257,197,100185,1,0,0:0:0:0:
257,197,100356,1,0,0:0:0:0:
257,197,100528,1,2,0:0:0:0:
257,197,100699,1,0,0:0:0:0:
257,197,100785,1,2,0:0:0:0:
257,197,100871,1,0,0:0:0:0:
257,197,100956,1,0,0:0:0:0:
257,197,101042,1,2,0:0:0:0:
257,197,101213,1,2,0:0:0:0:
257,197,101385,1,0,0:0:0:0:
257,197,101556,1,0,0:0:0:0:
257,197,101642,1,2,0:0:0:0:
257,197,101728,1,2,0:0:0:0:
257,197,101899,1,2,0:0:0:0:
257,197,102071,1,2,0:0:0:0:
257,197,102156,1,0,0:0:0:0:
257,197,102242,1,2,0:0:0:0:
257,197,102328,1,0,0:0:0:0:
257,197,102413,1,2,0:0:0:0:
257,197,102585,1,2,0:0:0:0:
257,197,102756,1,0,0:0:0:0:
257,197,102842,1,0,0:0:0:0:
257,197,102928,1,0,0:0:0:0:
257,197,103099,1,2,0:0:0:0:
257,197,103271,1,2,0:0:0:0:
257,197,103442,1,2,0:0:0:0:
257,197,103528,1,0,0:0:0:0:
257,197,103613,1,0,0:0:0:0:
257,197,103699,1,2,0:0:0:0:
257,197,103785,1,0,0:0:0:0:
257,197,103956,1,2,0:0:0:0:
257,197,104128,1,0,0:0:0:0:
257,197,104213,1,2,0:0:0:0:
257,197,104299,1,0,0:0:0:0:
257,197,104471,1,0,0:0:0:0:
257,197,104642,1,2,0:0:0:0:
257,197,104813,1,0,0:0:0:0:
257,197,104899,1,2,0:0:0:0:
257,197,104985,1,2,0:0:0:0:
257,197,105071,1,0,0:0:0:0:
257,197,105156,1,2,0:0:0:0:
257,197,105328,1,2,0:0:0:0:
257,197,105499,1,0,0:0:0:0:
257,197,105585,1,0,0:0:0:0:
257,197,105671,1,0,0:0:0:0:
257,197,105842,1,0,0:0:0:0:
257,197,106013,1,2,0:0:0:0:
257,197,106185,1,0,0:0:0:0:
257,197,106271,1,2,0:0:0:0:
257,197,106356,1,2,0:0:0:0:
257,197,106442,1,2,0:0:0:0:
257,197,106528,1,0,0:0:0:0:
257,197,106699,1,2,0:0:0:0:
257,197,106871,1,0,0:0:0:0:
257,197,107042,1,0,0:0:0:0:
257,197,107128,1,2,0:0:0:0:
257,197,107213,1,2,0:0:0:0:
257,197,107385,1,2,0:0:0:0:
257,197,107556,1,2,0:0:0:0:
257,197,107642,1,2,0:0:0:0:
257,197,107728,1,0,0:0:0:0:
257,197,107813,1,2,0:0:0:0:
257,197,107899,1,0,0:0:0:0:
257,197,108071,1,2,0:0:0:0:
257,197,108242,1,0,0:0:0:0:
252,192,108413,1,2,0:0:0:0:
252,192,108585,1,0,0:0:0:0:
257,197,108671,1,0,0:0:0:0:
252,192,108756,1,2,0:0:0:0:
252,192,108928,1,0,0:0:0:0:
252,192,109099,1,2,0:0:0:0:
259,190,109185,1,0,0:0:0:0:
252,192,109271,1,0,0:0:0:0:
252,192,109356,1,0,0:0:0:0:
252,192,109442,1,2,0:0:0:0:
252,192,109528,1,2,0:0:0:0:
252,192,109613,1,0,0:0:0:0:
252,192,109785,1,6,0:0:0:0:
259,192,109956,1,0,0:0:0:0:
259,192,110128,1,2,0:0:0:0:
252,192,110299,1,0,0:0:0:0:
252,192,110385,1,0,0:0:0:0:
252,192,110471,1,2,0:0:0:0:
252,192,110642,1,0,0:0:0:0:
252,192,110728,1,2,0:0:0:0:
252,192,110813,1,2,0:0:0:0:
259,192,110985,1,0,0:0:0:0:
259,192,111071,1,0,0:0:0:0:
259,192,111156,1,2,0:0:0:0:
252,192,111242,1,2,0:0:0:0:
252,192,111328,1,0,0:0:0:0:
252,192,111499,1,2,0:0:0:0:
252,192,111671,1,0,0:0:0:0:
252,192,111756,1,0,0:0:0:0:
252,192,111842,1,2,0:0:0:0:
252,194,111928,1,2,0:0:0:0:
259,192,112013,1,0,0:0:0:0:
259,192,112099,1,0,0:0:0:0:
259,192,112185,1,2,0:0:0:0:
252,192,112356,1,0,0:0:0:0:
252,192,112442,1,2,0:0:0:0:
252,192,112528,1,0,0:0:0:0:
252,192,112699,1,2,0:0:0:0:
252,192,112785,1,2,0:0:0:0:
252,192,112871,1,2,0:0:0:0:
246,192,113042,1,0,0:0:0:0:
246,192,113213,1,2,0:0:0:0:
252,192,113299,1,0,0:0:0:0:
252,192,113385,1,0,0:0:0:0:
252,192,113471,1,0,0:0:0:0:
252,192,113556,1,2,0:0:0:0:
252,192,113728,1,0,0:0:0:0:
246,192,113813,1,0,0:0:0:0:
252,192,113899,1,0,0:0:0:0:
246,192,114071,1,2,0:0:0:0:
246,192,114156,1,2,0:0:0:0:
246,192,114242,1,2,0:0:0:0:
252,192,114413,1,0,0:0:0:0:
252,192,114585,1,0,0:0:0:0:
252,192,114671,1,2,0:0:0:0:
252,192,114756,1,0,0:0:0:0:
252,192,114842,1,2,0:0:0:0:
252,192,114928,1,2,0:0:0:0:
253,195,115099,1,2,0:0:0:0:
246,192,115185,1,2,0:0:0:0:
253,190,115271,1,0,0:0:0:0:
252,192,115442,1,0,0:0:0:0:
252,192,115528,1,2,0:0:0:0:
252,192,115613,1,2,0:0:0:0:
252,192,115785,1,0,0:0:0:0:
252,192,115956,1,2,0:0:0:0:
246,192,116042,1,0,0:0:0:0:
246,192,116128,1,0,0:0:0:0:
252,195,116213,1,0,0:0:0:0:
252,195,116299,1,2,0:0:0:0:
252,192,116471,1,0,0:0:0:0:
252,192,116556,1,0,0:0:0:0:
252,192,116642,1,0,0:0:0:0:
252,192,116813,1,0,0:0:0:0:
252,192,116985,1,2,0:0:0:0:
246,192,117156,1,0,0:0:0:0:
252,195,117242,1,0,0:0:0:0:
252,195,117328,1,2,0:0:0:0:
252,192,117413,1,2,0:0:0:0:
252,192,117499,1,0,0:0:0:0:
252,192,117585,1,0,0:0:0:0:
252,192,117671,1,2,0:0:0:0:
252,192,117842,1,2,0:0:0:0:
252,192,117928,1,0,0:0:0:0:
252,192,118013,1,2,0:0:0:0:
246,192,118185,1,0,0:0:0:0:
252,195,118271,1,2,0:0:0:0:
252,195,118356,1,2,0:0:0:0:
252,192,118528,1,0,0:0:0:0:
252,192,118613,1,2,0:0:0:0:
252,192,118699,1,0,0:0:0:0:
252,192,118785,1,2,0:0:0:0:
252,192,118871,1,0,0:0:0:0:
252,192,118956,1,0,0:0:0:0:
252,192,119042,1,2,0:0:0:0:
246,192,119213,1,0,0:0:0:0:
252,195,119385,1,2,0:0:0:0:
252,192,119556,1,0,0:0:0:0:
252,192,119642,1,2,0:0:0:0:
252,192,119728,1,2,0:0:0:0:
252,192,119899,1,0,0:0:0:0:
252,192,119985,1,2,0:0:0:0:
252,192,120071,1,0,0:0:0:0:
252,186,120156,1,2,0:0:0:0:
252,186,120242,1,0,0:0:0:0:
252,186,120328,1,0,0:0:0:0:
252,195,120413,1,2,0:0:0:0:
252,192,120585,1,2,0:0:0:0:
252,192,120671,1,2,0:0:0:0:
252,192,120756,1,0,0:0:0:0:
252,192,120928,1,0,0:0:0:0:
252,192,121013,1,0,0:0:0:0:
253,189,121099,1,2,0:0:0:0:
246,192,121271,1,0,0:0:0:0:
252,195,121442,1,2,0:0:0:0:
252,192,121528,1,0,0:0:0:0:
252,192,121613,1,0,0:0:0:0:
252,192,121699,1,0,0:0:0:0:
252,192,121785,1,2,0:0:0:0:
252,192,121956,1,0,0:0:0:0:
253,189,122128,1,2,0:0:0:0:
253,189,122213,1,2,0:0:0:0:
253,189,122299,1,0,0:0:0:0:
252,195,122385,1,0,0:0:0:0:
252,195,122471,1,2,0:0:0:0:
252,192,122642,1,0,0:0:0:0:
252,192,122813,1,2,0:0:0:0:
252,192,122899,1,0,0:0:0:0:
252,192,122985,1,2,0:0:0:0:
253,189,123071,1,0,0:0:0:0:
253,189,123156,1,2,0:0:0:0:
253,189,123328,1,0,0:0:0:0:
252,195,123413,1,0,0:0:0:0:
252,195,123499,1,2,0:0:0:0:
252,192,123671,1,0,0:0:0:0:
252,192,123842,1,2,0:0:0:0:
253,189,124013,1,0,0:0:0:0:
253,189,124099,1,0,0:0:0:0:
253,189,124185,1,2,0:0:0:0:
253,189,124271,1,0,0:0:0:0:
253,189,124356,1,0,0:0:0:0:
254,187,124442,1,0,0:0:0:0:
254,187,124528,1,2,0:0:0:0:
252,192,124699,1,0,0:0:0:0:
252,192,124785,1,0,0:0:0:0:
252,192,124871,1,0,0:0:0:0:
253,189,125042,1,2,0:0:0:0:
253,189,125128,1,2,0:0:0:0:
253,189,125213,1,2,0:0:0:0:
253,189,125385,1,0,0:0:0:0:
254,187,125471,1,0,0:0:0:0:
254,187,125556,1,2,0:0:0:0:
254,184,125642,1,2,0:0:0:0:
257,184,125728,1,0,0:0:0:0:
257,184,125813,1,0,0:0:0:0:
257,184,125899,1,2,0:0:0:0:
253,189,126071,1,2,0:0:0:0:
253,189,126156,1,2,0:0:0:0:
253,189,126242,1,0,0:0:0:0:
253,189,126413,1,0,0:0:0:0:
254,187,126585,1,2,0:0:0:0:
257,184,126756,1,0,0:0:0:0:
257,184,126842,1,2,0:0:0:0:
257,184,126928,1,2,0:0:0:0:
253,189,127013,1,0,0:0:0:0:
253,189,127099,1,0,0:0:0:0:
253,189,127185,1,0,0:0:0:0:
253,189,127271,1,2,0:0:0:0:
253,189,127442,1,0,0:0:0:0:
254,187,127528,1,0,0:0:0:0:
254,187,127613,1,0,0:0:0:0:
257,184,127785,1,2,0:0:0:0:
252,192,127871,1,2,0:0:0:0:
257,184,127956,1,2,0:0:0:0:
253,189,128128,1,0,0:0:0:0:
253,189,128213,1,0,0:0:0:0:
253,189,128299,1,2,0:0:0:0:
253,189,128385,1,0,0:0:0:0:
253,189,128471,1,0,0:0:0:0:
254,187,128556,1,0,0:0:0:0:
254,187,128642,1,2,0:0:0:0:
252,193,128813,1,2,0:0:0:0:
257,184,128985,1,0,0:0:0:0:
253,189,129156,1,0,0:0:0:0:
253,189,129242,1,0,0:0:0:0:
253,189,129328,1,2,0:0:0:0:
253,189,129499,1,0,0:0:0:0:
254,187,129671,1,2,0:0:0:0:
257,184,129756,1,2,0:0:0:0:
257,184,129842,1,0,0:0:0:0:
257,184,129928,1,0,0:0:0:0:
257,184,130013,1,2,0:0:0:0:
253,189,130185,1,0,0:0:0:0:
253,189,130356,1,0,0:0:0:0:
254,187,130699,1,0,0:0:0:0:
254,191,130871,1,2,0:0:0:0:
257,184,131042,1,2,0:0:0:0:
253,189,131128,1,0,0:0:0:0:
253,189,131213,1,2,0:0:0:0:
253,189,131299,1,0,0:0:0:0:
253,189,131385,1,2,0:0:0:0:
254,187,131471,1,0,0:0:0:0:
254,187,131556,1,2,0:0:0:0:
254,187,131642,1,2,0:0:0:0:
254,187,131728,1,4,0:0:0:0:
257,181,132242,1,0,0:0:0:0:
257,181,132413,1,2,0:0:0:0:
254,187,132756,1,0,0:0:0:0:
257,181,132928,1,0,0:0:0:0:
257,181,133099,1,2,0:0:0:0:
257,181,133442,1,2,0:0:0:0:
254,187,133613,1,0,0:0:0:0:
254,187,133785,1,2,0:0:0:0:
257,181,134128,1,2,0:0:0:0:
257,181,134471,1,0,0:0:0:0:
257,181,134985,1,0,0:0:0:0:
257,181,135156,1,2,0:0:0:0:
257,181,135499,1,0,0:0:0:0:
251,189,135671,1,2,0:0:0:0:
257,181,135842,1,0,0:0:0:0:
251,189,136013,1,2,0:0:0:0:
257,181,136185,1,0,0:0:0:0:
257,181,136356,1,0,0:0:0:0:
257,181,136528,1,2,0:0:0:0:
251,189,136699,1,2,0:0:0:0:
251,189,136871,1,0,0:0:0:0:
251,189,137042,1,2,0:0:0:0:
257,181,137213,1,0,0:0:0:0:
257,181,137728,1,0,0:0:0:0:
257,181,137899,1,2,0:0:0:0:
257,181,138242,1,0,0:0:0:0:
257,181,138585,1,2,0:0:0:0:
257,181,138928,1,0,0:0:0:0:
257,181,139099,1,0,0:0:0:0:
257,181,139271,1,2,0:0:0:0:
257,181,139613,1,2,0:0:0:0:
257,181,139956,1,2,0:0:0:0:
257,181,140128,1,0,0:0:0:0:
257,181,140471,1,0,0:0:0:0:
257,181,140642,1,2,0:0:0:0:
257,181,140985,1,0,0:0:0:0:
257,181,141156,1,2,0:0:0:0:
257,181,141328,1,0,0:0:0:0:
257,181,141671,1,0,0:0:0:0:
257,181,141842,1,0,0:0:0:0:
257,181,142013,1,2,0:0:0:0:
257,181,142356,1,0,0:0:0:0:
257,181,142699,1,2,0:0:0:0:
257,181,143213,1,0,0:0:0:0:
257,181,143385,1,2,0:0:0:0:
257,181,143728,1,0,0:0:0:0:
257,181,144071,1,2,0:0:0:0:
257,181,144585,1,0,0:0:0:0:
257,181,144756,1,2,0:0:0:0:
257,181,145099,1,2,0:0:0:0:
257,181,145271,1,2,0:0:0:0:
257,181,145442,1,0,0:0:0:0:
257,181,145956,1,0,0:0:0:0:
257,181,146128,1,2,0:0:0:0:
257,181,146471,1,0,0:0:0:0:
257,181,146813,1,2,0:0:0:0:
257,181,146985,1,0,0:0:0:0:
257,181,147156,1,0,0:0:0:0:
257,181,147328,1,0,0:0:0:0:
257,181,147499,1,2,0:0:0:0:
257,181,147842,1,2,0:0:0:0:
257,181,148013,1,2,0:0:0:0:
257,181,148185,1,0,0:0:0:0:
257,181,148356,1,2,0:0:0:0:
257,181,148528,1,0,0:0:0:0:
257,181,148699,1,0,0:0:0:0:
257,181,148871,1,2,0:0:0:0:
257,181,149042,1,0,0:0:0:0:
257,181,149213,1,2,0:0:0:0:
257,181,149385,1,0,0:0:0:0:
257,181,149556,1,0,0:0:0:0:
257,181,149728,1,2,0:0:0:0:
257,181,149899,1,0,0:0:0:0:
257,181,150071,1,0,0:0:0:0:
257,181,150242,1,2,0:0:0:0:
257,181,150585,1,0,0:0:0:0:
257,181,150756,1,2,0:0:0:0:
257,181,150928,1,0,0:0:0:0:
257,181,151442,1,0,0:0:0:0:
257,181,151613,1,2,0:0:0:0:
257,181,151956,1,0,0:0:0:0:
257,181,152299,1,0,0:0:0:0:
257,181,152471,1,2,0:0:0:0:
257,181,152642,1,0,0:0:0:0:
257,181,152813,1,0,0:0:0:0:
257,181,152985,1,2,0:0:0:0:
257,181,153071,1,2,0:0:0:0:
257,181,153156,1,2,0:0:0:0:
257,181,153328,1,0,0:0:0:0:
257,181,153413,1,0,0:0:0:0:
257,181,153499,1,0,0:0:0:0:
257,181,153671,1,6,0:0:0:0:
257,181,154185,1,0,0:0:0:0:
257,181,154356,1,2,0:0:0:0:
257,181,154442,1,0,0:0:0:0:
257,181,154528,1,2,0:0:0:0:
257,181,154699,1,2,0:0:0:0:
257,181,154871,1,0,0:0:0:0:
257,181,155042,1,2,0:0:0:0:
257,181,155385,1,2,0:0:0:0:
257,181,155556,1,0,0:0:0:0:
257,181,155728,1,2,0:0:0:0:
257,181,156071,1,0,0:0:0:0:
257,181,156156,1,0,0:0:0:0:
257,181,156242,1,2,0:0:0:0:
257,181,156328,1,0,0:0:0:0:
257,181,156413,1,2,0:0:0:0:
257,181,156928,1,0,0:0:0:0:
257,181,157099,1,2,0:0:0:0:
257,181,157185,1,2,0:0:0:0:
257,181,157271,1,0,0:0:0:0:
257,181,157442,1,2,0:0:0:0:
257,181,157613,1,0,0:0:0:0:
257,181,157785,1,2,0:0:0:0:
257,181,157956,1,2,0:0:0:0:
257,181,158128,1,0,0:0:0:0:
257,181,158299,1,0,0:0:0:0:
257,181,158471,1,2,0:0:0:0:
257,181,158813,1,2,0:0:0:0:
257,181,158899,1,2,0:0:0:0:
257,181,158985,1,0,0:0:0:0:
257,181,159071,1,2,0:0:0:0:
257,181,159156,1,0,0:0:0:0:
257,181,159499,1,0,0:0:0:0:
257,181,159671,1,0,0:0:0:0:
257,181,159842,1,2,0:0:0:0:
257,181,160013,1,0,0:0:0:0:
257,181,160099,1,0,0:0:0:0:
257,181,160185,1,2,0:0:0:0:
257,181,160528,1,2,0:0:0:0:
257,181,160871,1,2,0:0:0:0:
257,181,161042,1,0,0:0:0:0:
257,181,161213,1,2,0:0:0:0:
257,181,161556,1,0,0:0:0:0:
257,181,161642,1,2,0:0:0:0:
257,181,161728,1,0,0:0:0:0:
257,181,161813,1,0,0:0:0:0:
257,181,161899,1,2,0:0:0:0:
257,181,162242,1,2,0:0:0:0:
257,181,162413,1,0,0:0:0:0:
257,181,162499,1,0,0:0:0:0:
257,181,162585,1,2,0:0:0:0:
257,181,162756,1,0,0:0:0:0:
257,181,162928,1,2,0:0:0:0:
257,181,163271,1,2,0:0:0:0:
257,181,163442,1,0,0:0:0:0:
257,181,163613,1,2,0:0:0:0:
257,181,163785,1,0,0:0:0:0:
257,181,163956,1,2,0:0:0:0:
257,181,164128,1,0,0:0:0:0:
257,181,164299,1,2,0:0:0:0:
257,181,164471,1,2,0:0:0:0:
257,181,164642,1,0,0:0:0:0:
257,181,165156,1,0,0:0:0:0:
257,181,165328,1,2,0:0:0:0:
257,181,165413,1,0,0:0:0:0:
257,181,165499,1,2,0:0:0:0:
257,181,165671,1,2,0:0:0:0:
257,181,165842,1,0,0:0:0:0:
257,181,166013,1,2,0:0:0:0:
257,181,166356,1,2,0:0:0:0:
257,181,166528,1,0,0:0:0:0:
257,181,166699,1,2,0:0:0:0:
257,181,167042,1,0,0:0:0:0:
257,181,167128,1,0,0:0:0:0:
257,181,167213,1,2,0:0:0:0:
257,181,167299,1,0,0:0:0:0:
257,181,167385,1,2,0:0:0:0:
257,181,167899,1,0,0:0:0:0:
257,181,168071,1,2,0:0:0:0:
257,181,168156,1,2,0:0:0:0:
257,181,168242,1,0,0:0:0:0:
257,181,168413,1,2,0:0:0:0:
257,181,168585,1,2,0:0:0:0:
257,181,168756,1,2,0:0:0:0:
257,181,168928,1,0,0:0:0:0:
257,181,169099,1,2,0:0:0:0:
257,181,169271,1,0,0:0:0:0:
257,181,169442,1,2,0:0:0:0:
257,181,169613,1,2,0:0:0:0:
257,181,169785,1,2,0:0:0:0:
257,181,169871,1,2,0:0:0:0:
257,181,169956,1,0,0:0:0:0:
257,181,170042,1,2,0:0:0:0:
257,181,170128,1,0,0:0:0:0:
257,181,170471,1,0,0:0:0:0:
257,181,170642,1,0,0:0:0:0:
257,181,170813,1,2,0:0:0:0:
257,181,170985,1,0,0:0:0:0:
257,181,171071,1,0,0:0:0:0:
257,181,171156,1,2,0:0:0:0:
257,181,171499,1,2,0:0:0:0:
257,181,171842,1,2,0:0:0:0:
257,181,172013,1,0,0:0:0:0:
257,181,172185,1,2,0:0:0:0:
257,181,172528,1,0,0:0:0:0:
257,181,172613,1,2,0:0:0:0:
257,181,172699,1,0,0:0:0:0:
257,181,172785,1,0,0:0:0:0:
257,181,172871,1,2,0:0:0:0:
257,181,173213,1,2,0:0:0:0:
257,181,173385,1,0,0:0:0:0:
257,181,173471,1,0,0:0:0:0:
257,181,173556,1,2,0:0:0:0:
257,181,173728,1,0,0:0:0:0:
257,181,173899,1,2,0:0:0:0:
257,181,174071,1,2,0:0:0:0:
257,181,174242,1,0,0:0:0:0:
257,181,174328,1,2,0:0:0:0:
257,181,174413,1,2,0:0:0:0:
257,181,174499,1,0,0:0:0:0:
257,181,174585,1,2,0:0:0:0:
257,181,174671,1,2,0:0:0:0:
257,181,174756,1,0,0:0:0:0:
257,181,174842,1,0,0:0:0:0:
257,181,174928,1,2,0:0:0:0:
257,181,175099,1,2,0:0:0:0:
257,181,175271,1,0,0:0:0:0:
257,181,175442,1,0,0:0:0:0:
257,181,175613,1,6,0:0:0:0:
258,175,176985,1,0,0:0:0:0:
258,175,178356,1,2,0:0:0:0:
258,175,179728,1,0,0:0:0:0:
254,177,181099,1,2,0:0:0:0:
254,177,182471,1,0,0:0:0:0:
254,177,183842,1,2,0:0:0:0:
254,179,186585,1,2,0:0:0:0:
254,179,187956,1,0,0:0:0:0:
254,179,189328,1,2,0:0:0:0:
254,179,190699,1,0,0:0:0:0:
254,179,192071,1,2,0:0:0:0:
254,179,193442,1,0,0:0:0:0:
254,179,194813,1,2,0:0:0:0:
254,179,197556,1,2,0:0:0:0:
254,179,198928,1,0,0:0:0:0:
254,179,199613,1,2,0:0:0:0:
254,179,200299,1,0,0:0:0:0:
254,179,201671,1,0,0:0:0:0:
254,179,202356,1,0,0:0:0:0:
254,179,202699,1,2,0:0:0:0:
254,179,203042,1,2,0:0:0:0:
253,180,204413,1,0,0:0:0:0:
253,180,205099,1,0,0:0:0:0:
253,180,205442,1,2,0:0:0:0:
253,180,205785,1,0,0:0:0:0:
253,180,208528,1,0,0:0:0:0:
253,180,208871,1,2,0:0:0:0:
253,180,209213,1,2,0:0:0:0:
253,180,209385,1,0,0:0:0:0:
253,180,209556,1,2,0:0:0:0:
253,180,209899,1,0,0:0:0:0:
253,180,210071,1,0,0:0:0:0:
253,180,210242,1,2,0:0:0:0:
253,180,210585,1,2,0:0:0:0:
253,180,210756,1,0,0:0:0:0:
253,180,210928,1,2,0:0:0:0:
253,180,211271,1,0,0:0:0:0:
253,180,211442,1,0,0:0:0:0:
253,180,211613,1,2,0:0:0:0:
253,180,212128,1,0,0:0:0:0:
253,180,212299,1,2,0:0:0:0:
253,180,212642,1,0,0:0:0:0:
253,180,212813,1,0,0:0:0:0:
253,180,212985,1,2,0:0:0:0:
253,180,213328,1,2,0:0:0:0:
253,180,213499,1,0,0:0:0:0:
253,180,213671,1,2,0:0:0:0:
253,180,213842,1,0,0:0:0:0:
253,180,214013,1,0,0:0:0:0:
253,180,214356,1,2,0:0:0:0:
253,180,214699,1,0,0:0:0:0:
253,180,215042,1,2,0:0:0:0:
253,180,215385,1,0,0:0:0:0:
253,180,215728,1,2,0:0:0:0:
253,180,216071,1,0,0:0:0:0:
253,180,216413,1,2,0:0:0:0:
253,180,216756,1,0,0:0:0:0:
253,180,216928,1,0,0:0:0:0:
253,180,217013,1,0,0:0:0:0:
253,180,217099,1,2,0:0:0:0:
253,180,217271,1,0,0:0:0:0:
253,180,217442,1,0,0:0:0:0:
253,180,217613,1,0,0:0:0:0:
253,180,217699,1,0,0:0:0:0:
253,180,217785,1,2,0:0:0:0:
253,180,217956,1,0,0:0:0:0:
253,180,218128,1,2,0:0:0:0:
253,180,218213,1,2,0:0:0:0:
253,180,218299,1,0,0:0:0:0:
253,180,218385,1,0,0:0:0:0:
253,180,218471,1,2,0:0:0:0:
253,180,218556,1,0,0:0:0:0:
253,180,218642,1,0,0:0:0:0:
253,180,218728,1,0,0:0:0:0:
253,180,218813,1,2,0:0:0:0:
253,180,218899,1,2,0:0:0:0:
253,180,218985,1,0,0:0:0:0:
253,180,219071,1,0,0:0:0:0:
253,180,219156,1,2,0:0:0:0:
253,180,219242,1,0,0:0:0:0:
253,180,219328,1,0,0:0:0:0:
258,184,219413,1,0,0:0:0:0:
253,180,219499,1,6,0:0:0:0:
252,192,219671,1,0,0:0:0:0:
255,187,219756,1,0,0:0:0:0:
252,192,219842,1,2,0:0:0:0:
252,192,220013,1,0,0:0:0:0:
252,192,220099,1,2,0:0:0:0:
252,192,220185,1,0,0:0:0:0:
254,194,220356,1,0,0:0:0:0:
252,192,220528,1,2,0:0:0:0:
252,192,220613,1,2,0:0:0:0:
252,192,220699,1,0,0:0:0:0:
256,178,220785,1,0,0:0:0:0:
252,192,220871,1,0,0:0:0:0:
252,192,221042,1,0,0:0:0:0:
252,192,221128,1,0,0:0:0:0:
252,192,221213,1,2,0:0:0:0:
252,192,221385,1,0,0:0:0:0:
252,192,221471,1,2,0:0:0:0:
252,192,221556,1,0,0:0:0:0:
252,192,221728,1,0,0:0:0:0:
252,192,221899,1,2,0:0:0:0:
252,192,221985,1,2,0:0:0:0:
252,192,222071,1,0,0:0:0:0:
256,178,222156,1,2,0:0:0:0:
252,192,222242,1,0,0:0:0:0:
252,192,222413,1,2,0:0:0:0:
252,192,222499,1,2,0:0:0:0:
252,192,222585,1,2,0:0:0:0:
252,192,222756,1,2,0:0:0:0:
252,192,222842,1,0,0:0:0:0:
252,192,222928,1,2,0:0:0:0:
252,192,223099,1,2,0:0:0:0:
252,192,223271,1,2,0:0:0:0:
252,192,223356,1,0,0:0:0:0:
252,192,223442,1,0,0:0:0:0:
256,178,223528,1,2,0:0:0:0:
252,192,223613,1,0,0:0:0:0:
252,192,223785,1,2,0:0:0:0:
252,192,223871,1,2,0:0:0:0:
252,192,223956,1,2,0:0:0:0:
252,192,224128,1,2,0:0:0:0:
252,192,224213,1,0,0:0:0:0:
252,192,224299,1,0,0:0:0:0:
257,197,224471,1,0,0:0:0:0:
257,197,224642,1,2,0:0:0:0:
252,192,224728,1,2,0:0:0:0:
252,192,224813,1,0,0:0:0:0:
256,178,224899,1,0,0:0:0:0:
257,197,224985,1,0,0:0:0:0:
257,197,225156,1,0,0:0:0:0:
252,192,225242,1,0,0:0:0:0:
257,197,225328,1,2,0:0:0:0:
257,197,225499,1,0,0:0:0:0:
257,197,225585,1,2,0:0:0:0:
257,197,225671,1,2,0:0:0:0:
257,197,225842,1,0,0:0:0:0:
257,197,226013,1,2,0:0:0:0:
258,197,226099,1,2,0:0:0:0:
257,197,226185,1,0,0:0:0:0:
256,178,226271,1,2,0:0:0:0:
257,197,226356,1,0,0:0:0:0:
257,197,226528,1,0,0:0:0:0:
257,197,226613,1,2,0:0:0:0:
257,197,226699,1,2,0:0:0:0:
257,197,226871,1,0,0:0:0:0:
257,197,226956,1,0,0:0:0:0:
257,197,227042,1,2,0:0:0:0:
257,197,227213,1,0,0:0:0:0:
257,197,227385,1,2,0:0:0:0:
257,197,227471,1,0,0:0:0:0:
257,197,227556,1,0,0:0:0:0:
256,178,227642,1,2,0:0:0:0:
257,197,227728,1,0,0:0:0:0:
257,197,227899,1,2,0:0:0:0:
257,197,227985,1,0,0:0:0:0:
257,197,228071,1,2,0:0:0:0:
257,197,228242,1,2,0:0:0:0:
257,197,228328,1,2,0:0:0:0:
257,197,228413,1,0,0:0:0:0:
257,197,228585,1,0,0:0:0:0:
257,197,228756,1,2,0:0:0:0:
257,197,228842,1,0,0:0:0:0:
257,197,228928,1,0,0:0:0:0:
256,178,229013,1,0,0:0:0:0:
257,197,229099,1,0,0:0:0:0:
257,197,229271,1,2,0:0:0:0:
257,197,229356,1,0,0:0:0:0:
257,197,229442,1,2,0:0:0:0:
257,197,229613,1,2,0:0:0:0:
257,197,229699,1,2,0:0:0:0:
257,197,229785,1,0,0:0:0:0:
257,197,229871,1,0,0:0:0:0:
257,197,229956,1,0,0:0:0:0:
257,197,230128,1,2,0:0:0:0:
257,197,230213,1,0,0:0:0:0:
257,197,230299,1,0,0:0:0:0:
257,197,230385,1,0,0:0:0:0:
257,197,230471,1,2,0:0:0:0:
252,192,230642,1,0,0:0:0:0:
255,187,230728,1,0,0:0:0:0:
252,192,230813,1,2,0:0:0:0:
252,192,230985,1,0,0:0:0:0:
252,192,231071,1,2,0:0:0:0:
252,192,231156,1,0,0:0:0:0:
254,194,231328,1,0,0:0:0:0:
252,192,231499,1,2,0:0:0:0:
252,192,231585,1,2,0:0:0:0:
252,192,231671,1,0,0:0:0:0:
256,178,231756,1,0,0:0:0:0:
252,192,231842,1,0,0:0:0:0:
252,192,232013,1,0,0:0:0:0:
252,192,232099,1,0,0:0:0:0:
252,192,232185,1,2,0:0:0:0:
252,192,232356,1,0,0:0:0:0:
252,192,232442,1,2,0:0:0:0:
252,192,232528,1,0,0:0:0:0:
252,192,232699,1,0,0:0:0:0:
252,192,232871,1,2,0:0:0:0:
252,192,232956,1,2,0:0:0:0:
252,192,233042,1,0,0:0:0:0:
256,178,233128,1,2,0:0:0:0:
252,192,233213,1,0,0:0:0:0:
252,192,233385,1,2,0:0:0:0:
252,192,233471,1,2,0:0:0:0:
252,192,233556,1,2,0:0:0:0:
252,192,233728,1,2,0:0:0:0:
252,192,233813,1,0,0:0:0:0:
252,192,233899,1,2,0:0:0:0:
252,192,234071,1,0,0:0:0:0:
252,192,234242,1,2,0:0:0:0:
252,192,234328,1,0,0:0:0:0:
252,192,234413,1,0,0:0:0:0:
256,178,234499,1,2,0:0:0:0:
252,192,234585,1,0,0:0:0:0:
252,192,234756,1,2,0:0:0:0:
252,192,234842,1,2,0:0:0:0:
252,192,234928,1,2,0:0:0:0:
252,192,235099,1,2,0:0:0:0:
252,192,235185,1,0,0:0:0:0:
252,192,235271,1,0,0:0:0:0:
257,197,235442,1,0,0:0:0:0:
257,197,235613,1,2,0:0:0:0:
252,192,235699,1,2,0:0:0:0:
252,192,235785,1,0,0:0:0:0:
256,178,235871,1,0,0:0:0:0:
257,197,235956,1,0,0:0:0:0:
257,197,236128,1,0,0:0:0:0:
252,192,236213,1,0,0:0:0:0:
257,197,236299,1,2,0:0:0:0:
257,197,236471,1,0,0:0:0:0:
257,197,236556,1,2,0:0:0:0:
257,197,236642,1,2,0:0:0:0:
257,197,236813,1,0,0:0:0:0:
257,197,236985,1,2,0:0:0:0:
258,197,237071,1,2,0:0:0:0:
257,197,237156,1,0,0:0:0:0:
256,178,237242,1,2,0:0:0:0:
257,197,237328,1,0,0:0:0:0:
257,197,237499,1,0,0:0:0:0:
257,197,237585,1,2,0:0:0:0:
257,197,237671,1,2,0:0:0:0:
257,197,237842,1,0,0:0:0:0:
257,197,237928,1,0,0:0:0:0:
257,197,238013,1,2,0:0:0:0:
257,197,238185,1,0,0:0:0:0:
257,197,238356,1,2,0:0:0:0:
257,197,238442,1,0,0:0:0:0:
257,197,238528,1,0,0:0:0:0:
257,197,238613,1,2,0:0:0:0:
257,197,238699,1,0,0:0:0:0:
257,197,238871,1,2,0:0:0:0:
257,197,238956,1,0,0:0:0:0:
257,197,239042,1,2,0:0:0:0:
257,197,239213,1,2,0:0:0:0:
257,197,239299,1,2,0:0:0:0:
257,197,239385,1,0,0:0:0:0:
257,197,239556,1,0,0:0:0:0:
257,197,239728,1,2,0:0:0:0:
257,197,239813,1,0,0:0:0:0:
257,197,239899,1,0,0:0:0:0:
257,197,240071,1,2,0:0:0:0:
252,192,240242,1,0,0:0:0:0:
257,197,240328,1,0,0:0:0:0:
252,192,240413,1,2,0:0:0:0:
252,192,240585,1,0,0:0:0:0:
257,197,240756,1,2,0:0:0:0:
257,197,240842,1,0,0:0:0:0:
252,192,240928,1,0,0:0:0:0:
252,192,241013,1,0,0:0:0:0:
252,192,241099,1,2,0:0:0:0:
252,192,241185,1,2,0:0:0:0:
252,192,241271,1,0,0:0:0:0:
252,192,241442,1,6,0:0:0:0:
259,192,241613,1,0,0:0:0:0:
259,192,241785,1,2,0:0:0:0:
252,192,241956,1,0,0:0:0:0:
252,192,242042,1,0,0:0:0:0:
252,192,242128,1,2,0:0:0:0:
252,192,242299,1,0,0:0:0:0:
252,192,242385,1,2,0:0:0:0:
252,192,242471,1,2,0:0:0:0:
259,192,242642,1,0,0:0:0:0:
259,192,242728,1,0,0:0:0:0:
259,192,242813,1,2,0:0:0:0:
252,192,242899,1,2,0:0:0:0:
252,192,242985,1,0,0:0:0:0:
252,192,243156,1,2,0:0:0:0:
252,192,243328,1,0,0:0:0:0:
252,192,243413,1,0,0:0:0:0:
252,192,243499,1,2,0:0:0:0:
252,194,243585,1,2,0:0:0:0:
259,192,243671,1,0,0:0:0:0:
259,192,243756,1,0,0:0:0:0:
259,192,243842,1,2,0:0:0:0:
252,192,244013,1,0,0:0:0:0:
252,192,244099,1,2,0:0:0:0:
252,192,244185,1,0,0:0:0:0:
252,192,244356,1,2,0:0:0:0:
252,192,244442,1,2,0:0:0:0:
252,192,244528,1,2,0:0:0:0:
246,192,244699,1,0,0:0:0:0:
246,192,244871,1,2,0:0:0:0:
252,192,244956,1,0,0:0:0:0:
252,192,245042,1,0,0:0:0:0:
252,192,245128,1,0,0:0:0:0:
252,192,245213,1,2,0:0:0:0:
252,192,245385,1,0,0:0:0:0:
246,192,245471,1,0,0:0:0:0:
252,192,245556,1,0,0:0:0:0:
246,192,245728,1,2,0:0:0:0:
246,192,245813,1,2,0:0:0:0:
246,192,245899,1,2,0:0:0:0:
252,192,246071,1,0,0:0:0:0:
252,192,246242,1,0,0:0:0:0:
252,192,246328,1,2,0:0:0:0:
252,192,246413,1,0,0:0:0:0:
252,192,246499,1,2,0:0:0:0:
252,192,246585,1,2,0:0:0:0:
253,195,246756,1,2,0:0:0:0:
246,192,246842,1,2,0:0:0:0:
253,190,246928,1,0,0:0:0:0:
252,192,247099,1,0,0:0:0:0:
252,192,247185,1,2,0:0:0:0:
252,192,247271,1,2,0:0:0:0:
252,192,247442,1,0,0:0:0:0:
252,192,247613,1,2,0:0:0:0:
246,192,247699,1,0,0:0:0:0:
246,192,247785,1,0,0:0:0:0:
252,195,247871,1,0,0:0:0:0:
252,195,247956,1,2,0:0:0:0:
252,192,248128,1,0,0:0:0:0:
252,192,248213,1,0,0:0:0:0:
252,192,248299,1,0,0:0:0:0:
252,192,248471,1,0,0:0:0:0:
252,192,248642,1,2,0:0:0:0:
246,192,248813,1,0,0:0:0:0:
252,195,248899,1,0,0:0:0:0:
252,195,248985,1,2,0:0:0:0:
252,192,249071,1,2,0:0:0:0:
252,192,249156,1,0,0:0:0:0:
252,192,249242,1,0,0:0:0:0:
252,192,249328,1,2,0:0:0:0:
252,192,249499,1,2,0:0:0:0:
252,192,249585,1,0,0:0:0:0:
252,192,249671,1,2,0:0:0:0:
246,192,249842,1,0,0:0:0:0:
252,195,249928,1,2,0:0:0:0:
252,195,250013,1,2,0:0:0:0:
252,192,250185,1,0,0:0:0:0:
252,192,250271,1,2,0:0:0:0:
252,192,250356,1,0,0:0:0:0:
252,192,250442,1,2,0:0:0:0:
252,192,250528,1,0,0:0:0:0:
252,192,250613,1,0,0:0:0:0:
252,192,250699,1,2,0:0:0:0:
246,192,250871,1,0,0:0:0:0:
252,195,251042,1,2,0:0:0:0:
252,192,251213,1,0,0:0:0:0:
252,192,251299,1,2,0:0:0:0:
252,192,251385,1,2,0:0:0:0:
252,192,251556,1,0,0:0:0:0:
252,192,251642,1,2,0:0:0:0:
252,192,251728,1,0,0:0:0:0:
246,192,251813,1,2,0:0:0:0:
246,192,251899,1,0,0:0:0:0:
252,195,251985,1,0,0:0:0:0:
252,195,252071,1,2,0:0:0:0:
252,192,252242,1,2,0:0:0:0:
252,192,252328,1,2,0:0:0:0:
252,192,252413,1,0,0:0:0:0:
252,192,252585,1,0,0:0:0:0:
252,192,252671,1,0,0:0:0:0:
253,189,252756,1,2,0:0:0:0:
246,192,252928,1,0,0:0:0:0:
252,195,253099,1,2,0:0:0:0:
252,192,253185,1,0,0:0:0:0:
252,192,253271,1,0,0:0:0:0:
252,192,253356,1,0,0:0:0:0:
252,192,253442,1,2,0:0:0:0:
252,192,253613,1,0,0:0:0:0:
253,189,253785,1,2,0:0:0:0:
253,189,253871,1,2,0:0:0:0:
253,189,253956,1,0,0:0:0:0:
252,195,254042,1,0,0:0:0:0:
252,195,254128,1,2,0:0:0:0:
252,192,254299,1,0,0:0:0:0:
252,192,254471,1,2,0:0:0:0:
252,192,254556,1,0,0:0:0:0:
252,192,254642,1,2,0:0:0:0:
253,189,254728,1,0,0:0:0:0:
253,189,254813,1,2,0:0:0:0:
253,189,254985,1,0,0:0:0:0:
252,195,255071,1,0,0:0:0:0:
252,195,255156,1,2,0:0:0:0:
252,192,255328,1,0,0:0:0:0:
252,192,255499,1,2,0:0:0:0:
253,189,255671,1,0,0:0:0:0:
253,189,255756,1,0,0:0:0:0:
253,189,255842,1,2,0:0:0:0:
253,189,255928,1,0,0:0:0:0:
253,189,256013,1,0,0:0:0:0:
254,187,256099,1,0,0:0:0:0:
254,187,256185,1,2,0:0:0:0:
252,192,256356,1,0,0:0:0:0:
252,192,256442,1,0,0:0:0:0:
252,192,256528,1,0,0:0:0:0:
253,189,256699,1,2,0:0:0:0:
253,189,256785,1,2,0:0:0:0:
253,189,256871,1,2,0:0:0:0:
253,189,257042,1,0,0:0:0:0:
254,187,257128,1,0,0:0:0:0:
254,187,257213,1,2,0:0:0:0:
254,184,257299,1,2,0:0:0:0:
257,184,257385,1,0,0:0:0:0:
257,184,257471,1,0,0:0:0:0:
257,184,257556,1,2,0:0:0:0:
253,189,257728,1,2,0:0:0:0:
253,189,257813,1,2,0:0:0:0:
253,189,257899,1,0,0:0:0:0:
253,189,258071,1,0,0:0:0:0:
254,187,258242,1,2,0:0:0:0:
257,184,258413,1,0,0:0:0:0:
257,184,258499,1,2,0:0:0:0:
257,184,258585,1,2,0:0:0:0:
253,189,258671,1,0,0:0:0:0:
253,189,258756,1,0,0:0:0:0:
253,189,258842,1,0,0:0:0:0:
253,189,258928,1,2,0:0:0:0:
253,189,259099,1,0,0:0:0:0:
254,187,259185,1,0,0:0:0:0:
254,187,259271,1,0,0:0:0:0:
257,184,259442,1,2,0:0:0:0:
252,192,259528,1,2,0:0:0:0:
257,184,259613,1,2,0:0:0:0:
253,189,259785,1,0,0:0:0:0:
253,189,259871,1,0,0:0:0:0:
253,189,259956,1,2,0:0:0:0:
253,189,260042,1,0,0:0:0:0:
253,189,260128,1,0,0:0:0:0:
254,187,260213,1,0,0:0:0:0:
254,187,260299,1,2,0:0:0:0:
252,193,260471,1,2,0:0:0:0:
257,184,260642,1,0,0:0:0:0:
253,189,260813,1,0,0:0:0:0:
253,189,260899,1,0,0:0:0:0:
253,189,260985,1,2,0:0:0:0:
253,189,261156,1,0,0:0:0:0:
254,187,261328,1,2,0:0:0:0:
257,184,261413,1,2,0:0:0:0:
257,184,261499,1,0,0:0:0:0:
257,184,261585,1,0,0:0:0:0:
257,184,261671,1,2,0:0:0:0:
253,189,261842,1,2,0:0:0:0:
253,189,262013,1,0,0:0:0:0:
253,189,262128,1,0,0:0:0:0:
254,187,262242,1,2,0:0:0:0:
254,187,262356,1,0,0:0:0:0:
257,184,262471,1,0,0:0:0:0:
257,184,262585,1,2,0:0:0:0:
257,184,262699,1,0,0:0:0:0:
253,189,262813,1,2,0:0:0:0:
253,189,262928,1,2,0:0:0:0:
253,189,263042,1,0,0:0:0:0:
253,189,263156,1,2,0:0:0:0:
254,187,263271,1,2,0:0:0:0:
254,187,263385,1,4,0:0:0:0:
253,189,263899,1,0,0:0:0:0:
253,189,264071,1,2,0:0:0:0:
254,187,264413,1,2,0:0:0:0:
253,189,264585,1,0,0:0:0:0:
253,189,264671,1,0,0:0:0:0:
253,189,264756,1,0,0:0:0:0:
253,189,264928,1,0,0:0:0:0:
253,189,265099,1,2,0:0:0:0:
254,187,265271,1,0,0:0:0:0:
254,187,265442,1,2,0:0:0:0:
253,189,265785,1,2,0:0:0:0:
253,189,266128,1,0,0:0:0:0:
254,187,266299,1,2,0:0:0:0:
254,187,266642,1,0,0:0:0:0:
253,189,266813,1,2,0:0:0:0:
254,187,267156,1,2,0:0:0:0:
254,187,267499,1,0,0:0:0:0:
254,187,267671,1,2,0:0:0:0:
253,189,267756,1,2,0:0:0:0:
253,189,267842,1,0,0:0:0:0:
254,187,268013,1,0,0:0:0:0:
254,187,268185,1,2,0:0:0:0:
254,187,268356,1,0,0:0:0:0:
254,187,268699,1,2,0:0:0:0:
253,189,268871,1,0,0:0:0:0:
254,187,269042,1,0,0:0:0:0:
254,187,269385,1,0,0:0:0:0:
254,187,269556,1,2,0:0:0:0:
253,189,269899,1,2,0:0:0:0:
254,187,270071,1,0,0:0:0:0:
254,187,270156,1,0,0:0:0:0:
254,187,270242,1,0,0:0:0:0:
254,187,270413,1,0,0:0:0:0:
254,187,270585,1,2,0:0:0:0:
254,187,270756,1,0,0:0:0:0:
254,187,270928,1,2,0:0:0:0:
254,187,271271,1,2,0:0:0:0:
254,187,271613,1,0,0:0:0:0:
254,187,271785,1,2,0:0:0:0:
254,187,272128,1,0,0:0:0:0:
254,187,272299,1,2,0:0:0:0:
254,187,272385,1,2,0:0:0:0:
254,187,272471,1,2,0:0:0:0:
254,187,272642,1,2,0:0:0:0:
254,187,272813,1,0,0:0:0:0:
254,187,272985,1,2,0:0:0:0:
254,187,273156,1,2,0:0:0:0:
254,187,273328,1,0,0:0:0:0:
254,187,273499,1,0,0:0:0:0:
254,187,273585,1,0,0:0:0:0:
254,187,273671,1,2,0:0:0:0:
254,187,273842,1,0,0:0:0:0:
254,187,274013,1,2,0:0:0:0:
254,187,274356,1,0,0:0:0:0:
253,189,274871,1,0,0:0:0:0:
253,189,275042,1,2,0:0:0:0:
254,187,275385,1,2,0:0:0:0:
253,189,275556,1,0,0:0:0:0:
253,189,275642,1,0,0:0:0:0:
253,189,275728,1,0,0:0:0:0:
253,189,275899,1,0,0:0:0:0:
253,189,276071,1,2,0:0:0:0:
254,187,276242,1,0,0:0:0:0:
254,187,276413,1,2,0:0:0:0:
253,189,276756,1,2,0:0:0:0:
253,189,277099,1,0,0:0:0:0:
254,187,277271,1,2,0:0:0:0:
254,187,277613,1,0,0:0:0:0:
253,189,277785,1,2,0:0:0:0:
254,187,278128,1,2,0:0:0:0:
254,187,278471,1,0,0:0:0:0:
254,187,278642,1,2,0:0:0:0:
253,189,278728,1,2,0:0:0:0:
253,189,278813,1,0,0:0:0:0:
254,187,278985,1,0,0:0:0:0:
254,187,279156,1,2,0:0:0:0:
254,187,279328,1,0,0:0:0:0:
254,187,279671,1,2,0:0:0:0:
253,189,279842,1,0,0:0:0:0:
254,187,280013,1,0,0:0:0:0:
254,187,280356,1,0,0:0:0:0:
254,187,280528,1,2,0:0:0:0:
253,189,280871,1,2,0:0:0:0:
254,187,281042,1,0,0:0:0:0:
254,187,281128,1,0,0:0:0:0:
254,187,281213,1,0,0:0:0:0:
254,187,281385,1,0,0:0:0:0:
254,187,281556,1,2,0:0:0:0:
254,187,281728,1,0,0:0:0:0:
254,187,281899,1,2,0:0:0:0:
254,187,282242,1,2,0:0:0:0:
254,187,282585,1,0,0:0:0:0:
254,187,282756,1,2,0:0:0:0:
254,187,283099,1,0,0:0:0:0:
254,187,283271,1,2,0:0:0:0:
254,187,283356,1,2,0:0:0:0:
254,187,283442,1,2,0:0:0:0:
254,187,283613,1,2,0:0:0:0:
254,187,283785,1,0,0:0:0:0:
254,187,283956,1,2,0:0:0:0:
254,187,284128,1,2,0:0:0:0:
254,187,284299,1,0,0:0:0:0:
254,187,284471,1,0,0:0:0:0:
254,187,284556,1,0,0:0:0:0:
254,187,284642,1,2,0:0:0:0:
254,187,284813,1,0,0:0:0:0:
254,187,284985,1,2,0:0:0:0:
254,187,285156,1,2,0:0:0:0:
254,187,285328,1,4,0:0:0:0:
254,187,285842,1,0,0:0:0:0:
254,187,286013,1,2,0:0:0:0:
254,187,286099,1,2,0:0:0:0:
254,187,286185,1,2,0:0:0:0:
254,187,286356,1,0,0:0:0:0:
254,187,286442,1,0,0:0:0:0:
254,187,286528,1,0,0:0:0:0:
257,181,286699,1,2,0:0:0:0:
257,181,287042,1,2,0:0:0:0:
257,181,287213,1,0,0:0:0:0:
257,181,287385,1,2,0:0:0:0:
257,181,287728,1,0,0:0:0:0:
257,181,287813,1,0,0:0:0:0:
257,181,287899,1,2,0:0:0:0:
257,181,287985,1,0,0:0:0:0:
257,181,288071,1,2,0:0:0:0:
254,187,288242,1,0,0:0:0:0:
254,187,288413,1,2,0:0:0:0:
257,181,288585,1,0,0:0:0:0:
257,181,288756,1,2,0:0:0:0:
257,181,288842,1,2,0:0:0:0:
257,181,288928,1,0,0:0:0:0:
257,181,289099,1,2,0:0:0:0:
254,187,289185,1,0,0:0:0:0:
254,187,289271,1,0,0:0:0:0:
257,181,289442,1,2,0:0:0:0:
257,181,289785,1,2,0:0:0:0:
257,181,289956,1,0,0:0:0:0:
257,181,290128,1,2,0:0:0:0:
257,181,290471,1,2,0:0:0:0:
257,181,290556,1,2,0:0:0:0:
257,181,290642,1,0,0:0:0:0:
257,181,290728,1,2,0:0:0:0:
257,181,290813,1,0,0:0:0:0:
257,181,290985,1,0,0:0:0:0:
257,181,291156,1,0,0:0:0:0:
257,181,291242,1,2,0:0:0:0:
257,181,291328,1,0,0:0:0:0:
257,181,291499,1,2,0:0:0:0:
257,181,291671,1,0,0:0:0:0:
257,181,291756,1,2,0:0:0:0:
257,181,291842,1,0,0:0:0:0:
257,181,292013,1,0,0:0:0:0:
257,181,292185,1,2,0:0:0:0:
257,181,292528,1,2,0:0:0:0:
245,174,292699,1,0,0:0:0:0:
257,181,292871,1,2,0:0:0:0:
257,181,293213,1,0,0:0:0:0:
257,181,293299,1,2,0:0:0:0:
257,181,293385,1,0,0:0:0:0:
257,181,293471,1,0,0:0:0:0:
257,181,293556,1,2,0:0:0:0:
257,181,293728,1,0,0:0:0:0:
257,181,293899,1,2,0:0:0:0:
257,181,293985,1,0,0:0:0:0:
257,181,294071,1,2,0:0:0:0:
257,181,294156,1,0,0:0:0:0:
257,181,294242,1,2,0:0:0:0:
257,181,294413,1,0,0:0:0:0:
257,181,294585,1,2,0:0:0:0:
257,181,294671,1,0,0:0:0:0:
257,181,294756,1,0,0:0:0:0:
257,181,294928,1,2,0:0:0:0:
257,181,295099,1,0,0:0:0:0:
257,181,295271,1,2,0:0:0:0:
257,181,295442,1,0,0:0:0:0:
257,181,295528,1,0,0:0:0:0:
257,181,295613,1,2,0:0:0:0:
257,181,295785,1,0,0:0:0:0:
257,181,295956,1,2,0:0:0:0:
257,181,296042,1,2,0:0:0:0:
257,181,296128,1,2,0:0:0:0:
257,181,296213,1,2,0:0:0:0:
257,181,296299,1,0,0:0:0:0:
257,181,296813,1,0,0:0:0:0:
257,181,296985,1,2,0:0:0:0:
257,181,297071,1,0,0:0:0:0:
257,181,297156,1,2,0:0:0:0:
257,181,297328,1,2,0:0:0:0:
257,181,297413,1,0,0:0:0:0:
257,181,297499,1,0,0:0:0:0:
257,181,297671,1,2,0:0:0:0:
257,181,298013,1,2,0:0:0:0:
257,181,298185,1,0,0:0:0:0:
257,181,298356,1,2,0:0:0:0:
257,181,298699,1,0,0:0:0:0:
257,181,298785,1,0,0:0:0:0:
257,181,298871,1,2,0:0:0:0:
257,181,298956,1,0,0:0:0:0:
257,181,299042,1,2,0:0:0:0:
257,181,299213,1,0,0:0:0:0:
257,181,299385,1,2,0:0:0:0:
257,181,299556,1,0,0:0:0:0:
257,181,299728,1,0,0:0:0:0:
257,181,299813,1,2,0:0:0:0:
257,181,299899,1,2,0:0:0:0:
257,181,300071,1,2,0:0:0:0:
257,181,300156,1,0,0:0:0:0:
257,181,300242,1,0,0:0:0:0:
257,181,300413,1,2,0:0:0:0:
257,181,300756,1,2,0:0:0:0:
257,181,300928,1,0,0:0:0:0:
257,181,301099,1,2,0:0:0:0:
257,181,301442,1,2,0:0:0:0:
257,181,301528,1,2,0:0:0:0:
257,181,301613,1,0,0:0:0:0:
257,181,301699,1,2,0:0:0:0:
257,181,301785,1,0,0:0:0:0:
257,181,301956,1,0,0:0:0:0:
257,181,302128,1,2,0:0:0:0:
257,181,302299,1,0,0:0:0:0:
257,181,302385,1,0,0:0:0:0:
257,181,302471,1,2,0:0:0:0:
257,181,302642,1,2,0:0:0:0:
257,181,302813,1,0,0:0:0:0:
257,181,302985,1,2,0:0:0:0:
257,181,303071,1,0,0:0:0:0:
257,181,303156,1,0,0:0:0:0:
257,181,303328,1,0,0:0:0:0:
257,181,303413,1,2,0:0:0:0:
257,181,303499,1,2,0:0:0:0:
257,181,303671,1,0,0:0:0:0:
257,181,303842,1,2,0:0:0:0:
257,181,304013,1,0,0:0:0:0:
257,181,304185,1,0,0:0:0:0:
257,181,304271,1,0,0:0:0:0:
257,181,304356,1,0,0:0:0:0:
257,181,304442,1,0,0:0:0:0:
257,181,304528,1,2,0:0:0:0:
257,181,304699,1,0,0:0:0:0:
257,181,304871,1,2,0:0:0:0:
257,181,305042,1,0,0:0:0:0:
257,181,305128,1,0,0:0:0:0:
257,181,305213,1,2,0:0:0:0:
257,181,305385,1,0,0:0:0:0:
257,181,305556,1,2,0:0:0:0:
257,181,305642,1,2,0:0:0:0:
257,181,305728,1,2,0:0:0:0:
257,181,305899,1,0,0:0:0:0:
257,181,305985,1,0,0:0:0:0:
257,181,306071,1,2,0:0:0:0:
257,181,306156,1,2,0:0:0:0:
257,181,306242,1,0,0:0:0:0:
257,181,306328,1,0,0:0:0:0:
257,181,306413,1,2,0:0:0:0:
257,181,306499,1,0,0:0:0:0:
257,181,306585,1,2,0:0:0:0:
257,181,306671,1,0,0:0:0:0:
257,181,306756,1,0,0:0:0:0:
257,181,306842,1,0,0:0:0:0:
257,181,306928,1,2,0:0:0:0:
257,181,307099,1,0,0:0:0:0:
257,181,307271,1,6,0:0:0:0:
