osu file format v14

[General]
AudioFilename: audio.mp3
AudioLeadIn: 0
PreviewTime: 65899
Countdown: 0
SampleSet: Soft
StackLeniency: 0.4
Mode: 0
LetterboxInBreaks: 0
WidescreenStoryboard: 0

[Editor]
Bookmarks: 230696
DistanceSpacing: 0.8
BeatDivisor: 4
GridSize: 8
TimelineZoom: 2.3

[Metadata]
Title:Sweden (Caution & Crisis Remix)
TitleUnicode:Sweden (Caution & Crisis Remix)
Artist:C418
ArtistUnicode:C418
Creator:DuckRadio
Version:Blocky Delight
Source:Minecraft
Tags:blocks chill harvey thompson daniel rosenfeld dnb drum and & bass video game instrumental
BeatmapID:1968436
BeatmapSetID:942637

[Difficulty]
HPDrainRate:5
CircleSize:4
OverallDifficulty:9
ApproachRate:9.5
SliderMultiplier:0.5
SliderTickRate:1

[Events]
//Background and Video events
0,0,"blockydelight.jpg",0,0
//Break Periods
//Storyboard Layer 0 (Background)
//Storyboard Layer 1 (Fail)
//Storyboard Layer 2 (Pass)
//Storyboard Layer 3 (Foreground)
//Storyboard Layer 4 (Overlay)
//Storyboard Sound Samples

[TimingPoints]
71,342.857142857143,4,2,1,25,1,0
22013,-83.3333333333333,4,2,1,35,0,0
43956,-66.6666666666667,4,2,2,50,0,0
44642,-50,4,2,2,50,0,0
46699,-66.6666666666667,4,2,6,50,0,0
47385,-50,4,2,2,50,0,0
49442,-66.6666666666667,4,2,7,50,0,0
50128,-50,4,2,2,50,0,0
52185,-66.6666666666667,4,2,8,50,0,0
52871,-50,4,2,2,50,0,0
54928,-66.6666666666667,4,2,2,50,0,0
55613,-50,4,2,2,50,0,0
57671,-66.6666666666667,4,2,2,50,0,0
58356,-50,4,2,2,50,0,0
60413,-66.6666666666667,4,2,2,50,0,0
61099,-50,4,2,2,50,0,0
63156,-66.6666666666667,4,2,2,50,0,0
63842,-50,4,2,2,50,0,0
65899,-40,4,2,2,60,0,0
68642,-40,4,2,6,60,0,0
71385,-40,4,2,7,60,0,0
74128,-40,4,2,8,60,0,0
76871,-40,4,2,2,60,0,0
79613,-40,4,2,6,60,0,0
82356,-40,4,2,7,60,0,0
86470,-40,4,2,3,60,0,0
86813,-40,4,2,3,85,0,0
87156,-40,4,2,3,95,0,0
87499,-40,4,2,2,50,0,0
87842,-40,4,2,4,95,0,1
90585,-40,4,2,6,95,0,1
90756,-28.5714285714286,4,2,5,95,0,1
93328,-28.5714285714286,4,2,7,95,0,1
93499,-40,4,2,4,95,0,1
96071,-40,4,2,8,95,0,1
96242,-28.5714285714286,4,2,5,95,0,1
98985,-40,4,2,4,95,0,1
101556,-40,4,2,6,95,0,1
101728,-28.5714285714286,4,2,5,95,0,1
104299,-28.5714285714286,4,2,7,95,0,1
104471,-40,4,2,4,95,0,1
107042,-40,4,2,8,95,0,1
107213,-28.5714285714286,4,2,5,95,0,1
108413,-28.5714285714286,4,2,2,70,0,0
109785,-28.5714285714286,4,2,2,80,0,1
112528,-28.5714285714286,4,2,6,80,0,1
115271,-28.5714285714286,4,2,7,80,0,1
118013,-28.5714285714286,4,2,8,80,0,1
120756,-28.5714285714286,4,2,2,80,0,1
123499,-28.5714285714286,4,2,6,80,0,1
126242,-28.5714285714286,4,2,7,80,0,1
128985,-28.5714285714286,4,2,8,80,0,1
130356,-50,4,2,3,80,0,1
130613,-50,4,2,3,5,0,1
130699,-50,4,2,3,80,0,1
130785,-50,4,2,3,5,0,1
130871,-50,4,2,3,80,0,1
130956,-50,4,2,3,5,0,1
131042,-50,4,2,3,80,0,1
131728,-50,4,2,2,50,0,0
133099,-40,4,2,2,50,0,0
133785,-33.3333333333333,4,2,2,50,0,0
134471,-40,4,2,2,50,0,0
136185,-50,4,2,2,50,0,0
144071,-57.1428571428571,4,2,2,50,0,0
144756,-66.6666666666667,4,2,2,50,0,0
145442,-57.1428571428571,4,2,2,50,0,0
146813,-50,4,2,2,50,0,0
148699,-44.4444444444445,4,2,2,50,0,0
149213,-40,4,2,2,50,0,0
149728,-36.3636363636364,4,2,2,50,0,0
150242,-40,4,2,2,50,0,0
152299,-40,4,2,3,60,0,0
153670,-40,4,2,4,70,0,0
156413,-28.5714285714286,4,2,9,60,0,0
156928,-28.5714285714286,4,2,5,60,0,0
159156,-40,4,2,10,60,0,0
159499,-40,4,2,4,60,0,0
161899,-28.5714285714286,4,2,11,60,0,0
162242,-28.5714285714286,4,2,5,60,0,0
164642,-40,4,2,4,60,0,0
167385,-28.5714285714286,4,2,9,60,0,0
167899,-28.5714285714286,4,2,5,60,0,0
170128,-40,4,2,10,60,0,0
170471,-40,4,2,4,60,0,0
172870,-28.5714285714286,4,2,11,60,0,0
173213,-28.5714285714286,4,2,5,60,0,0
174242,-28.5714285714286,4,2,2,70,0,0
175613,-100,4,2,1,60,0,0
197556,-83.3333333333333,4,2,1,60,0,0
214013,-66.6666666666667,4,2,2,60,0,0
214356,-66.6666666666667,4,2,1,60,0,0
214699,-66.6666666666667,4,2,2,60,0,0
215042,-66.6666666666667,4,2,1,60,0,0
215385,-66.6666666666667,4,2,2,60,0,0
215728,-66.6666666666667,4,2,1,60,0,0
216070,-66.6666666666667,4,2,2,60,0,0
216413,-66.6666666666667,4,2,1,60,0,0
216756,-50,4,2,3,40,0,0
217442,-50,4,2,3,50,0,0
218128,-50,4,2,3,60,0,0
218813,-50,4,2,3,70,0,0
219499,-40,4,2,2,80,0,1
219671,-40,4,2,12,80,0,1
219842,-40,4,2,2,80,0,1
220013,-40,4,2,12,80,0,1
220528,-50,4,2,2,80,0,1
221042,-40,4,2,12,80,0,1
221213,-40,4,2,2,80,0,1
221385,-40,4,2,12,80,0,1
221899,-50,4,2,2,80,0,1
222413,-28.5714285714286,4,2,13,80,0,1
222585,-28.5714285714286,4,2,2,80,0,1
222756,-28.5714285714286,4,2,13,80,0,1
223271,-50,4,2,2,80,0,1
223785,-28.5714285714286,4,2,12,80,0,1
223956,-28.5714285714286,4,2,2,80,0,1
224128,-28.5714285714286,4,2,13,80,0,1
224642,-50,4,2,2,80,0,1
225156,-40,4,2,12,80,0,1
225328,-40,4,2,2,80,0,1
225499,-40,4,2,12,80,0,1
226013,-50,4,2,2,80,0,1
226528,-40,4,2,12,80,0,1
226699,-40,4,2,2,80,0,1
226871,-40,4,2,12,80,0,1
227385,-50,4,2,2,80,0,1
227899,-28.5714285714286,4,2,13,80,0,1
228071,-28.5714285714286,4,2,2,80,0,1
228242,-28.5714285714286,4,2,13,80,0,1
228756,-50,4,2,2,80,0,1
229271,-28.5714285714286,4,2,12,80,0,1
229442,-28.5714285714286,4,2,2,80,0,1
229613,-28.5714285714286,4,2,13,80,0,1
230128,-50,4,2,2,80,0,1
230642,-40,4,2,12,80,0,1
230813,-40,4,2,2,80,0,1
230985,-40,4,2,12,80,0,1
231499,-50,4,2,2,80,0,1
232013,-40,4,2,12,80,0,1
232185,-40,4,2,2,80,0,1
232356,-40,4,2,12,80,0,1
232871,-50,4,2,2,80,0,1
233385,-28.5714285714286,4,2,13,80,0,1
233556,-28.5714285714286,4,2,2,80,0,1
233728,-28.5714285714286,4,2,13,80,0,1
234242,-50,4,2,2,80,0,1
234756,-28.5714285714286,4,2,12,80,0,1
234928,-28.5714285714286,4,2,2,80,0,1
235099,-28.5714285714286,4,2,13,80,0,1
235613,-50,4,2,2,80,0,1
236128,-40,4,2,12,80,0,1
236299,-40,4,2,2,80,0,1
236471,-40,4,2,12,80,0,1
236985,-50,4,2,2,80,0,1
237499,-40,4,2,12,80,0,1
237671,-40,4,2,2,80,0,1
237842,-40,4,2,12,80,0,1
238356,-50,4,2,2,80,0,1
238871,-28.5714285714286,4,2,13,80,0,1
239042,-28.5714285714286,4,2,2,80,0,1
239213,-28.5714285714286,4,2,13,80,0,1
239728,-50,4,2,2,80,0,1
240071,-28.5714285714286,4,2,2,60,0,0
241442,-28.5714285714286,4,2,2,90,0,1
244185,-28.5714285714286,4,2,6,90,0,1
246928,-28.5714285714286,4,2,7,90,0,1
249671,-28.5714285714286,4,2,8,90,0,1
252413,-28.5714285714286,4,2,2,90,0,1
255156,-28.5714285714286,4,2,6,90,0,1
257899,-28.5714285714286,4,2,7,90,0,1
260642,-28.5714285714286,4,2,8,90,0,1
262013,-28.5714285714286,4,2,3,90,0,1
262699,-25,4,2,3,90,0,1
263385,-50,4,2,2,60,0,0
264071,-33.3333333333333,4,2,2,60,0,0
283956,-50,4,2,2,60,0,0
284299,-33.3333333333333,4,2,2,60,0,0
285328,-40,4,2,4,70,0,0
288071,-28.5714285714286,4,2,9,70,0,0
288242,-28.5714285714286,4,2,5,70,0,0
290813,-40,4,2,10,70,0,0
291156,-40,4,2,4,70,0,0
293556,-28.5714285714286,4,2,11,70,0,0
293899,-28.5714285714286,4,2,5,70,0,0
296299,-40,4,2,4,70,0,0
299042,-28.5714285714286,4,2,9,70,0,0
299213,-28.5714285714286,4,2,5,70,0,0
301785,-40,4,2,10,70,0,0
301956,-40,4,2,4,70,0,0
304528,-28.5714285714286,4,2,11,70,0,0
304699,-28.5714285714286,4,2,5,70,0,0
305899,-28.5714285714286,4,2,5,90,0,0
307956,-28.5714285714286,4,2,5,70,0,0
308642,-28.5714285714286,4,2,5,50,0,0
308985,-28.5714285714286,4,2,5,40,0,0
309328,-28.5714285714286,4,2,5,30,0,0
309671,-28.5714285714286,4,2,5,20,0,0
309842,-28.5714285714286,4,2,5,15,0,0
310013,-28.5714285714286,4,2,5,10,0,0
310699,-28.5714285714286,4,2,5,5,0,0

[Colours]
Combo1 : 0,151,75
Combo2 : 159,255,255
Combo3 : 113,176,255
Combo4 : 103,206,0

[HitObjects]
53,115,71,6,0,B|81:79|84:43|84:43|85:115|122:156,1,200,0|2,0:0|0:0,0:0:0:0:
205,72,2813,2,0,B|255:98|307:66|307:59|307:52|357:37|400:59,1,200,0|2,0:0|0:0,0:0:0:0:
406,253,5556,6,0,B|379:166|379:166|397:49,1,200,0|2,0:0|0:0,0:0:0:0:
489,341,8299,1,0,0:0:0:0:
320,298,11042,6,0,P|404:276|490:342,1,200,0|2,0:0|0:0,0:0:0:0:
279,379,13785,2,0,L|271:173,1,200,0|2,0:0|0:0,0:0:0:0:
98,156,16528,6,0,P|198:127|274:185,1,200,0|2,0:0|0:0,0:0:0:0:
15,354,19271,1,0,0:0:0:0:
98,272,22013,6,0,B|128:199|80:114|80:114|94:152|72:196,1,239.999992675781,0|2,0:0|0:0,0:0:0:0:
6,146,24071,1,0,0:0:0:0:
144,48,24756,2,0,B|195:19|255:41|255:47|256:54|327:88|380:40,1,239.999992675781,0|2,0:0|0:0,0:0:0:0:
373,45,26813,5,0,0:0:0:0:
394,152,27156,1,0,0:0:0:0:
490,8,27499,2,0,B|472:78|472:78|505:164|505:164|486:257,1,239.999992675781,0|2,0:0|0:0,0:0:0:0:
489,238,29556,5,0,0:0:0:0:
399,186,29899,1,0,0:0:0:0:
418,374,30242,1,0,0:0:0:0:
418,374,32985,6,0,P|358:332|292:332,1,119.999996337891
229,372,34356,1,2,0:0:0:0:
280,224,35042,1,0,0:0:0:0:
137,279,35728,6,0,B|58:300|-17:277|-17:277|28:298|53:335,1,239.999992675781,0|2,0:0|0:0,0:0:0:0:
48,328,37785,5,0,0:0:0:0:
105,175,38128,1,0,0:0:0:0:
255,297,38471,2,0,P|384:299|448:219,1,239.999992675781,0|2,0:0|0:0,0:0:0:0:
345,41,40528,5,0,0:0:0:0:
336,210,40871,1,0,0:0:0:0:
208,1,41213,1,0,0:0:0:0:
256,192,41385,12,0,43785,0:0:0:0:
26,58,43956,6,0,L|32:152,1,75.000002861023,4|0,1:2|0:0,0:0:0:0:
116,59,44471,1,0,1:2:0:0:
161,237,44642,2,0,L|174:143,1,50,8|2,0:0|0:0,0:0:0:0:
227,91,44985,2,0,L|240:185,1,50,0|2,1:2|0:0,0:0:0:0:
353,5,45328,6,0,L|297:-1,2,50,0|2|0,1:2|0:0|0:0,0:0:0:0:
378,92,45842,1,0,1:2:0:0:
498,2,46013,2,0,L|490:79,1,50,8|2,0:0|0:0,0:0:0:0:
464,180,46356,2,0,L|456:103,1,50,0|2,0:0|0:0,0:0:0:0:
372,304,46699,6,0,P|420:318|470:302,1,75.0000028610231,4|0,1:2|0:0,0:0:0:0:
488,248,47213,1,0,1:0:0:0:
286,361,47385,2,0,L|293:273,1,50,8|2,0:0|0:0,0:0:0:0:
243,184,47728,2,0,L|250:272,1,50,0|2,1:0|0:0,0:0:0:0:
160,322,48071,6,0,L|216:317,1,50,0|2,1:0|0:0,0:0:0:0:
128,216,48413,1,0,1:0:0:0:
79,364,48585,1,0,1:0:0:0:
0,184,48756,2,0,P|-4:154|12:116,1,50,8|2,0:0|0:0,0:0:0:0:
128,167,49099,2,0,P|132:197|116:235,1,50,0|2,0:0|0:0,0:0:0:0:
74,17,49442,6,0,P|122:-3|173:14,1,75.0000028610231,4|0,1:2|0:0,0:0:0:0:
204,70,49956,1,0,1:0:0:0:
177,231,50128,2,0,L|173:159,1,50,8|2,0:0|0:0,0:0:0:0:
284,108,50471,2,0,L|280:189,1,50,0|2,1:0|0:0,0:0:0:0:
287,270,50813,6,0,P|319:258|349:261,2,50,0|2|0,1:0|0:0|0:0,0:0:0:0:
231,337,51328,1,0,1:0:0:0:
77,227,51499,2,0,P|52:222|27:224,1,50,8|2,0:0|0:0,0:0:0:0:
96,353,51842,2,0,P|122:343|145:325,1,50,0|2,0:0|0:0,0:0:0:0:
218,169,52185,6,0,L|225:81,1,75.0000028610231,4|0,1:2|0:0,0:0:0:0:
269,18,52699,1,0,1:0:0:0:
330,222,52871,2,0,L|323:151,1,50,8|2,0:0|0:0,0:0:0:0:
375,51,53213,2,0,L|368:122,1,50,0|2,1:0|0:0,0:0:0:0:
452,26,53556,1,0,1:0:0:0:
467,129,53899,5,0,1:0:0:0:
452,26,54071,1,0,1:0:0:0:
417,191,54242,2,0,P|470:210|518:193,1,100,8|2,0:0|0:0,0:0:0:0:
359,291,54928,6,0,P|356:325|371:372,1,75.0000028610231,4|0,1:2|0:0,0:0:0:0:
445,384,55442,1,0,1:0:0:0:
335,205,55613,2,0,P|311:198|286:200,1,50,8|2,0:0|0:0,0:0:0:0:
171,309,55956,2,0,P|195:316|220:314,1,50,0|2,1:0|0:0,0:0:0:0:
199,187,56299,6,0,L|203:241,2,50,0|2|0,1:0|0:0|0:0,0:0:0:0:
154,107,56813,1,0,1:0:0:0:
76,316,56985,2,0,L|79:252,1,50,8|2,0:0|0:0,0:0:0:0:
10,167,57328,2,0,L|13:231,1,50,0|2,0:0|0:0,0:0:0:0:
214,44,57671,6,0,P|193:29|132:24,1,75.0000028610231,4|0,1:2|0:0,0:0:0:0:
69,99,58185,1,0,1:0:0:0:
176,245,58356,2,0,L|172:195,1,50,8|2,0:0|0:0,0:0:0:0:
263,70,58699,2,0,L|259:119,1,50,0|2,1:0|0:0,0:0:0:0:
340,157,59042,1,0,1:0:0:0:
368,50,59385,5,0,1:0:0:0:
340,157,59556,1,0,1:0:0:0:
512,90,59728,2,0,L|450:84,1,50,8|2,0:0|0:0,0:0:0:0:
340,157,60071,2,0,L|402:151,1,50,0|2,0:0|0:0,0:0:0:0:
511,290,60413,6,0,P|514:328|500:363,1,75.0000028610231,4|0,1:2|0:0,0:0:0:0:
416,384,60928,1,0,1:0:0:0:
273,235,61099,2,0,L|341:230,1,50,8|2,0:0|0:0,0:0:0:0:
240,323,61442,2,0,L|167:318,1,50,0|2,1:0|0:0,0:0:0:0:
143,221,61785,6,0,L|141:165,2,50,0|2|0,1:0|0:0|0:0,0:0:0:0:
105,296,62299,1,0,1:0:0:0:
91,108,62471,2,0,P|124:92|169:102,1,50,8|2,0:0|0:0,0:0:0:0:
37,31,62813,2,0,P|21:11|-1:-1,1,50,0|2,0:0|0:0,0:0:0:0:
141,171,63156,6,0,P|196:178|227:168,1,75.0000028610231,4|0,1:2|0:0,0:0:0:0:
260,94,63671,1,0,1:0:0:0:
314,308,63842,2,0,L|322:231,1,50,8|2,0:0|0:0,0:0:0:0:
369,98,64185,2,0,L|377:175,1,50,0|2,1:0|0:0,0:0:0:0:
452,194,64528,2,0,L|448:243,1,50,0|2,1:0|0:0,0:0:0:0:
476,331,64871,1,0,1:0:0:0:
512,140,65042,1,0,1:0:0:0:
366,294,65213,2,0,P|338:298|307:289,1,50,8|2,0:0|0:0,0:0:0:0:
269,225,65556,2,0,P|241:221|210:230,1,50,0|2,0:0|0:0,0:0:0:0:
70,292,65899,6,0,P|104:282|163:304,1,62.5,4|2,1:2|0:0,0:0:0:0:
20,384,66242,1,8,0:0:0:0:
0,233,66413,1,2,0:0:0:0:
0,233,66756,1,0,1:0:0:0:
167,170,66928,2,0,L|86:158,1,62.5,8|2,0:0|0:0,0:0:0:0:
232,0,67271,6,0,L|229:76,1,62.5,0|2,1:0|0:0,0:0:0:0:
227,226,67613,1,8,0:0:0:0:
270,140,67785,1,2,0:0:0:0:
431,197,67956,2,0,L|356:189,1,62.5,0|0,0:0|1:0,0:0:0:0:
477,51,68299,1,8,0:0:0:0:
494,145,68471,1,2,0:0:0:0:
335,63,68642,6,0,L|331:-42,1,62.5,4|2,1:2|0:0,0:0:0:0:
290,220,68985,1,8,0:0:0:0:
262,130,69156,1,2,0:0:0:0:
262,130,69499,1,0,1:0:0:0:
106,232,69671,2,0,L|184:226,1,62.5,8|2,0:0|0:0,0:0:0:0:
291,384,70013,6,0,L|296:305,1,62.5,0|2,1:0|0:0,0:0:0:0:
352,135,70356,1,8,0:0:0:0:
370,273,70528,1,2,0:0:0:0:
501,150,70699,2,0,L|421:143,1,62.5,0|0,0:0|1:0,0:0:0:0:
449,15,71042,2,0,L|523:10,1,62.5,8|2,0:0|0:0,0:0:0:0:
269,76,71385,6,0,P|261:39|291:-15,1,62.5,4|2,1:2|0:0,0:0:0:0:
320,233,71728,1,8,0:0:0:0:
352,135,71899,1,2,0:0:0:0:
352,135,72242,1,0,1:0:0:0:
251,293,72413,2,0,L|245:207,1,62.5,8|2,0:0|0:0,0:0:0:0:
109,62,72756,6,0,P|136:47|167:43,1,62.5,0|2,1:0|0:0,0:0:0:0:
33,229,73099,1,8,0:0:0:0:
22,141,73271,1,2,0:0:0:0:
111,267,73442,2,0,L|119:190,1,62.5,0|0,0:0|1:0,0:0:0:0:
26,319,73785,2,0,L|34:396,1,62.5,8|2,0:0|0:0,0:0:0:0:
219,338,74128,6,0,P|246:327|293:336,1,62.5,4|2,1:2|0:0,0:0:0:0:
284,160,74471,1,8,0:0:0:0:
318,249,74642,1,2,0:0:0:0:
400,172,74813,2,0,L|396:260,1,62.5,2|0,0:0|1:0,0:0:0:0:
482,384,75156,2,0,L|477:303,1,62.5,8|2,0:0|0:0,0:0:0:0:
492,183,75499,6,0,L|498:117,1,62.5,0|2,1:2|0:0,0:0:0:0:
430,12,75842,1,8,0:0:0:0:
430,12,76013,1,2,0:0:0:0:
387,144,76185,2,0,L|381:76,1,62.5,2|0,0:0|1:0,0:0:0:0:
342,276,76528,1,8,0:0:0:0:
342,276,76699,1,2,0:0:0:0:
298,87,76871,6,0,L|291:177,1,62.5,4|2,1:2|0:0,0:0:0:0:
252,223,77213,1,8,0:0:0:0:
191,67,77385,1,2,0:0:0:0:
191,67,77471,1,0,0:0:0:0:
191,67,77556,2,0,L|185:26,2,31.25,2|0|0,0:0|0:0|1:0,0:0:0:0:
117,251,77899,1,8,0:0:0:0:
49,155,78071,1,2,0:0:0:0:
172,347,78242,6,0,P|144:359|108:356,1,62.5,0|2,1:0|0:0,0:0:0:0:
216,151,78585,1,8,0:0:0:0:
300,268,78756,1,2,0:0:0:0:
322,274,78842,1,0,0:0:0:0:
345,276,78928,1,2,0:0:0:0:
369,272,79013,1,0,0:0:0:0:
391,264,79099,1,0,1:0:0:0:
444,99,79271,1,8,0:0:0:0:
467,219,79442,1,2,0:0:0:0:
315,45,79613,6,0,L|321:132,1,62.5,4|2,1:2|0:0,0:0:0:0:
140,6,79956,1,8,0:0:0:0:
206,119,80128,1,2,0:0:0:0:
206,119,80213,1,0,0:0:0:0:
206,119,80299,2,0,L|199:168,2,31.25,2|0|0,0:0|0:0|1:0,0:0:0:0:
108,253,80642,1,8,0:0:0:0:
92,148,80813,1,2,0:0:0:0:
209,325,80985,6,0,P|239:330|270:324,1,62.5,0|2,1:0|0:0,0:0:0:0:
349,152,81328,1,8,0:0:0:0:
391,268,81499,1,2,0:0:0:0:
392,291,81585,1,0,0:0:0:0:
393,314,81671,1,2,0:0:0:0:
394,338,81756,1,0,0:0:0:0:
395,361,81842,1,0,1:0:0:0:
487,181,82013,1,8,0:0:0:0:
486,286,82185,1,2,0:0:0:0:
381,141,82356,6,0,P|347:133|309:139,1,62.5,4|0,1:2|0:0,0:0:0:0:
160,214,82699,2,0,P|193:221|232:216,1,62.5,8|2,0:0|0:0,0:0:0:0:
237,54,83042,2,0,P|229:87|235:126,1,62.5,0|0,1:0|0:0,0:0:0:0:
299,309,83385,2,0,P|306:275|301:237,1,62.5,8|2,0:0|0:0,0:0:0:0:
148,323,83728,6,0,P|140:356|146:395,1,62.5,0|0,1:0|0:0,0:0:0:0:
298,309,84071,2,0,P|305:278|303:247,1,62.5,8|2,0:0|0:0,0:0:0:0:
145,112,84413,2,0,P|137:145|143:184,1,62.5,0|0,1:0|0:0,0:0:0:0:
344,87,84756,2,8,P|351:53|346:15,1,62.5,8|2,0:0|0:0,0:0:0:0:
301,206,85099,5,0,1:0:0:0:
268,51,85271,1,0,1:0:0:0:
231,238,85442,5,8,0:0:0:0:
268,64,85613,1,0,1:0:0:0:
314,285,85785,5,0,1:0:0:0:
269,75,85956,1,0,1:0:0:0:
225,321,86128,5,8,0:0:0:0:
270,87,86299,1,0,1:0:0:0:
401,352,86471,5,0,0:0:0:0:
418,317,86556,1,0,0:0:0:0:
424,278,86642,1,0,0:0:0:0:
416,240,86728,1,0,0:0:0:0:
397,206,86813,5,0,0:0:0:0:
375,164,86899,1,0,0:0:0:0:
369,118,86985,1,0,0:0:0:0:
378,72,87071,1,0,0:0:0:0:
401,31,87156,5,0,0:0:0:0:
357,74,87242,1,0,0:0:0:0:
298,92,87328,1,0,0:0:0:0:
237,80,87413,1,0,0:0:0:0:
189,41,87499,2,0,L|187:4,3,31.25,0|0|0|0,1:0|1:0|1:0|1:0,0:0:0:0:
186,188,87842,5,4,1:2:0:0:
78,122,88013,2,0,L|59:120,2,15.625
192,196,88185,5,8,0:0:0:0:
68,225,88356,2,0,L|47:236,2,15.625
200,197,88528,5,0,0:0:0:0:
132,305,88699,2,0,L|125:327,2,15.625,0|0|0,1:0|0:0|0:0,0:0:0:0:
208,191,88871,5,8,0:0:0:0:
236,315,89042,2,0,L|247:335,2,15.625
216,181,89213,5,0,1:0:0:0:
324,247,89385,2,0,L|343:249,2,15.625
210,173,89556,5,8,0:0:0:0:
334,144,89728,2,0,L|354:132,2,15.625
202,172,89899,5,0,0:0:0:0:
270,64,90071,2,0,L|276:41,2,15.625,0|0|0,1:0|0:0|0:0,0:0:0:0:
194,178,90242,5,8,0:0:0:0:
166,54,90413,2,0,L|154:33,2,15.625
288,207,90585,5,4,1:2:0:0:
380,43,90756,2,0,L|377:5,2,21.8750002086163
477,226,90928,5,8,0:0:0:0:
385,62,91099,2,0,L|388:22,2,21.8750002086163
288,253,91271,5,0,0:0:0:0:
380,89,91442,2,0,L|377:51,2,21.8750002086163,0|0|0,1:0|0:0|0:0,0:0:0:0:
477,272,91613,5,8,0:0:0:0:
385,108,91785,2,0,L|388:68,2,21.8750002086163
287,297,91956,5,0,1:0:0:0:
379,133,92128,2,0,L|376:95,2,21.8750002086163
476,316,92299,5,8,0:0:0:0:
384,152,92471,2,0,L|387:112,2,21.8750002086163
287,343,92642,5,0,0:0:0:0:
379,179,92813,2,0,L|376:141,2,21.8750002086163,0|0|0,1:0|0:0|0:0,0:0:0:0:
476,362,92985,5,8,0:0:0:0:
384,198,93156,2,0,L|387:158,2,21.8750002086163
286,364,93328,5,4,1:2:0:0:
247,216,93499,2,0,L|242:239,2,15.625
164,340,93671,5,8,0:0:0:0:
241,207,93842,2,0,L|221:219,2,15.625
90,236,94013,5,0,0:0:0:0:
238,197,94185,2,0,L|215:192,2,15.625,0|0|0,1:0|0:0|0:0,0:0:0:0:
114,114,94356,5,8,0:0:0:0:
247,191,94528,2,0,L|234:171,2,15.625
216,41,94699,5,0,1:0:0:0:
255,189,94871,2,0,L|260:166,2,15.625
338,65,95042,5,8,0:0:0:0:
261,197,95213,2,0,L|280:184,2,15.625
412,169,95385,5,0,0:0:0:0:
264,208,95556,2,0,L|287:213,2,15.625,0|0|0,1:0|0:0|0:0,0:0:0:0:
388,291,95728,5,8,0:0:0:0:
255,214,95899,2,0,L|267:233,2,15.625
261,380,96071,5,4,1:2:0:0:
121,270,96242,2,0,L|91:266,2,21.8750002086163
261,367,96413,5,8,0:0:0:0:
406,269,96585,2,0,L|435:266,2,21.8750002086163
261,353,96756,5,0,0:0:0:0:
121,243,96928,2,0,L|92:238,2,21.8750002086163,0|0|0,1:0|0:0|0:0,0:0:0:0:
261,341,97099,5,8,0:0:0:0:
406,242,97271,2,0,L|436:238,2,21.8750002086163
261,329,97442,5,0,1:0:0:0:
121,218,97613,2,0,L|92:214,2,21.8750002086163
261,314,97785,5,8,0:0:0:0:
406,215,97956,2,0,L|435:211,2,21.8750002086163
261,304,98128,5,0,0:0:0:0:
121,194,98299,2,0,L|90:190,2,21.8750002086163,0|0|0,1:0|0:0|0:0,0:0:0:0:
261,290,98471,5,8,0:0:0:0:
406,191,98642,2,0,L|435:187,2,21.8750002086163
261,277,98813,5,4,1:2:0:0:
228,168,98985,2,0,L|226:152,2,15.625
275,68,99156,5,8,0:0:0:0:
242,177,99328,2,0,L|240:193,2,15.625
287,278,99499,5,0,0:0:0:0:
254,169,99671,2,0,L|252:153,2,15.625,0|0|0,1:0|0:0|0:0,0:0:0:0:
301,69,99842,5,8,0:0:0:0:
268,178,100013,2,0,L|266:194,2,15.625
315,280,100185,5,0,1:0:0:0:
282,171,100356,2,0,L|280:155,2,15.625
329,71,100528,5,8,0:0:0:0:
296,180,100699,2,0,L|294:196,2,15.625
341,281,100871,5,0,0:0:0:0:
308,172,101042,2,0,L|306:156,2,15.625,0|0|0,1:0|0:0|0:0,0:0:0:0:
355,72,101213,5,8,0:0:0:0:
322,181,101385,2,0,L|320:197,2,15.625
260,276,101556,5,4,1:2:0:0:
176,120,101728,2,0,L|173:94,2,21.8750002086163
260,286,101899,5,8,0:0:0:0:
344,130,102071,2,0,L|347:104,2,21.8750002086163
260,296,102242,5,0,0:0:0:0:
176,140,102413,2,0,L|173:114,2,21.8750002086163,0|0|0,1:0|0:0|0:0,0:0:0:0:
260,306,102585,5,8,0:0:0:0:
344,150,102756,2,0,L|347:124,2,21.8750002086163
260,316,102928,5,0,1:0:0:0:
176,160,103099,2,0,L|173:134,2,21.8750002086163
260,326,103271,5,8,0:0:0:0:
344,170,103442,2,0,L|347:144,2,21.8750002086163
260,336,103613,5,0,0:0:0:0:
176,180,103785,2,0,L|173:154,2,21.8750002086163,0|0|0,1:0|0:0|0:0,0:0:0:0:
260,346,103956,5,8,0:0:0:0:
344,190,104128,2,0,L|347:164,2,21.8750002086163
260,356,104299,5,4,1:2:0:0:
158,297,104471,2,0,L|160:321,2,15.625
260,346,104642,5,8,0:0:0:0:
365,296,104813,2,0,L|363:320,2,15.625
260,336,104985,5,0,0:0:0:0:
158,277,105156,2,0,L|160:301,2,15.625,0|0|0,1:0|0:0|0:0,0:0:0:0:
260,326,105328,5,8,0:0:0:0:
365,276,105499,2,0,L|363:300,2,15.625
260,316,105671,5,0,1:0:0:0:
158,257,105842,2,0,L|160:281,2,15.625
260,306,106013,5,8,0:0:0:0:
365,256,106185,2,0,L|363:280,2,15.625
260,296,106356,5,0,0:0:0:0:
158,237,106528,2,0,L|160:261,2,15.625,0|0|0,1:0|0:0|0:0,0:0:0:0:
260,286,106699,5,8,0:0:0:0:
365,236,106871,2,0,L|363:260,2,15.625
260,276,107042,5,4,1:2:0:0:
201,153,107213,2,0,L|174:134,2,21.8750002086163
260,253,107385,5,8,0:0:0:0:
383,193,107556,2,0,L|402:166,2,21.8750002086163
260,231,107728,5,0,0:0:0:0:
320,354,107899,2,0,L|347:373,2,21.8750002086163,0|0|0,1:0|0:0|0:0,0:0:0:0:
260,211,108071,5,8,0:0:0:0:
137,271,108242,2,0,L|118:298,2,21.8750002086163
440,32,108413,5,0,1:0:0:0:
472,256,108585,1,2,0:0:0:0:
400,120,108756,1,8,0:0:0:0:
376,312,108928,1,2,0:0:0:0:
296,80,109099,1,0,0:0:0:0:
306,221,109271,1,0,1:0:0:0:
216,133,109442,1,8,0:0:0:0:
202,231,109613,1,2,0:0:0:0:
128,88,109785,6,0,L|40:80,1,87.500000834465,4|2,1:2|0:0,0:0:0:0:
264,32,110128,2,0,L|365:19,1,87.500000834465,8|2,0:0|0:0,0:0:0:0:
378,29,110385,1,0,0:0:0:0:
402,50,110471,1,2,0:0:0:0:
418,78,110556,1,0,0:0:0:0:
424,111,110642,1,0,1:0:0:0:
254,116,110813,2,0,P|248:73|271:21,1,87.500000834465,8|2,0:0|0:0,0:0:0:0:
185,201,111156,5,0,1:0:0:0:
152,88,111328,1,2,0:0:0:0:
104,280,111499,1,8,0:0:0:0:
185,201,111671,1,2,0:0:0:0:
185,201,111756,1,0,0:0:0:0:
185,201,111842,2,0,P|217:193|281:209,1,87.500000834465,2|0,0:0|1:0,0:0:0:0:
336,376,112185,2,0,L|344:280,1,87.500000834465,8|2,0:0|0:0,0:0:0:0:
447,127,112528,5,4,1:2:0:0:
448,256,112699,1,2,0:0:0:0:
360,88,112871,2,0,P|331:71|265:70,1,87.500000834465,8|2,0:0|0:0,0:0:0:0:
278,66,113128,1,0,0:0:0:0:
278,66,113213,1,2,0:0:0:0:
244,197,113385,1,0,1:0:0:0:
184,0,113556,2,0,L|176:104,1,87.500000834465,8|2,0:0|0:0,0:0:0:0:
0,152,113899,6,0,L|98:145,1,87.500000834465,0|2,1:0|0:0,0:0:0:0:
329,208,114242,2,0,P|282:194|231:201,1,87.500000834465,8|2,0:0|0:0,0:0:0:0:
221,217,114499,1,0,0:0:0:0:
212,249,114585,1,2,0:0:0:0:
213,279,114671,1,0,0:0:0:0:
223,308,114756,1,0,1:0:0:0:
424,208,114928,2,0,P|402:155|359:125,1,87.500000834465,8|2,0:0|0:0,0:0:0:0:
231,7,115271,6,0,L|336:-2,1,87.500000834465,4|2,1:2|0:0,0:0:0:0:
144,104,115613,2,0,L|39:95,1,87.500000834465,8|2,0:0|0:0,0:0:0:0:
56,96,115871,1,0,0:0:0:0:
56,96,115956,1,2,0:0:0:0:
24,16,116128,1,0,1:0:0:0:
130,196,116299,2,0,P|136:243|114:300,1,87.500000834465,8|2,0:0|0:0,0:0:0:0:
56,96,116642,5,0,1:0:0:0:
24,206,116813,1,2,0:0:0:0:
185,114,116985,2,0,P|231:102|281:114,1,87.500000834465,8|2,0:0|0:0,0:0:0:0:
269,108,117242,1,0,0:0:0:0:
269,108,117328,1,2,0:0:0:0:
336,192,117499,1,0,1:0:0:0:
392,8,117671,2,0,L|400:120,1,87.500000834465,8|2,0:0|0:0,0:0:0:0:
429,260,118013,6,0,P|477:276|541:259,1,87.500000834465,4|2,1:2|0:0,0:0:0:0:
398,95,118356,1,8,0:0:0:0:
314,236,118528,1,2,0:0:0:0:
314,236,118613,1,0,0:0:0:0:
314,236,118699,2,0,L|306:148,1,87.500000834465,2|2,0:0|1:2,0:0:0:0:
195,18,119042,1,8,0:0:0:0:
176,105,119213,1,2,0:0:0:0:
0,25,119385,6,0,P|8:66|49:107,1,87.500000834465,0|2,1:0|0:0,0:0:0:0:
213,203,119728,2,0,P|195:248|147:285,1,87.500000834465,8|2,0:0|0:0,0:0:0:0:
142,294,119985,1,0,0:0:0:0:
111,306,120071,1,2,0:0:0:0:
79,308,120156,1,0,0:0:0:0:
47,302,120242,1,2,1:2:0:0:
215,111,120413,2,0,P|257:119|298:159,1,87.500000834465,8|2,0:0|0:0,0:0:0:0:
368,322,120756,6,0,L|373:224,1,87.500000834465,4|2,1:2|0:0,0:0:0:0:
511,384,121099,1,8,0:0:0:0:
488,224,121271,1,2,0:0:0:0:
486,202,121356,1,0,0:0:0:0:
484,180,121442,1,2,0:0:0:0:
482,158,121528,1,0,0:0:0:0:
480,136,121613,1,0,1:0:0:0:
415,334,121785,2,0,P|358:350|311:326,1,87.500000834465,8|2,0:0|0:0,0:0:0:0:
232,232,122128,5,0,1:0:0:0:
216,352,122299,1,2,0:0:0:0:
152,160,122471,2,0,P|106:152|56:168,1,87.500000834465,8|2,0:0|0:0,0:0:0:0:
67,161,122728,1,0,0:0:0:0:
67,161,122813,1,2,0:0:0:0:
48,272,122985,1,0,1:0:0:0:
224,72,123156,2,0,L|232:160,1,87.500000834465,8|2,0:0|0:0,0:0:0:0:
388,262,123499,6,0,L|293:252,1,87.500000834465,4|2,1:2|0:0,0:0:0:0:
475,104,123842,2,0,P|456:142|465:199,1,87.500000834465,8|2,0:0|0:0,0:0:0:0:
473,214,124099,1,0,0:0:0:0:
481,246,124185,1,2,0:0:0:0:
480,278,124271,1,0,0:0:0:0:
472,310,124356,1,0,1:0:0:0:
248,336,124528,1,8,0:0:0:0:
360,368,124699,1,2,0:0:0:0:
275,177,124871,6,0,P|266:134|274:91,1,87.500000834465,0|2,1:0|0:0,0:0:0:0:
388,262,125213,1,8,0:0:0:0:
225,277,125385,1,2,0:0:0:0:
203,277,125471,1,0,0:0:0:0:
181,278,125556,1,2,0:0:0:0:
159,279,125642,1,0,0:0:0:0:
137,280,125728,1,0,1:0:0:0:
80,120,125899,1,8,0:0:0:0:
64,224,126071,1,2,0:0:0:0:
173,46,126242,6,0,L|271:37,1,87.500000834465,4|2,1:2|0:0,0:0:0:0:
298,229,126585,1,8,0:0:0:0:
413,127,126756,1,2,0:0:0:0:
416,153,126842,1,0,0:0:0:0:
420,176,126928,2,0,L|431:269,1,87.500000834465,2|0,0:0|1:0,0:0:0:0:
356,31,127271,1,8,0:0:0:0:
313,179,127442,1,2,0:0:0:0:
192,0,127613,6,0,L|202:92,1,87.500000834465,0|2,1:0|0:0,0:0:0:0:
141,273,127956,1,8,0:0:0:0:
257,185,128128,1,2,0:0:0:0:
300,180,128213,1,0,0:0:0:0:
342,191,128299,1,2,0:0:0:0:
377,216,128385,1,0,0:0:0:0:
401,253,128471,1,0,1:0:0:0:
482,101,128642,2,0,L|492:210,1,87.500000834465,8|2,0:0|0:0,0:0:0:0:
370,341,128985,6,0,P|317:337|271:302,1,87.500000834465,4|2,1:2|0:0,0:0:0:0:
195,109,129328,1,8,0:0:0:0:
161,233,129499,1,0,0:0:0:0:
360,64,129671,6,0,L|244:60,1,87.500000834465,0|2,1:0|0:0,0:0:0:0:
381,254,130013,1,8,0:0:0:0:
421,127,130185,1,2,0:0:0:0:
264,270,130356,6,0,P|216:280|176:272,1,75
131,209,130699,2,0,L|128:165,1,25
80,56,130871,2,0,L|78:80,1,25
220,144,131042,1,0,0:0:0:0:
261,161,131128,1,0,0:0:0:0:
303,161,131213,1,0,0:0:0:0:
337,141,131299,1,0,0:0:0:0:
368,121,131385,1,0,0:0:0:0:
400,121,131471,1,0,0:0:0:0:
425,131,131556,1,0,0:0:0:0:
439,145,131642,1,0,0:0:0:0:
447,155,131728,5,0,1:0:0:0:
447,155,132242,1,0,1:0:0:0:
389,328,132413,2,0,L|381:222,1,100,8|0,0:0|1:0,0:0:0:0:
381,228,132928,1,2,0:0:0:0:
296,309,133099,2,0,P|229:327|160:293,1,125,0|0,1:0|0:0,0:0:0:0:
141,228,133613,1,0,1:0:0:0:
32,368,133785,2,0,L|21:200,1,150.000005722046,8|2,0:0|0:0,0:0:0:0:
22,218,134471,6,0,P|38:146|14:66,1,125,0|0,1:0|0:0,0:0:0:0:
28,96,134985,1,0,1:0:0:0:
154,15,135156,2,0,L|146:151,1,125,8|0,0:0|1:0,0:0:0:0:
146,139,135671,5,2,0:0:0:0:
288,16,135842,1,0,1:0:0:0:
288,168,136013,1,2,0:0:0:0:
397,95,136185,1,0,1:0:0:0:
426,182,136356,1,0,1:0:0:0:
319,248,136528,2,0,L|382:255,1,50,8|2,0:0|0:0,0:0:0:0:
415,360,136871,2,0,L|352:353,1,50,0|2,0:0|0:0,0:0:0:0:
472,296,137213,6,0,L|486:141,1,150,0|0,1:0|1:0,0:0:0:0:
400,24,137899,2,0,L|406:93,1,50,8|0,0:0|0:0,0:0:0:0:
336,200,138242,2,0,L|342:131,1,50,0|2,1:0|0:0,0:0:0:0:
236,15,138585,6,0,L|299:10,1,50,0|2,1:0|0:0,0:0:0:0:
398,60,138928,1,0,0:0:0:0:
340,150,139099,1,0,1:0:0:0:
490,18,139271,2,0,L|493:69,1,50,8|2,0:0|0:0,0:0:0:0:
425,252,139613,2,0,L|422:200,1,50,0|2,0:0|0:0,0:0:0:0:
511,160,139956,5,0,1:0:0:0:
315,62,140128,2,0,B|352:45|352:45|428:51,1,100,2|0,0:0|1:0,0:0:0:0:
235,0,140642,2,0,L|240:73,1,50,8|0,0:0|0:0,0:0:0:0:
267,134,140985,1,0,1:0:0:0:
119,68,141156,2,0,B|81:51|81:51|6:57,1,100,2|0,0:0|0:0,0:0:0:0:
33,213,141671,5,0,1:0:0:0:
59,132,141842,1,0,1:0:0:0:
83,319,142013,2,0,P|43:327|18:315,1,50,8|0,0:0|0:0,0:0:0:0:
176,296,142356,2,0,L|182:364,1,50,0|2,0:0|0:0,0:0:0:0:
264,248,142699,6,0,P|320:232|408:280,1,150,0|0,1:0|1:0,0:0:0:0:
481,202,143385,2,0,B|505:154|505:154|489:58,1,150,8|2,0:0|0:0,0:0:0:0:
482,43,144071,2,0,P|424:26|349:62,1,131.250001251698,0|0,1:0|1:0,0:0:0:0:
347,64,144756,2,0,P|310:84|263:81,1,75.0000028610231,8|2,0:0|0:0,0:0:0:0:
216,15,145271,1,2,0:0:0:0:
152,128,145442,6,0,L|164:264,1,131.250001251698,0|0,1:0|1:0,0:0:0:0:
33,88,146128,2,0,L|92:90,1,43.7500004172325,8|0,0:0|0:0,0:0:0:0:
195,126,146471,2,0,L|136:128,1,43.7500004172325,0|2,1:0|0:0,0:0:0:0:
256,192,146813,1,0,1:0:0:0:
316,107,146985,2,0,P|311:67|297:43,1,50,2|0,0:0|1:0,0:0:0:0:
307,58,147328,1,0,1:0:0:0:
365,206,147499,2,0,P|397:214|469:182,1,100,8|2,0:0|0:0,0:0:0:0:
480,112,148013,1,2,0:0:0:0:
466,285,148185,6,0,L|470:357,1,50,0|2,1:0|0:0,0:0:0:0:
403,137,148528,1,2,0:0:0:0:
376,321,148699,1,0,1:0:0:0:
323,181,148871,2,0,P|315:149|319:109,1,56.2500021457673,8|2,0:0|0:0,0:0:0:0:
249,357,149213,2,0,P|220:369|169:349,1,62.5,0|2,1:0|0:0,0:0:0:0:
136,140,149556,5,2,1:2:0:0:
77,380,149728,2,0,L|83:312,1,68.7500006556511,0|2,0:0|0:0,0:0:0:0:
26,220,150071,1,0,1:0:0:0:
208,293,150242,2,0,L|203:227,1,62.5,8|2,0:0|0:0,0:0:0:0:
138,131,150585,1,0,0:0:0:0:
110,242,150756,1,2,0:0:0:0:
141,44,150928,6,0,L|135:6,4,31.25,0|0|2|0|2,1:0|0:0|0:0|0:0|0:0,0:0:0:0:
224,0,151442,1,0,1:0:0:0:
287,137,151613,2,0,L|284:180,3,31.25,8|0|2|0,0:0|0:0|0:0|0:0,0:0:0:0:
354,50,151956,2,0,L|351:7,3,31.25,0|0|2|0,1:0|0:0|0:0|0:0,0:0:0:0:
465,50,152299,5,0,0:0:0:0:
500,93,152385,1,0,0:0:0:0:
451,104,152471,1,0,0:0:0:0:
483,131,152556,1,0,0:0:0:0:
443,131,152642,1,0,0:0:0:0:
468,158,152728,1,0,0:0:0:0:
445,160,152813,1,0,0:0:0:0:
454,180,152899,1,0,0:0:0:0:
436,182,152985,5,0,0:0:0:0:
443,192,153071,1,0,0:0:0:0:
430,200,153156,1,0,0:0:0:0:
435,210,153242,1,0,0:0:0:0:
429,214,153328,1,0,0:0:0:0:
432,221,153413,1,0,0:0:0:0:
429,227,153499,1,0,0:0:0:0:
432,232,153585,1,0,0:0:0:0:
431,238,153671,6,0,L|434:260,2,15.625,4|0|0,1:2|0:0|0:0,0:0:0:0:
283,183,154185,2,0,L|280:198,2,15.625,0|0|0,1:0|0:0|0:0,0:0:0:0:
350,142,154356,2,0,L|347:126,2,15.625,8|0|0,0:0|0:0|0:0,0:0:0:0:
283,16,154699,2,0,L|280:-6,2,15.625,0|0|0,1:0|0:0|0:0,0:0:0:0:
218,81,155042,6,0,L|215:103,2,15.625,0|0|0,1:0|0:0|0:0,0:0:0:0:
110,105,155385,2,0,L|127:118,2,15.625,0|0|0,1:0|0:0|0:0,0:0:0:0:
76,210,155728,2,0,L|96:201,2,15.625,8|0|0,0:0|0:0|0:0,0:0:0:0:
149,291,156071,2,0,L|152:269,2,15.625,0|0|0,1:0|0:0|0:0,0:0:0:0:
146,366,156242,2,0,L|148:381,2,15.625,0|0|0,1:0|0:0|0:0,0:0:0:0:
243,298,156413,6,0,L|275:294,2,21.8750002086163,4|0|0,1:2|0:0|0:0,0:0:0:0:
383,331,156928,2,0,L|354:329,2,21.8750002086163,0|0|0,1:0|0:0|0:0,0:0:0:0:
451,263,157099,2,0,L|480:260,2,21.8750002086163,8|0|0,0:0|0:0|0:0,0:0:0:0:
355,165,157442,2,0,L|327:162,2,21.8750002086163,0|0|0,1:0|0:0|0:0,0:0:0:0:
499,85,157785,6,0,L|504:56,2,21.8750002086163,0|0|0,0:0|0:0|0:0,0:0:0:0:
403,29,158128,2,0,L|400:2,2,21.8750002086163,0|0|0,1:0|0:0|0:0,0:0:0:0:
305,89,158471,2,0,L|307:61,2,21.8750002086163,8|0|0,0:0|0:0|0:0,0:0:0:0:
218,30,158813,2,0,L|214:2,2,21.8750002086163,0|0|0,1:0|0:0|0:0,0:0:0:0:
174,98,158985,2,0,L|170:128,2,21.8750002086163,0|0|0,1:0|0:0|0:0,0:0:0:0:
85,28,159156,6,0,L|59:25,2,15.625,4|0|0,1:2|0:0|0:0,0:0:0:0:
7,122,159499,2,0,L|33:119,2,15.625,0|0|0,0:0|0:0|0:0,0:0:0:0:
109,239,160013,2,0,L|83:236,2,15.625,0|0|0,0:0|0:0|0:0,0:0:0:0:
27,349,160528,6,0,L|24:375,2,15.625,0|0|0,1:0|0:0|0:0,0:0:0:0:
133,316,160871,2,0,L|136:342,2,15.625,0|0|0,1:0|0:0|0:0,0:0:0:0:
241,341,161213,2,0,L|238:367,2,15.625,8|0|0,0:0|0:0|0:0,0:0:0:0:
326,277,161556,2,0,L|323:251,2,15.625,0|0|0,1:0|0:0|0:0,0:0:0:0:
369,340,161728,2,0,L|367:367,2,15.625,0|0|0,1:0|0:0|0:0,0:0:0:0:
449,257,161899,6,0,L|481:256,2,21.8750002086163,4|0|0,1:2|0:0|0:0,0:0:0:0:
379,181,162242,2,0,L|376:151,2,21.8750002086163,0|0|0,1:0|0:0|0:0,0:0:0:0:
436,80,162585,2,0,L|466:77,2,21.8750002086163,8|0|0,0:0|0:0|0:0,0:0:0:0:
327,42,162928,2,0,L|297:39,2,21.8750002086163,0|0|0,1:0|0:0|0:0,0:0:0:0:
227,93,163271,6,0,L|230:63,2,21.8750002086163,0|0|0,1:0|0:0|0:0,0:0:0:0:
182,156,163442,2,0,L|185:186,2,21.8750002086163,0|0|0,0:0|0:0|0:0,0:0:0:0:
154,86,163613,2,0,L|157:56,2,21.8750002086163,0|0|0,1:0|0:0|0:0,0:0:0:0:
109,149,163785,2,0,L|112:179,2,21.8750002086163,0|0|0,1:0|0:0|0:0,0:0:0:0:
80,261,163956,6,0,L|77:231,2,21.8750002086163,8|0|0,0:0|0:0|0:0,0:0:0:0:
125,324,164128,2,0,L|122:354,2,21.8750002086163,0|0|0,0:0|0:0|0:0,0:0:0:0:
153,254,164299,2,0,L|150:224,2,21.8750002086163,0|0|0,0:0|0:0|0:0,0:0:0:0:
198,317,164471,2,0,L|195:347,2,21.8750002086163
261,274,164642,6,0,L|285:271,2,15.625,4|0|0,1:2|0:0|0:0,0:0:0:0:
387,341,165156,2,0,L|390:365,2,15.625,0|0|0,1:0|0:0|0:0,0:0:0:0:
413,272,165328,2,0,L|416:248,2,15.625,8|0|0,0:0|0:0|0:0,0:0:0:0:
342,150,165671,2,0,L|345:174,2,15.625,0|0|0,1:0|0:0|0:0,0:0:0:0:
459,109,166013,6,0,L|483:112,2,15.625,0|0|0,1:0|0:0|0:0,0:0:0:0:
388,27,166356,2,0,L|364:30,2,15.625,0|0|0,0:0|0:0|0:0,0:0:0:0:
315,117,166699,2,0,L|339:120,2,15.625,8|0|0,0:0|0:0|0:0,0:0:0:0:
244,35,167042,2,0,L|220:38,2,15.625,0|0|0,1:0|0:0|0:0,0:0:0:0:
196,103,167213,2,0,L|180:101,2,15.625,0|0|0,1:0|0:0|0:0,0:0:0:0:
99,45,167385,6,0,L|96:17,2,21.8750002086163,4|0|0,1:2|0:0|0:0,0:0:0:0:
41,156,167899,2,0,L|38:184,2,21.8750002086163,0|0|0,1:0|0:0|0:0,0:0:0:0:
114,206,168071,2,0,L|111:178,2,21.8750002086163,8|0|0,0:0|0:0|0:0,0:0:0:0:
16,280,168413,2,0,L|13:308,2,21.8750002086163,0|0|0,1:0|0:0|0:0,0:0:0:0:
143,361,168756,2,0,L|140:333,2,21.8750002086163,0|0|0,1:0|0:0|0:0,0:0:0:0:
218,221,169099,2,0,L|221:249,2,21.8750002086163,0|0|0,1:0|0:0|0:0,0:0:0:0:
284,365,169442,2,0,L|281:337,2,21.8750002086163,8|0|0,0:0|0:0|0:0,0:0:0:0:
360,224,169785,2,0,L|363:252,2,21.8750002086163,0|0|0,1:0|0:0|0:0,0:0:0:0:
429,181,169956,2,0,L|432:153,2,21.8750002086163,0|0|0,1:0|0:0|0:0,0:0:0:0:
307,152,170128,6,0,L|288:141,2,15.625,4|0|0,0:0|0:0|0:0,0:0:0:0:
384,88,170471,2,0,L|403:77,2,15.625
240,40,170985,2,0,L|221:29,2,15.625,0|0|0,0:0|0:0|0:0,0:0:0:0:
128,96,171499,6,0,L|139:76,2,15.625,0|0|0,1:0|0:0|0:0,0:0:0:0:
47,184,171842,2,0,L|36:164,2,15.625,0|0|0,1:0|0:0|0:0,0:0:0:0:
161,222,172185,2,0,L|172:202,2,15.625,8|0|0,0:0|0:0|0:0,0:0:0:0:
80,310,172528,2,0,L|69:291,2,15.625,0|0|0,1:0|0:0|0:0,0:0:0:0:
143,353,172699,2,0,L|132:372,2,15.625,0|0|0,1:0|0:0|0:0,0:0:0:0:
248,288,172871,6,0,L|253:318,2,21.8750002086163,4|0|0,1:2|0:0|0:0,0:0:0:0:
354,363,173213,2,0,L|359:333,2,21.8750002086163
360,208,173556,2,0,L|365:238,2,21.8750002086163,8|0|0,0:0|0:0|0:0,0:0:0:0:
466,283,173899,2,0,L|471:253,2,21.8750002086163,0|0|0,1:0|0:0|0:0,0:0:0:0:
427,148,174242,6,0,L|436:207,2,43.7500004172325,0|0|0,1:0|0:0|0:0,0:0:0:0:
504,152,174499,2,0,L|506:104,2,43.7500004172325,0|0|0,0:0|1:0|0:0,0:0:0:0:
503,28,174756,5,0,1:0:0:0:
455,10,174842,1,0,0:0:0:0:
409,28,174928,1,8,0:0:0:0:
337,117,175099,1,2,0:0:0:0:
358,207,175271,1,0,0:0:0:0:
427,241,175442,1,2,0:0:0:0:
278,228,175613,6,0,P|196:267|164:368,1,200,4|2,0:0|0:0,0:0:0:0:
33,148,178356,2,0,B|56:215|56:215|45:354,1,200,0|2,0:0|0:0,0:0:0:0:
232,158,181099,6,0,L|28:147,1,200,0|2,0:0|0:0,0:0:0:0:
296,42,183842,1,0,0:0:0:0:
278,241,186585,6,0,L|296:34,1,200,0|2,0:0|0:0,0:0:0:0:
295,340,189328,2,0,B|422:294|422:294|486:302,1,200,0|2,0:0|0:0,0:0:0:0:
277,149,192071,6,0,P|261:245|301:349,1,200,0|2,0:0|0:0,0:0:0:0:
136,152,194813,1,0,0:0:0:0:
207,84,197556,6,0,P|185:69|31:170,1,239.999992675781,0|2,0:0|0:0,0:0:0:0:
7,26,199613,1,0,0:0:0:0:
15,254,200299,2,0,B|69:304|69:304|240:288,1,239.999992675781,0|2,0:0|0:0,0:0:0:0:
234,288,202356,5,0,0:0:0:0:
288,160,202699,1,0,0:0:0:0:
315,358,203042,2,0,P|374:287|382:383,1,239.999992675781,0|2,0:0|0:0,0:0:0:0:
382,382,205099,5,0,0:0:0:0:
496,296,205442,1,0,0:0:0:0:
305,220,205785,1,0,0:0:0:0:
168,344,208528,6,0,L|164:272,1,59.9999981689454,0|2,0:0|0:0,0:0:0:0:
285,192,209385,1,0,0:0:0:0:
272,288,209556,1,2,0:0:0:0:
372,31,209899,5,0,0:0:0:0:
385,127,210071,1,0,0:0:0:0:
398,223,210242,1,2,0:0:0:0:
232,16,210756,1,0,0:0:0:0:
219,112,210928,1,2,0:0:0:0:
395,197,211271,5,0,0:0:0:0:
299,210,211442,1,0,0:0:0:0:
203,223,211613,1,2,0:0:0:0:
468,94,212128,1,0,0:0:0:0:
372,81,212299,1,2,0:0:0:0:
326,336,212642,5,0,0:0:0:0:
313,240,212813,1,0,0:0:0:0:
300,144,212985,1,2,0:0:0:0:
175,339,213499,1,0,0:0:0:0:
188,243,213671,1,2,0:0:0:0:
32,208,214013,6,0,L|95:202,1,37.5000014305115,0|0,1:0|0:0,0:0:0:0:
188,243,214356,1,2,0:0:0:0:
186,38,214699,2,0,L|148:34,1,37.5000014305115,0|0,1:0|0:0,0:0:0:0:
21,2,215042,1,2,0:0:0:0:
272,192,215385,6,0,L|280:124,1,37.5000014305115,0|0,1:0|0:0,0:0:0:0:
341,39,215728,1,2,0:0:0:0:
186,158,216071,2,0,L|180:105,1,37.5000014305115,0|0,1:0|0:0,0:0:0:0:
268,279,216413,2,0,L|275:348,1,37.5000014305115,2|0,0:0|0:0,0:0:0:0:
473,237,216756,6,0,L|434:232,1,25
355,178,216928,2,0,L|380:175,1,25
456,128,217099,2,0,L|459:152,1,25
352,307,217271,2,0,L|357:268,1,25
314,75,217442,2,0,L|309:114,1,25
194,259,217613,2,0,L|190:234,1,25
216,19,217785,2,0,L|221:58,1,25
273,327,217956,2,0,L|276:302,1,25
405,12,218128,5,0,0:0:0:0:
408,49,218213,1,0,0:0:0:0:
411,86,218299,1,0,0:0:0:0:
414,124,218385,1,0,0:0:0:0:
417,161,218471,5,0,0:0:0:0:
369,132,218556,1,0,0:0:0:0:
313,127,218642,1,0,0:0:0:0:
261,148,218728,1,0,0:0:0:0:
224,190,218813,5,0,0:0:0:0:
181,237,218899,1,0,0:0:0:0:
120,255,218985,1,0,0:0:0:0:
59,232,219071,1,0,0:0:0:0:
22,172,219156,5,0,0:0:0:0:
26,98,219242,1,0,0:0:0:0:
77,45,219328,1,0,0:0:0:0:
150,39,219413,1,0,0:0:0:0:
216,88,219499,5,0,1:2:0:0:
323,24,219671,2,0,L|321:54,2,15.625,2|0|0,0:0|0:0|0:0,0:0:0:0:
299,251,219842,1,10,0:0:0:0:
326,161,220013,2,0,L|324:132,2,15.625
370,291,220185,1,0,0:0:0:0:
230,167,220356,5,2,1:2:0:0:
440,261,220528,2,0,L|446:196,1,50,10|0,0:0|0:0,0:0:0:0:
152,316,220871,5,0,1:0:0:0:
180,191,221042,1,2,0:0:0:0:
6,40,221213,1,10,0:0:0:0:
45,155,221385,2,0,L|42:183,2,15.625
85,18,221556,1,0,0:0:0:0:
8,258,221728,5,2,1:2:0:0:
160,30,221899,2,0,L|167:100,1,50,10|0,0:0|0:0,0:0:0:0:
401,340,222242,5,0,1:2:0:0:
426,217,222413,2,0,L|461:212,2,21.8750002086163,2|0|0,0:0|0:0|0:0,0:0:0:0:
229,163,222585,1,10,0:0:0:0:
312,102,222756,2,0,L|316:62,2,21.8750002086163
214,7,222928,1,0,0:0:0:0:
334,203,223099,5,2,1:2:0:0:
456,5,223271,2,0,L|462:72,1,50,10|0,0:0|0:0,0:0:0:0:
327,343,223613,5,0,1:0:0:0:
341,204,223785,1,2,0:0:0:0:
183,368,223956,1,10,0:0:0:0:
211,266,224128,2,0,L|208:238,2,21.8750002086163
258,384,224299,1,0,0:0:0:0:
250,157,224471,5,2,1:2:0:0:
80,347,224642,2,0,L|87:278,1,50,10|0,0:0|0:0,0:0:0:0:
164,11,224985,5,0,1:2:0:0:
17,29,225156,2,0,L|15:58,2,15.625,2|0|0,0:0|0:0|0:0,0:0:0:0:
234,150,225328,1,10,0:0:0:0:
143,117,225499,2,0,L|116:121,2,15.625
231,58,225671,1,0,0:0:0:0:
183,230,225842,5,2,1:2:0:0:
317,26,226013,2,0,L|308:96,1,50,10|0,0:0|0:0,0:0:0:0:
73,307,226356,5,0,1:0:0:0:
41,151,226528,1,2,0:0:0:0:
187,356,226699,1,10,0:0:0:0:
206,238,226871,2,0,L|208:208,2,15.625
266,352,227042,1,0,0:0:0:0:
148,151,227213,5,2,1:2:0:0:
286,356,227385,2,0,L|293:285,1,50,10|0,0:0|0:0,0:0:0:0:
475,43,227728,5,0,1:2:0:0:
444,185,227899,2,0,L|451:224,2,21.8750002086163,2|0|0,0:0|0:0|0:0,0:0:0:0:
281,31,228071,1,10,0:0:0:0:
324,128,228242,2,0,L|321:159,2,21.8750002086163
372,16,228413,1,0,0:0:0:0:
222,163,228585,5,2,1:2:0:0:
499,225,228756,2,0,L|429:212,1,50,10|0,0:0|0:0,0:0:0:0:
263,375,229099,5,0,1:0:0:0:
247,258,229271,1,2,0:0:0:0:
64,373,229442,1,10,0:0:0:0:
111,287,229613,2,0,L|107:257,2,21.8750002086163
180,384,229785,1,0,0:0:0:0:
54,199,229956,5,2,1:2:0:0:
273,155,230128,2,0,L|212:148,1,50,10|0,0:0|0:0,0:0:0:0:
424,29,230471,5,0,1:2:0:0:
280,50,230642,2,0,L|277:24,2,15.625,2|0|0,0:0|0:0|0:0,0:0:0:0:
367,233,230813,1,10,0:0:0:0:
288,156,230985,2,0,L|262:153,2,15.625
422,155,231156,1,0,0:0:0:0:
219,244,231328,5,2,1:2:0:0:
436,153,231499,2,0,L|443:90,1,50,10|0,0:0|0:0,0:0:0:0:
508,289,231842,5,0,1:0:0:0:
512,132,232013,1,2,0:0:0:0:
364,344,232185,1,10,0:0:0:0:
267,293,232356,2,0,L|241:296,2,15.625
407,254,232528,1,0,0:0:0:0:
258,106,232699,5,2,1:2:0:0:
180,368,232871,2,0,L|252:377,1,50,10|0,0:0|0:0,0:0:0:0:
203,262,233213,5,0,1:2:0:0:
239,166,233385,2,0,L|243:133,2,21.8750002086163,2|0|0,0:0|0:0|0:0,0:0:0:0:
95,324,233556,1,10,0:0:0:0:
52,236,233728,2,0,L|11:231,2,21.8750002086163
165,190,233899,1,0,0:0:0:0:
0,325,234071,5,2,1:2:0:0:
59,67,234242,2,0,L|68:137,1,50,10|0,0:0|0:0,0:0:0:0:
319,2,234585,5,0,1:0:0:0:
293,148,234756,1,2,0:0:0:0:
99,0,234928,1,10,0:0:0:0:
140,106,235099,2,0,L|138:135,2,21.8750002086163
240,0,235271,1,0,0:0:0:0:
168,218,235442,5,2,1:2:0:0:
401,101,235613,2,0,L|395:33,1,50,10|0,0:0|0:0,0:0:0:0:
253,222,235956,5,0,1:2:0:0:
276,79,236128,2,0,L|274:56,2,15.625,2|0|0,0:0|0:0|0:0,0:0:0:0:
327,333,236299,1,10,0:0:0:0:
366,218,236471,2,0,L|371:190,2,15.625
335,354,236642,1,0,0:0:0:0:
450,163,236813,5,2,1:2:0:0:
458,356,236985,2,0,L|466:286,1,50,10|0,0:0|0:0,0:0:0:0:
424,67,237328,5,0,1:0:0:0:
333,173,237499,1,2,0:0:0:0:
113,17,237671,1,10,0:0:0:0:
181,115,237842,2,0,L|180:143,2,15.625
207,0,238013,1,0,0:0:0:0:
102,203,238185,5,2,1:2:0:0:
291,90,238356,2,0,L|285:24,1,50,10|0,0:0|0:0,0:0:0:0:
367,229,238699,5,0,1:2:0:0:
397,112,238871,2,0,L|401:84,2,21.8750002086163,2|0|0,0:0|0:0|0:0,0:0:0:0:
247,274,239042,1,10,0:0:0:0:
200,171,239213,2,0,L|196:138,2,21.8750002086163
161,300,239385,1,0,0:0:0:0:
184,49,239556,5,2,1:2:0:0:
314,214,239728,2,0,L|321:144,1,50,10|0,0:0|0:0,0:0:0:0:
378,29,240071,5,0,1:0:0:0:
206,347,240242,1,2,0:0:0:0:
296,52,240413,1,8,0:0:0:0:
282,307,240585,1,2,0:0:0:0:
262,98,240756,1,0,0:0:0:0:
312,260,240928,1,0,1:0:0:0:
245,142,241099,1,8,0:0:0:0:
313,214,241271,1,2,0:0:0:0:
153,136,241442,6,0,P|109:136|44:179,1,87.500000834465,4|2,1:2|0:0,0:0:0:0:
75,341,241785,1,8,0:0:0:0:
191,256,241956,1,2,0:0:0:0:
232,243,242042,1,0,0:0:0:0:
275,245,242128,1,2,0:0:0:0:
315,262,242213,1,0,0:0:0:0:
347,293,242299,1,0,1:0:0:0:
472,176,242471,2,0,L|460:294,1,87.500000834465,8|2,0:0|0:0,0:0:0:0:
384,136,242813,6,0,L|372:18,1,87.500000834465,0|2,1:0|0:0,0:0:0:0:
318,258,243156,1,8,0:0:0:0:
246,114,243328,1,2,0:0:0:0:
241,151,243413,1,0,0:0:0:0:
236,188,243499,1,2,0:0:0:0:
193,58,243671,1,0,1:0:0:0:
135,259,243842,2,0,P|87:283|39:276,1,87.500000834465,8|2,0:0|0:0,0:0:0:0:
200,328,244185,6,0,P|240:344|314:321,1,87.500000834465,4|2,1:2|0:0,0:0:0:0:
303,124,244528,1,8,0:0:0:0:
450,210,244699,1,2,0:0:0:0:
453,253,244785,1,0,0:0:0:0:
456,297,244871,1,2,0:0:0:0:
460,340,244956,1,0,0:0:0:0:
463,384,245042,1,0,1:0:0:0:
489,133,245213,2,0,P|433:125|385:149,1,87.500000834465,8|2,0:0|0:0,0:0:0:0:
296,248,245556,6,0,L|288:341,1,87.500000834465,0|2,1:0|0:0,0:0:0:0:
221,100,245899,1,8,0:0:0:0:
168,258,246071,1,2,0:0:0:0:
148,278,246156,1,0,0:0:0:0:
128,294,246242,2,0,P|72:310|36:304,1,87.500000834465,2|0,0:0|1:0,0:0:0:0:
221,100,246585,2,0,L|226:201,1,87.500000834465,8|2,0:0|0:0,0:0:0:0:
130,77,246928,6,0,P|82:61|18:69,1,87.500000834465,4|2,1:2|0:0,0:0:0:0:
168,256,247271,1,8,0:0:0:0:
221,100,247442,1,2,0:0:0:0:
259,80,247528,1,0,0:0:0:0:
302,73,247613,1,2,0:0:0:0:
346,79,247699,1,0,0:0:0:0:
385,98,247785,1,0,1:0:0:0:
311,279,247956,2,0,P|298:232|305:180,1,87.500000834465,8|2,0:0|0:0,0:0:0:0:
378,338,248299,6,0,P|338:362|276:359,1,87.500000834465,0|2,1:0|0:0,0:0:0:0:
464,152,248642,2,0,L|472:258,1,87.500000834465,8|2,0:0|0:0,0:0:0:0:
484,270,248899,1,0,0:0:0:0:
486,226,248985,1,2,0:0:0:0:
488,182,249071,1,0,0:0:0:0:
491,138,249156,1,0,1:0:0:0:
474,360,249328,1,8,0:0:0:0:
399,222,249499,1,2,0:0:0:0:
493,384,249671,6,0,L|483:278,1,87.500000834465,4|2,1:2|0:0,0:0:0:0:
385,77,250013,1,8,0:0:0:0:
320,224,250185,1,2,0:0:0:0:
290,239,250271,1,0,0:0:0:0:
258,241,250356,2,0,P|205:227|159:187,1,87.500000834465,2|2,0:0|1:2,0:0:0:0:
385,77,250699,2,0,L|395:183,1,87.500000834465,8|2,0:0|0:0,0:0:0:0:
368,280,251042,6,0,L|361:377,1,87.500000834465,0|2,1:0|0:0,0:0:0:0:
257,136,251385,1,8,0:0:0:0:
181,221,251556,1,2,0:0:0:0:
175,251,251642,1,0,0:0:0:0:
171,278,251728,2,0,L|179:374,1,87.500000834465,2|2,0:0|1:2,0:0:0:0:
66,144,252071,1,8,0:0:0:0:
29,294,252242,1,2,0:0:0:0:
190,192,252413,6,0,P|234:181|285:197,1,87.500000834465,4|2,1:2|0:0,0:0:0:0:
112,384,252756,1,8,0:0:0:0:
60,239,252928,1,2,0:0:0:0:
57,195,253013,1,0,0:0:0:0:
55,151,253099,2,0,L|57:105,1,43.7500004172325,2|0,0:0|0:0,0:0:0:0:
142,22,253271,1,0,1:0:0:0:
190,192,253442,2,0,P|246:200|302:176,1,87.500000834465,8|2,0:0|0:0,0:0:0:0:
340,23,253785,6,0,L|346:125,1,87.500000834465,0|2,1:0|0:0,0:0:0:0:
288,304,254128,1,8,0:0:0:0:
419,182,254299,1,2,0:0:0:0:
391,204,254385,1,0,0:0:0:0:
359,212,254471,2,0,P|316:208|270:164,1,87.500000834465,2|0,0:0|1:0,0:0:0:0:
480,16,254813,1,8,0:0:0:0:
488,144,254985,1,2,0:0:0:0:
340,23,255156,6,0,P|287:27|245:58,1,87.500000834465,4|2,1:2|0:0,0:0:0:0:
166,241,255499,2,0,L|163:135,1,87.500000834465,8|2,0:0|0:0,0:0:0:0:
163,153,255756,1,0,0:0:0:0:
163,153,255842,1,2,0:0:0:0:
48,209,256013,1,0,1:0:0:0:
91,0,256185,2,0,L|95:100,1,87.500000834465,8|2,0:0|0:0,0:0:0:0:
166,241,256528,6,0,P|206:256|248:249,1,87.500000834465,0|2,1:0|0:0,0:0:0:0:
309,56,256871,1,8,0:0:0:0:
393,186,257042,1,2,0:0:0:0:
395,142,257128,1,0,0:0:0:0:
398,98,257213,1,2,0:0:0:0:
400,54,257299,1,0,0:0:0:0:
403,11,257385,1,0,1:0:0:0:
490,244,257556,2,0,L|486:132,1,87.500000834465,8|2,0:0|0:0,0:0:0:0:
371,277,257899,6,0,L|367:368,1,87.500000834465,4|2,1:2|0:0,0:0:0:0:
306,130,258242,1,8,0:0:0:0:
233,228,258413,1,2,0:0:0:0:
235,271,258499,1,0,0:0:0:0:
238,315,258585,1,2,0:0:0:0:
176,160,258756,1,0,1:0:0:0:
89,372,258928,2,0,L|97:271,1,87.500000834465,8|2,0:0|0:0,0:0:0:0:
13,160,259271,6,0,L|20:289,1,87.500000834465,0|2,1:0|0:0,0:0:0:0:
92,20,259613,1,8,0:0:0:0:
160,161,259785,1,2,0:0:0:0:
162,118,259871,1,0,0:0:0:0:
165,74,259956,1,2,0:0:0:0:
227,224,260128,1,0,1:0:0:0:
288,16,260299,2,0,L|293:121,1,87.500000834465,8|2,0:0|0:0,0:0:0:0:
371,222,260642,6,0,L|380:110,1,87.500000834465,4|2,1:2|0:0,0:0:0:0:
259,369,260985,2,0,L|250:257,1,87.500000834465,8|0,0:0|0:0,0:0:0:0:
167,130,261328,2,0,L|158:18,1,87.500000834465,0|2,0:0|1:2,0:0:0:0:
75,384,261671,2,0,L|84:272,1,87.500000834465,8|2,0:0|0:0,0:0:0:0:
273,211,262013,6,0,L|268:123,2,58.3333338896433
256,328,262356,5,0,0:0:0:0:
304,344,262471,1,0,0:0:0:0:
351,324,262585,1,0,0:0:0:0:
453,208,262699,6,0,L|453:290,2,66.6666666666667
489,73,263042,5,0,0:0:0:0:
415,15,263156,1,0,0:0:0:0:
323,37,263271,1,0,0:0:0:0:
247,180,263385,6,0,B|237:118|237:118|248:83,1,100,0|2,1:0|0:0,0:0:0:0:
248,83,263899,1,0,1:0:0:0:
164,291,264071,2,0,L|170:199,1,75.0000028610231,8|2,0:0|0:0,0:0:0:0:
94,181,264413,1,0,1:0:0:0:
200,320,264585,2,0,L|195:241,1,75.0000028610231,2|0,0:0|1:0,0:0:0:0:
234,349,264928,2,0,L|239:270,1,75.0000028610231,2|0,0:0|0:0,0:0:0:0:
312,195,265271,1,0,1:0:0:0:
265,366,265442,2,0,L|262:288,1,75.0000028610231,8|2,0:0|0:0,0:0:0:0:
283,384,265785,2,0,L|288:308,1,75.0000028610231,0|2,0:0|0:0,0:0:0:0:
447,295,266128,5,0,1:0:0:0:
312,210,266299,2,0,L|388:208,1,75.0000028610231,2|0,0:0|0:0,0:0:0:0:
440,144,266642,1,0,1:0:0:0:
283,223,266813,2,0,L|359:231,1,75.0000028610231,8|2,0:0|0:0,0:0:0:0:
448,152,267156,1,0,1:0:0:0:
328,12,267328,2,0,L|322:88,1,75.0000028610231,2|0,0:0|1:0,0:0:0:0:
303,34,267671,2,0,L|307:113,1,75.0000028610231,2|0,0:0|1:0,0:0:0:0:
284,4,268013,2,0,L|283:83,1,75.0000028610231,0|8,1:0|0:0,0:0:0:0:
258,35,268356,2,0,L|264:115,1,75.0000028610231,2|0,0:0|0:0,0:0:0:0:
162,10,268699,1,2,0:0:0:0:
138,205,268871,5,0,1:0:0:0:
21,138,269042,2,0,L|98:134,1,75.0000028610231,2|0,0:0|0:0,0:0:0:0:
138,224,269385,1,0,1:0:0:0:
280,184,269556,2,0,L|204:178,1,75.0000028610231,8|2,0:0|0:0,0:0:0:0:
288,335,269899,1,0,1:0:0:0:
385,266,270071,2,0,L|378:185,1,75.0000028610231,2|0,0:0|1:0,0:0:0:0:
407,239,270413,2,0,L|412:163,1,75.0000028610231,2|0,0:0|0:0,0:0:0:0:
463,316,270756,1,0,1:0:0:0:
389,202,270928,2,0,L|385:127,1,75.0000028610231,8|2,0:0|0:0,0:0:0:0:
355,243,271271,2,0,L|362:162,1,75.0000028610231,0|2,0:0|0:0,0:0:0:0:
296,112,271613,5,0,1:0:0:0:
173,57,271785,2,0,L|252:51,1,75.0000028610231,2|0,0:0|0:0,0:0:0:0:
128,85,272128,2,0,L|207:92,1,75.0000028610231,0|8,1:0|0:0,0:0:0:0:
88,47,272471,2,0,L|166:41,1,75.0000028610231,2|0,0:0|1:0,0:0:0:0:
43,76,272813,2,0,L|132:87,1,75.0000028610231,2|0,0:0|1:0,0:0:0:0:
29,120,273156,2,0,L|22:38,1,75.0000028610231,2|0,0:0|1:0,0:0:0:0:
57,165,273499,2,0,L|64:82,1,75.0000028610231,0|8,1:0|0:0,0:0:0:0:
20,205,273842,2,0,L|14:125,1,75.0000028610231,2|0,0:0|0:0,0:0:0:0:
80,312,274185,1,2,0:0:0:0:
156,155,274356,5,0,1:0:0:0:
211,299,274528,2,0,L|221:223,1,75.0000028610231,2|0,0:0|0:0,0:0:0:0:
291,188,274871,1,0,1:0:0:0:
211,335,275042,2,0,L|200:258,1,75.0000028610231,8|2,0:0|0:0,0:0:0:0:
172,138,275385,1,0,1:0:0:0:
246,24,275556,2,0,L|323:29,1,75.0000028610231,2|0,0:0|1:0,0:0:0:0:
272,66,275899,2,0,L|354:60,1,75.0000028610231,2|0,0:0|0:0,0:0:0:0:
158,0,276242,1,0,1:0:0:0:
227,177,276413,2,0,L|235:99,1,75.0000028610231,8|2,0:0|0:0,0:0:0:0:
200,213,276756,2,0,L|192:136,1,75.0000028610231,0|2,0:0|0:0,0:0:0:0:
142,10,277099,5,0,1:0:0:0:
90,190,277271,2,0,L|84:114,1,75.0000028610231,2|0,0:0|0:0,0:0:0:0:
9,19,277613,1,0,1:0:0:0:
110,218,277785,2,0,L|120:142,1,75.0000028610231,8|2,0:0|0:0,0:0:0:0:
213,62,278128,1,0,1:0:0:0:
344,160,278299,2,0,L|269:167,1,75.0000028610231,2|0,0:0|1:0,0:0:0:0:
390,192,278642,2,0,L|314:185,1,75.0000028610231,2|0,0:0|1:0,0:0:0:0:
422,165,278985,2,0,L|348:167,1,75.0000028610231,0|8,1:0|0:0,0:0:0:0:
462,205,279328,2,0,L|386:197,1,75.0000028610231,2|0,0:0|0:0,0:0:0:0:
511,129,279671,1,2,0:0:0:0:
336,312,279842,5,0,1:0:0:0:
256,160,280013,2,0,L|248:247,1,75.0000028610231,2|0,0:0|0:0,0:0:0:0:
166,285,280356,1,0,1:0:0:0:
258,128,280528,2,0,L|266:207,1,75.0000028610231,8|2,0:0|0:0,0:0:0:0:
144,24,280871,1,0,1:0:0:0:
112,176,281042,1,2,0:0:0:0:
38,19,281213,1,0,1:0:0:0:
109,194,281385,2,0,L|97:114,1,75.0000028610231,0|2,0:0|0:0,0:0:0:0:
188,46,281728,1,0,1:0:0:0:
117,221,281899,2,0,L|128:139,1,75.0000028610231,8|2,0:0|0:0,0:0:0:0:
108,260,282242,2,0,L|98:177,1,75.0000028610231,0|2,0:0|0:0,0:0:0:0:
56,344,282585,5,0,1:0:0:0:
240,328,282756,2,0,L|164:321,1,75.0000028610231,2|0,0:0|0:0,0:0:0:0:
278,289,283099,2,0,L|202:290,1,75.0000028610231,0|8,1:0|0:0,0:0:0:0:
308,323,283442,2,0,L|222:314,1,75.0000028610231,2|0,0:0|1:0,0:0:0:0:
368,208,283785,1,2,0:0:0:0:
416,304,283956,6,0,L|420:335,3,25,0|0|2|0,1:0|0:0|0:0|0:0,0:0:0:0:
480,200,284299,2,0,L|484:154,3,37.5000014305115,0|0|0|0,1:0|0:0|1:0|0:0,0:0:0:0:
409,81,284642,1,8,0:0:0:0:
382,72,284728,1,0,0:0:0:0:
354,72,284813,1,2,0:0:0:0:
328,83,284899,1,0,0:0:0:0:
307,101,284985,1,0,0:0:0:0:
286,119,285071,1,0,0:0:0:0:
260,130,285156,1,2,0:0:0:0:
232,130,285242,1,0,0:0:0:0:
208,120,285328,6,0,L|205:92,2,15.625,4|0|0,1:2|0:0|0:0,0:0:0:0:
152,176,285499,2,0,L|149:204,2,15.625,0|0|0,0:0|0:0|0:0,0:0:0:0:
31,52,285842,2,0,L|34:24,2,15.625,0|0|0,1:0|0:0|0:0,0:0:0:0:
87,108,286013,2,0,L|90:136,2,15.625,8|0|0,0:0|0:0|0:0,0:0:0:0:
16,246,286356,6,0,L|13:274,2,15.625,0|0|0,1:0|0:0|0:0,0:0:0:0:
142,344,286699,2,0,L|145:372,2,15.625,0|0|0,1:0|0:0|0:0,0:0:0:0:
262,250,287042,2,0,L|265:222,2,15.625,0|0|0,0:0|0:0|0:0,0:0:0:0:
382,355,287385,2,0,L|385:383,2,15.625,8|0|0,0:0|0:0|0:0,0:0:0:0:
456,216,287728,2,0,L|454:200,2,15.625,0|0|0,1:0|0:0|0:0,0:0:0:0:
512,272,287899,2,0,L|510:287,2,15.625,0|0|0,1:0|0:0|0:0,0:0:0:0:
481,128,288071,6,0,L|516:124,2,21.8750002086163,4|0|0,1:2|0:0|0:0,0:0:0:0:
427,75,288242,2,0,L|392:71,2,21.8750002086163,0|0|0,0:0|0:0|0:0,0:0:0:0:
288,56,288585,2,0,L|253:52,2,21.8750002086163,0|0|0,1:0|0:0|0:0,0:0:0:0:
342,3,288756,2,0,L|377:-1,2,21.8750002086163,8|0|0,0:0|0:0|0:0,0:0:0:0:
144,176,289099,6,0,L|148:211,2,21.8750002086163,0|0|0,1:0|0:0|0:0,0:0:0:0:
205,125,289271,2,0,L|211:77,1,43.7500004172325,0|0,0:0|0:0,0:0:0:0:
179,270,289442,2,0,L|183:305,2,21.8750002086163,0|0|0,1:0|0:0|0:0,0:0:0:0:
245,225,289613,2,0,L|251:176,1,43.7500004172325,0|0,0:0|0:0,0:0:0:0:
311,271,289785,2,0,L|313:292,2,21.8750002086163,0|0|0,1:0|0:0|0:0,0:0:0:0:
341,196,289956,2,0,L|336:146,1,43.7500004172325,0|0,1:0|0:0,0:0:0:0:
384,341,290128,6,0,L|382:362,2,21.8750002086163,8|0|0,0:0|0:0|0:0,0:0:0:0:
418,268,290299,2,0,L|415:212,1,43.7500004172325,0|0,0:0|0:0,0:0:0:0:
473,323,290471,2,0,L|475:344,2,21.8750002086163,0|0|0,1:0|0:0|0:0,0:0:0:0:
498,253,290642,2,0,L|500:231,2,21.8750002086163,0|0|0,1:0|0:0|0:0,0:0:0:0:
417,151,290813,6,0,L|400:149,2,15.625,4|0|0,1:2|0:0|0:0,0:0:0:0:
436,47,291156,2,0,L|453:45,2,15.625,0|0|0,0:0|0:0|0:0,0:0:0:0:
267,35,291671,2,0,L|269:18,2,15.625,0|0|0,0:0|0:0|0:0,0:0:0:0:
152,72,292185,6,0,L|169:74,2,15.625,0|0|0,1:0|0:0|0:0,0:0:0:0:
104,131,292356,2,0,L|87:133,2,15.625,0|0|0,0:0|0:0|0:0,0:0:0:0:
168,173,292528,2,0,L|185:175,2,15.625,0|0|0,0:0|0:0|0:0,0:0:0:0:
63,289,292871,2,0,L|61:306,2,15.625,8|0|0,0:0|0:0|0:0,0:0:0:0:
183,372,293213,6,0,L|166:370,2,15.625,0|0|0,1:0|0:0|0:0,0:0:0:0:
231,313,293385,2,0,L|248:311,2,15.625,0|0|0,1:0|0:0|0:0,0:0:0:0:
65,244,293556,6,0,L|30:248,2,21.8750002086163,4|0|0,1:2|0:0|0:0,0:0:0:0:
200,170,293899,2,0,L|165:174,2,21.8750002086163,0|0|0,0:0|0:0|0:0,0:0:0:0:
269,139,294071,2,0,L|304:143,2,21.8750002086163,0|0|0,1:0|0:0|0:0,0:0:0:0:
209,86,294242,2,0,L|174:90,2,21.8750002086163,8|0|0,0:0|0:0|0:0,0:0:0:0:
364,182,294585,6,0,L|360:147,2,21.8750002086163,0|0|0,1:0|0:0|0:0,0:0:0:0:
335,304,294928,2,0,L|331:339,2,21.8750002086163,0|0|0,1:0|0:0|0:0,0:0:0:0:
282,250,295099,2,0,L|278:215,2,21.8750002086163,0|0|0,0:0|0:0|0:0,0:0:0:0:
207,271,295271,2,0,L|204:292,2,21.8750002086163,0|0|0,1:0|0:0|0:0,0:0:0:0:
148,218,295442,2,0,L|145:196,2,21.8750002086163,0|0|0,1:0|0:0|0:0,0:0:0:0:
184,363,295613,6,0,L|181:384,2,21.8750002086163,8|0|0,0:0|0:0|0:0,0:0:0:0:
125,310,295785,2,0,L|122:288,2,21.8750002086163,0|0|0,0:0|0:0|0:0,0:0:0:0:
63,356,295956,2,0,L|60:377,2,21.8750002086163,0|0|0,1:0|0:0|0:0,0:0:0:0:
4,303,296128,2,0,L|1:281,2,21.8750002086163,0|0|0,1:0|0:0|0:0,0:0:0:0:
103,219,296299,6,0,L|86:217,2,15.625,4|0|0,1:2|0:0|0:0,0:0:0:0:
253,83,296813,2,0,L|270:81,2,15.625,0|0|0,1:0|0:0|0:0,0:0:0:0:
198,29,296985,2,0,L|181:27,2,15.625,8|0|0,0:0|0:0|0:0,0:0:0:0:
350,133,297328,6,0,L|353:161,2,15.625,0|0|0,1:0|0:0|0:0,0:0:0:0:
387,280,297671,2,0,L|384:308,2,15.625,0|0|0,1:0|0:0|0:0,0:0:0:0:
250,250,298013,2,0,L|247:222,2,15.625,0|0|0,0:0|0:0|0:0,0:0:0:0:
130,355,298356,2,0,L|127:383,2,15.625,8|0|0,0:0|0:0|0:0,0:0:0:0:
56,216,298699,2,0,L|57:200,2,15.625,0|0|0,1:0|0:0|0:0,0:0:0:0:
0,272,298871,2,0,L|1:287,2,15.625,0|0|0,1:0|0:0|0:0,0:0:0:0:
8,89,299042,6,0,L|10:56,2,21.8750002086163,4|0|0,1:2|0:0|0:0,0:0:0:0:
79,110,299213,2,0,L|81:143,2,21.8750002086163,0|0|0,0:0|0:0|0:0,0:0:0:0:
244,163,299556,2,0,L|242:130,2,21.8750002086163,0|0|0,1:0|0:0|0:0,0:0:0:0:
173,184,299728,2,0,L|171:217,2,21.8750002086163,8|0|0,0:0|0:0|0:0,0:0:0:0:
304,72,300071,6,0,L|306:39,2,21.8750002086163,0|0|0,1:0|0:0|0:0,0:0:0:0:
379,58,300242,2,0,L|385:12,1,43.7500004172325,0|0,0:0|0:0,0:0:0:0:
398,156,300413,2,0,L|395:118,2,21.8750002086163,0|0|0,1:0|0:0|0:0,0:0:0:0:
474,158,300585,2,0,L|470:99,1,43.7500004172325,0|0,0:0|0:0,0:0:0:0:
395,256,300756,2,0,L|392:218,2,21.8750002086163,0|0|0,1:0|0:0|0:0,0:0:0:0:
471,255,300928,2,0,L|466:316,1,43.7500004172325,0|0,1:0|0:0,0:0:0:0:
401,344,301099,6,0,L|399:365,2,21.8750002086163,8|0|0,0:0|0:0|0:0,0:0:0:0:
329,311,301271,2,0,L|322:252,1,43.7500004172325,0|0,0:0|0:0,0:0:0:0:
265,351,301442,2,0,L|263:372,2,21.8750002086163,0|0|0,0:0|0:0|0:0,0:0:0:0:
188,328,301613,2,0,L|186:306,2,21.8750002086163,0|0|0,0:0|0:0|0:0,0:0:0:0:
100,319,301785,6,0,L|78:332,2,15.625,4|0|0,1:2|0:0|0:0,0:0:0:0:
117,236,301956,2,0,L|139:249,2,15.625,0|0|0,0:0|0:0|0:0,0:0:0:0:
73,169,302128,2,0,L|51:182,2,15.625,0|0|0,0:0|0:0|0:0,0:0:0:0:
90,86,302299,2,0,L|112:99,2,15.625,0|0|0,1:0|0:0|0:0,0:0:0:0:
208,27,302471,6,0,L|230:14,2,15.625,8|0|0,0:0|0:0|0:0,0:0:0:0:
191,110,302642,2,0,L|169:97,2,15.625,0|0|0,0:0|0:0|0:0,0:0:0:0:
235,177,302813,2,0,L|257:164,2,15.625,0|0|0,1:0|0:0|0:0,0:0:0:0:
218,260,302985,2,0,L|196:247,2,15.625,0|0|0,0:0|0:0|0:0,0:0:0:0:
324,334,303156,6,0,L|346:347,2,15.625,0|0|0,1:0|0:0|0:0,0:0:0:0:
307,251,303328,2,0,L|285:264,2,15.625,0|0|0,0:0|0:0|0:0,0:0:0:0:
351,184,303499,2,0,L|373:197,2,15.625,0|0|0,0:0|0:0|0:0,0:0:0:0:
334,101,303671,2,0,L|312:114,2,15.625,0|0|0,1:0|0:0|0:0,0:0:0:0:
437,33,303842,6,0,L|459:20,2,15.625,8|0|0,0:0|0:0|0:0,0:0:0:0:
420,116,304013,2,0,L|398:103,2,15.625,0|0|0,0:0|0:0|0:0,0:0:0:0:
464,183,304185,2,0,L|486:170,2,15.625,0|0|0,0:0|0:0|0:0,0:0:0:0:
447,266,304356,2,0,L|425:253,2,15.625,0|0|0,0:0|0:0|0:0,0:0:0:0:
365,349,304528,6,0,L|361:314,2,21.8750002086163,4|0|0,1:2|0:0|0:0,0:0:0:0:
258,323,304699,2,0,L|279:295,2,21.8750002086163,0|0|0,0:0|0:0|0:0,0:0:0:0:
200,228,304871,2,0,L|234:223,2,21.8750002086163,0|0|0,0:0|0:0|0:0,0:0:0:0:
226,121,305042,2,0,L|253:142,2,21.8750002086163,0|0|0,1:0|0:0|0:0,0:0:0:0:
321,63,305213,6,0,L|325:97,2,21.8750002086163,8|0|0,0:0|0:0|0:0,0:0:0:0:
428,89,305385,2,0,L|406:116,2,21.8750002086163,0|0|0,0:0|0:0|0:0,0:0:0:0:
486,184,305556,2,0,L|451:188,2,21.8750002086163,0|0|0,1:0|0:0|0:0,0:0:0:0:
460,291,305728,2,0,L|432:269,2,21.8750002086163,0|0|0,0:0|0:0|0:0,0:0:0:0:
365,349,305899,6,0,L|360:314,2,21.8750002086163,0|0|0,1:0|0:0|0:0,0:0:0:0:
281,234,306071,2,0,L|276:269,2,21.8750002086163,0|0|0,0:0|0:0|0:0,0:0:0:0:
212,355,306242,2,0,L|207:320,2,21.8750002086163,0|0|0,1:0|0:0|0:0,0:0:0:0:
128,240,306413,2,0,L|123:275,2,21.8750002086163,0|0|0,1:0|0:0|0:0,0:0:0:0:
25,159,306585,6,0,L|29:116,2,21.8750002086163,8|0|0,0:0|0:0|0:0,0:0:0:0:
125,20,306756,2,0,L|129:62,2,21.8750002086163,0|0|0,0:0|0:0|0:0,0:0:0:0:
224,176,306928,2,0,L|228:134,2,21.8750002086163,0|0|0,0:0|0:0|0:0,0:0:0:0:
350,6,307099,2,0,L|354:48,2,21.8750002086163,0|0|0,0:0|0:0|0:0,0:0:0:0:
498,169,307271,5,4,0:0:0:0:
256,192,307356,12,0,311385,0:0:0:0:
