osu file format v14

[General]
AudioFilename: audio.mp3
AudioLeadIn: 0
PreviewTime: 121507
Countdown: 0
SampleSet: Normal
StackLeniency: 0.7
Mode: 1
LetterboxInBreaks: 0
WidescreenStoryboard: 0

[Editor]
Bookmarks: 44774,147174
DistanceSpacing: 0.2
BeatDivisor: 4
GridSize: 32
TimelineZoom: 1

[Metadata]
Title:Living Mice
TitleUnicode:Living Mice
Artist:C418
ArtistUnicode:C418
Creator:_DUSK_
Version:Futsuu
Source:Minecraft
Tags:volume alpha ost original soundtrack daniel rosenfeld video game electronic instrumental
BeatmapID:2791790
BeatmapSetID:1348018

[Difficulty]
HPDrainRate:7.5
CircleSize:5
OverallDifficulty:3
ApproachRate:9
SliderMultiplier:1.4
SliderTickRate:1

[Events]
//Background and Video events
0,0,"mcss.jpg",0,10
//Break Periods
//Storyboard Layer 0 (Background)
//Storyboard Layer 1 (Fail)
//Storyboard Layer 2 (Pass)
//Storyboard Layer 3 (Foreground)
//Storyboard Layer 4 (Overlay)
//Storyboard Sound Samples

[TimingPoints]
3174,800,4,1,0,5,1,0
3174,-100,4,1,0,5,0,0
50974,-100,4,1,0,7,0,0
57374,-100,4,1,0,10,0,0
70174,-98.0392156862745,4,1,0,12,0,0
95974,-105.263157894737,4,1,0,12,0,0
102174,-104.166666666667,4,1,0,15,0,0
108574,-102.040816326531,4,1,0,17,0,0
114974,-100,4,1,0,19,0,0
121374,-95.2380952380952,4,1,0,24,0,0
121574,-95.2380952380952,4,1,0,24,0,1
127774,-95.2380952380952,4,1,0,26,0,1
134174,-95.2380952380952,4,1,0,24,0,1
140574,-97.0873786407767,4,1,0,21,0,1
143174,-98.0392156862745,4,1,0,21,0,1
143574,-99.009900990099,4,1,0,21,0,1
143774,-100,4,1,0,19,0,1
144174,-100,4,1,0,17,0,1
145174,-100,4,1,0,17,0,0
146974,-100,4,1,0,11,0,0
153374,-102.040816326531,4,1,0,9,0,0
156574,-104.166666666667,4,1,0,7,0,0
159774,-106.382978723404,4,1,0,5,0,0
166174,-108.695652173913,4,1,0,5,0,0

[HitObjects]
256,192,44774,5,0,0:0:0:0:
256,192,46774,1,8,0:0:0:0:
256,192,47174,1,0,0:0:0:0:
256,192,47974,1,0,0:0:0:0:
256,192,48374,1,0,0:0:0:0:
256,192,48774,1,0,0:0:0:0:
256,192,49174,1,8,0:0:0:0:
256,192,51174,1,0,0:0:0:0:
256,192,53174,1,8,0:0:0:0:
256,192,53574,1,8,0:0:0:0:
256,192,54374,1,0,0:0:0:0:
256,192,54774,1,8,0:0:0:0:
256,192,55174,1,0,0:0:0:0:
256,192,55574,1,8,0:0:0:0:
256,192,57574,1,0,0:0:0:0:
256,192,57974,1,8,0:0:0:0:
256,192,58374,1,8,0:0:0:0:
256,192,58774,1,0,0:0:0:0:
256,192,59974,1,0,0:0:0:0:
256,192,60374,1,8,0:0:0:0:
256,192,60774,1,0,0:0:0:0:
256,192,63974,1,8,0:0:0:0:
256,192,64374,1,0,0:0:0:0:
256,192,64774,1,8,0:0:0:0:
256,192,65174,1,0,0:0:0:0:
256,192,66374,1,8,0:0:0:0:
256,192,67174,1,0,0:0:0:0:
256,192,67574,1,0,0:0:0:0:
256,192,67974,1,8,0:0:0:0:
256,192,68374,1,0,0:0:0:0:
256,192,70374,1,0,0:0:0:0:
256,192,70974,1,8,0:0:0:0:
256,192,71174,1,0,0:0:0:0:
256,192,71574,1,0,0:0:0:0:
256,192,71974,1,8,0:0:0:0:
256,192,72374,1,8,0:0:0:0:
256,192,72574,1,0,0:0:0:0:
256,192,72774,1,8,0:0:0:0:
256,192,73174,1,0,0:0:0:0:
256,192,73574,1,8,0:0:0:0:
256,192,73974,1,0,0:0:0:0:
256,192,74174,1,0,0:0:0:0:
256,192,74374,1,0,0:0:0:0:
256,192,74774,1,8,0:0:0:0:
256,192,76774,1,0,0:0:0:0:
256,192,77374,1,8,0:0:0:0:
256,192,77574,1,0,0:0:0:0:
256,192,77974,1,0,0:0:0:0:
256,192,78774,1,8,0:0:0:0:
256,192,78974,1,8,0:0:0:0:
256,192,79174,1,0,0:0:0:0:
256,192,79574,1,8,0:0:0:0:
256,192,79974,1,0,0:0:0:0:
256,192,80374,1,8,0:0:0:0:
256,192,80574,1,0,0:0:0:0:
256,192,80774,1,8,0:0:0:0:
256,192,81174,1,0,0:0:0:0:
256,192,83174,1,0,0:0:0:0:
256,192,83774,1,8,0:0:0:0:
256,192,83974,1,0,0:0:0:0:
256,192,84374,1,0,0:0:0:0:
256,192,84774,1,8,0:0:0:0:
256,192,85174,1,8,0:0:0:0:
256,192,85374,1,0,0:0:0:0:
256,192,85574,1,8,0:0:0:0:
256,192,85974,1,0,0:0:0:0:
256,192,86374,1,8,0:0:0:0:
256,192,86774,1,0,0:0:0:0:
256,192,86974,1,0,0:0:0:0:
256,192,87174,1,0,0:0:0:0:
256,192,87574,1,8,0:0:0:0:
256,192,89574,1,0,0:0:0:0:
256,192,90174,1,8,0:0:0:0:
256,192,90374,1,8,0:0:0:0:
256,192,90774,1,0,0:0:0:0:
256,192,91574,1,8,0:0:0:0:
256,192,91774,1,8,0:0:0:0:
256,192,91974,1,0,0:0:0:0:
256,192,92374,1,0,0:0:0:0:
256,192,92774,1,0,0:0:0:0:
256,192,93174,1,8,0:0:0:0:
256,192,93374,1,0,0:0:0:0:
256,192,93574,1,8,0:0:0:0:
256,192,93974,1,8,0:0:0:0:
256,192,95974,5,0,0:0:0:0:
256,192,96374,1,0,0:0:0:0:
256,192,96774,1,8,0:0:0:0:
256,192,97174,1,0,0:0:0:0:
256,192,97974,1,8,0:0:0:0:
256,192,98374,1,8,0:0:0:0:
256,192,98774,1,0,0:0:0:0:
256,192,99174,1,0,0:0:0:0:
256,192,99574,1,0,0:0:0:0:
256,192,99974,1,8,0:0:0:0:
256,192,100374,1,8,0:0:0:0:
256,192,102374,1,0,0:0:0:0:
256,192,102774,1,0,0:0:0:0:
256,192,103174,1,8,0:0:0:0:
256,192,103574,1,0,0:0:0:0:
256,192,104374,1,8,0:0:0:0:
256,192,104774,1,0,0:0:0:0:
256,192,105174,1,8,0:0:0:0:
256,192,105574,1,0,0:0:0:0:
256,192,105974,1,0,0:0:0:0:
256,192,106374,1,8,0:0:0:0:
256,192,106774,1,8,0:0:0:0:
256,192,108774,1,8,0:0:0:0:
256,192,109174,1,0,0:0:0:0:
256,192,109574,1,8,0:0:0:0:
256,192,109974,1,0,0:0:0:0:
256,192,110774,1,8,0:0:0:0:
256,192,111174,1,0,0:0:0:0:
256,192,111574,1,0,0:0:0:0:
256,192,111974,1,8,0:0:0:0:
256,192,112374,1,0,0:0:0:0:
256,192,112774,1,8,0:0:0:0:
256,192,113174,1,8,0:0:0:0:
256,192,115174,1,8,0:0:0:0:
256,192,115574,1,0,0:0:0:0:
256,192,115974,1,8,0:0:0:0:
256,192,116374,1,0,0:0:0:0:
256,192,117174,1,8,0:0:0:0:
256,192,117574,1,8,0:0:0:0:
256,192,117974,1,0,0:0:0:0:
256,192,118374,1,0,0:0:0:0:
256,192,118774,1,8,0:0:0:0:
256,192,119174,1,8,0:0:0:0:
256,192,119574,1,0,0:0:0:0:
256,192,119974,1,8,0:0:0:0:
256,192,120774,1,8,0:0:0:0:
256,192,121574,1,8,0:0:0:0:
256,192,121974,1,0,0:0:0:0:
256,192,122174,1,8,0:0:0:0:
256,192,122374,1,0,0:0:0:0:
256,192,122774,1,0,0:0:0:0:
256,192,123374,1,8,0:0:0:0:
256,192,123574,1,0,0:0:0:0:
256,192,123974,1,8,0:0:0:0:
256,192,124374,1,0,0:0:0:0:
256,192,124774,1,8,0:0:0:0:
256,192,125174,1,0,0:0:0:0:
256,192,125374,1,8,0:0:0:0:
256,192,125574,1,0,0:0:0:0:
256,192,125974,1,8,0:0:0:0:
256,192,127974,1,8,0:0:0:0:
256,192,128374,1,0,0:0:0:0:
256,192,128574,1,8,0:0:0:0:
256,192,128774,1,0,0:0:0:0:
256,192,129174,1,0,0:0:0:0:
256,192,129774,1,8,0:0:0:0:
256,192,129974,1,8,0:0:0:0:
256,192,130374,1,8,0:0:0:0:
256,192,130774,1,0,0:0:0:0:
256,192,131174,1,8,0:0:0:0:
256,192,131574,1,0,0:0:0:0:
256,192,131774,1,8,0:0:0:0:
256,192,131974,1,8,0:0:0:0:
256,192,132374,1,0,0:0:0:0:
256,192,134374,1,8,0:0:0:0:
256,192,134774,1,0,0:0:0:0:
256,192,134974,1,8,0:0:0:0:
256,192,135174,1,0,0:0:0:0:
256,192,135574,1,8,0:0:0:0:
256,192,136174,1,0,0:0:0:0:
256,192,136374,1,8,0:0:0:0:
256,192,136774,1,8,0:0:0:0:
256,192,137174,1,0,0:0:0:0:
256,192,137574,1,8,0:0:0:0:
256,192,137974,1,0,0:0:0:0:
256,192,138174,1,8,0:0:0:0:
256,192,138374,1,0,0:0:0:0:
256,192,138774,1,0,0:0:0:0:
256,192,140774,1,8,0:0:0:0:
256,192,141174,1,0,0:0:0:0:
256,192,141374,1,8,0:0:0:0:
256,192,141574,1,0,0:0:0:0:
256,192,141974,1,0,0:0:0:0:
256,192,142574,1,8,0:0:0:0:
256,192,142774,1,8,0:0:0:0:
256,192,143174,1,0,0:0:0:0:
256,192,143574,1,0,0:0:0:0:
256,192,143974,1,8,0:0:0:0:
256,192,144374,1,0,0:0:0:0:
256,192,144574,1,8,0:0:0:0:
256,192,144774,1,8,0:0:0:0:
256,192,145174,1,0,0:0:0:0:
256,192,147174,5,0,0:0:0:0:
256,192,147574,1,0,0:0:0:0:
256,192,147974,5,8,0:0:0:0:
256,192,148374,1,0,0:0:0:0:
256,192,149174,1,8,0:0:0:0:
256,192,149574,1,8,0:0:0:0:
256,192,150374,1,0,0:0:0:0:
256,192,150774,1,8,0:0:0:0:
256,192,151174,1,8,0:0:0:0:
256,192,151574,1,0,0:0:0:0:
256,192,153574,1,0,0:0:0:0:
256,192,153974,1,0,0:0:0:0:
256,192,154374,1,8,0:0:0:0:
256,192,154774,1,0,0:0:0:0:
256,192,155574,1,8,0:0:0:0:
256,192,155974,1,8,0:0:0:0:
256,192,156774,1,0,0:0:0:0:
256,192,157174,1,0,0:0:0:0:
256,192,157574,1,8,0:0:0:0:
256,192,157974,1,0,0:0:0:0:
256,192,159974,1,0,0:0:0:0:
256,192,160774,1,8,0:0:0:0:
256,192,161174,1,0,0:0:0:0:
256,192,161974,1,8,0:0:0:0:
256,192,163174,1,0,0:0:0:0:
256,192,163974,1,8,0:0:0:0:
256,192,164374,1,0,0:0:0:0:
256,192,166374,1,0,0:0:0:0:
256,192,167174,1,8,0:0:0:0:
256,192,168374,1,8,0:0:0:0:
256,192,169574,1,0,0:0:0:0:
256,192,170374,1,8,0:0:0:0:
