osu file format v14

[General]
AudioFilename: audio.mp3
AudioLeadIn: 0
PreviewTime: 76958
Countdown: 0
SampleSet: Soft
StackLeniency: 0.7
Mode: 0
LetterboxInBreaks: 0
WidescreenStoryboard: 1

[Editor]
Bookmarks: 43736,136949,139092,199092,199627,200163,200699
DistanceSpacing: 1.4
BeatDivisor: 2
GridSize: 4
TimelineZoom: 1

[Metadata]
Title:Haggstrom
TitleUnicode:Haggstrom
Artist:C418
ArtistUnicode:C418
Creator:RythmSniper999
Version:Normal
Source:
Tags:7/4 timing Minecraft peaceful
BeatmapID:1490888
BeatmapSetID:704792

[Difficulty]
HPDrainRate:4
CircleSize:5
OverallDifficulty:4
ApproachRate:5
SliderMultiplier:0.7
SliderTickRate:1

[Events]
//Background and Video events
0,0,"maxresdefault[1].jpg",0,0
//Break Periods
2,108220,119142
//Storyboard Layer 0 (Background)
//Storyboard Layer 1 (Fail)
//Storyboard Layer 2 (Pass)
//Storyboard Layer 3 (Foreground)
//Storyboard Sound Samples

[TimingPoints]
879,535.714285714286,7,2,0,5,1,0
8379,-100,7,2,0,10,0,0
30879,-95.2380952380952,7,2,0,10,0,0
45879,-100,7,2,0,10,0,0
61950,535.714285714286,7,2,0,5,1,0
76950,-95.2380952380952,7,2,0,5,0,0
84450,-90.9090909090909,7,2,0,5,0,0
94092,535.714285714286,7,2,0,5,1,0
94092,-100,7,2,0,5,0,0
131592,-100,7,2,0,10,0,0
146592,-95.2380952380952,7,2,0,10,0,0
161592,-100,7,2,0,10,0,0

[Colours]
Combo1 : 128,128,128
Combo2 : 0,220,0

[HitObjects]
166,38,879,6,0,P|172:79|158:117,1,70,8|0,0:0|0:0,0:0:0:0:
120,193,1950,1,0,0:0:0:0:
96,288,2486,2,0,P|56:292|16:312,2,70,8|0|0,0:0|0:0|0:0,0:0:0:0:
84,384,4093,1,2,0:0:0:0:
164,328,4629,6,0,P|205:322|243:336,1,70,8|0,0:0|0:0,0:0:0:0:
328,356,5700,1,0,0:0:0:0:
424,384,6236,2,0,P|430:343|416:305,1,70,8|0,0:0|0:0,0:0:0:0:
402,227,7307,1,0,0:0:0:0:
232,127,8379,6,0,P|225:161|233:194,1,70,8|0,0:0|0:0,0:0:0:0:
278,282,9450,1,0,0:0:0:0:
340,206,9986,2,0,P|374:199|407:207,1,70,8|0,0:0|0:0,0:0:0:0:
495,252,11057,1,0,0:0:0:0:
420,315,11593,1,2,0:0:0:0:
362,235,12129,6,0,P|355:201|363:168,1,70,8|0,0:0|0:0,0:0:0:0:
419,87,13200,1,0,0:0:0:0:
468,2,13736,2,0,P|497:23|513:58,2,70,8|0|0,0:0|0:0|0:0,0:0:0:0:
271,4,15879,6,0,B|242:4|242:4|190:35,1,70,8|0,0:0|0:0,0:0:0:0:
122,75,16950,1,2,0:0:0:0:
217,98,17486,2,0,B|206:137|206:137|186:158,1,70,8|0,0:0|0:0,0:0:0:0:
114,225,18557,2,0,B|124:264|124:264|144:285,1,70,2|0,0:0|0:0,0:0:0:0:
212,212,19629,6,0,B|241:212|241:212|293:243,1,70,8|0,0:0|0:0,0:0:0:0:
343,303,20700,1,2,0:0:0:0:
419,364,21236,2,0,B|383:384|383:384|354:384,2,70,8|0|2,0:0|0:0|0:0,0:0:0:0:
482,193,23379,6,0,B|452:171|452:171|412:196,1,70,8|0,0:0|0:0,0:0:0:0:
349,252,24450,1,2,0:0:0:0:
280,182,24986,1,8,0:0:0:0:
218,258,25521,2,0,B|175:252|175:252|155:230,1,70,2|0,0:0|0:0,0:0:0:0:
86,164,26593,1,8,0:0:0:0:
163,103,27129,5,8,0:0:0:0:
73,62,27664,2,0,B|90:32|90:32|125:8,1,70,2|0,0:0|0:0,0:0:0:0:
163,103,28736,1,8,0:0:0:0:
201,12,29271,2,0,B|231:29|231:29|255:64,1,70,2|0,0:0|0:0,0:0:0:0:
204,265,30879,6,0,P|232:218|270:192,1,73.4999977569581,12|0,0:0|0:0,0:0:0:0:
334,153,31950,1,2,0:0:0:0:
420,209,32486,1,8,0:0:0:0:
461,115,33021,1,0,0:0:0:0:
383,47,33557,2,0,P|348:35|311:34,1,73.4999977569581,2|0,0:0|0:0,0:0:0:0:
242,97,34629,6,0,P|226:137|238:169,1,73.4999977569581,8|0,0:0|0:0,0:0:0:0:
296,248,35700,1,2,0:0:0:0:
324,340,36236,2,8,P|284:324|252:336,1,73.4999977569581,8|0,0:0|0:0,0:0:0:0:
168,381,37307,1,2,0:0:0:0:
50,245,38379,6,0,B|34:217|34:217|46:173,1,73.4999977569581,8|0,0:0|0:0,0:0:0:0:
98,101,39450,1,2,0:0:0:0:
158,173,39986,2,0,B|174:201|174:201|162:245,1,73.4999977569581,8|0,0:0|0:0,0:0:0:0:
126,329,41057,2,0,B|165:339|165:339|193:323,1,73.4999977569581,2|0,0:0|0:0,0:0:0:0:
266,261,42129,6,0,B|305:250|305:250|333:266,1,73.4999977569581,8|0,0:0|0:0,0:0:0:0:
398,337,43200,1,2,0:0:0:0:
480,288,43736,2,0,B|496:316|496:316|485:355,2,73.4999977569581,8|2|0,0:0|0:0|0:0,0:0:0:0:
354,156,45879,6,8,P|320:172|280:154,1,70,8|0,0:0|0:0,0:0:0:0:
218,107,46950,1,2,0:0:0:0:
293,56,47486,1,8,0:0:0:0:
374,97,48021,2,0,P|400:123|397:167,1,70,2|0,0:0|0:0,0:0:0:0:
366,237,49093,1,8,0:0:0:0:
306,304,49629,6,0,P|280:278|236:281,1,70,8|0,0:0|0:0,0:0:0:0:
163,308,50701,1,2,0:0:0:0:
103,239,51236,2,0,P|70:268|67:318,1,70,8|0,0:0|0:0,0:0:0:0:
102,374,52308,1,2,0:0:0:0:
235,250,53379,6,0,B|269:233|269:233|309:251,1,70,8|0,0:0|0:0,0:0:0:0:
376,308,54450,1,2,0:0:0:0:
448,244,54986,1,8,0:0:0:0:
364,188,55521,1,2,0:0:0:0:
440,128,56057,1,2,0:0:0:0:
368,66,56593,1,2,0:0:0:0:
439,10,57129,6,0,B|476:29|476:29|505:75,2,70,8|0|2,0:0|0:0|0:0,0:0:0:0:
368,66,58736,1,8,0:0:0:0:
287,108,59271,2,0,B|272:131|272:131|223:104,1,70,0|2,0:0|0:0,0:0:0:0:
76,1,61950,6,0,P|43:13|25:42,1,70,8|0,0:0|0:0,0:0:0:0:
115,87,63021,1,2,0:0:0:0:
31,124,63557,2,0,P|44:157|76:176,1,70,8|0,0:0|0:0,0:0:0:0:
168,164,64628,1,2,0:0:0:0:
115,87,65164,1,8,0:0:0:0:
181,24,65700,6,8,P|213:9|250:19,1,70,8|0,0:0|0:0,0:3:0:0:
309,82,66771,1,2,0:0:0:0:
373,145,67307,2,0,P|404:159|438:151,1,70,8|0,0:0|0:0,0:3:0:0:
502,87,68378,1,2,0:0:0:0:
499,269,69450,6,0,L|494:338,1,70,12|0,0:0|0:0,0:0:0:0:
410,301,70521,1,2,0:0:0:0:
349,368,71057,2,0,B|335:388|335:388|280:363,1,70,8|0,0:0|0:3,0:3:0:0:
214,324,72128,1,2,0:0:0:0:
141,378,72664,1,8,0:0:0:0:
65,326,73200,6,0,B|53:281|53:281|75:256,1,70,4|0,0:0|0:3,0:3:0:0:
153,229,74271,1,2,0:0:0:0:
97,160,74807,2,0,L|42:101,2,70,8|0|2,0:0|0:0|0:0,0:0:0:0:
233,296,76950,6,0,B|261:324|261:324|317:324,1,73.4999977569581,12|0,0:0|0:0,0:0:0:0:
389,324,78021,1,2,0:0:0:0:
465,384,78557,2,0,B|493:356|493:356|493:300,1,73.4999977569581,8|0,0:0|0:0,0:0:0:0:
493,228,79628,1,2,0:0:0:0:
433,152,80164,1,8,0:0:0:0:
493,80,80700,6,0,B|469:56|469:56|409:44,1,73.4999977569581,12|0,0:0|0:0,0:0:0:0:
333,40,81771,1,2,0:0:0:0:
269,112,82307,2,0,B|290:144|290:144|290:178,2,73.4999977569581,8|0|2,0:0|0:0|0:0,0:0:0:0:
73,80,84450,6,0,B|73:132|73:132|89:152,1,77.0000023498536,12|0,0:0|0:0,0:0:0:0:
176,216,85521,1,2,0:0:0:0:
92,284,86057,1,8,0:0:0:0:
180,348,86592,2,0,B|212:376|212:376|276:376,1,77.0000023498536,0|2,0:0|0:0,0:0:0:0:
356,368,87664,1,8,0:0:0:0:
352,260,88199,6,0,B|394:262|394:262|418:287,1,77.0000023498536,8|0,0:0|0:0,0:0:0:0:
484,372,89271,1,2,0:0:0:0:
488,264,89807,2,0,L|502:186,2,77.0000023498536,8|0|2,0:0|0:0|0:0,0:0:0:0:
44,318,94092,6,0,P|36:358|60:398,2,70,8|0|2,0:0|0:0|0:0,0:0:0:0:
83,236,95699,2,0,P|47:220|7:252,2,70,8|0|2,0:0|0:0|0:0,0:0:0:0:
154,292,97306,1,8,0:0:0:0:
154,383,97842,6,0,P|121:393|91:377,2,70,8|0|2,0:0|0:0|0:0,0:0:0:0:
224,324,99449,2,0,P|239:293|229:261,2,70,8|0|2,0:0|0:0|0:0,0:0:0:0:
398,375,101592,5,8,0:0:0:0:
474,325,102127,2,0,P|497:285|472:246,1,70,2|0,0:0|0:0,0:0:0:0:
430,197,103199,1,8,0:0:0:0:
344,180,103734,2,0,P|314:142|313:99,1,70,2|0,0:0|0:0,0:0:0:0:
404,108,104806,1,8,0:0:0:0:
344,32,105342,6,0,P|313:15|279:19,1,70,8|2,0:0|0:0,0:0:0:0:
188,56,106413,1,0,0:0:0:0:
148,144,106949,2,0,L|114:237,2,70,2|0|2,0:0|0:0|0:0,0:0:0:0:
97,76,120342,6,0,L|97:172,1,70,8|0,0:0|0:0,0:0:0:0:
93,236,121413,1,2,0:0:0:0:
45,312,121949,2,0,P|65:348|117:352,1,70,8|0,0:0|0:0,0:0:0:0:
165,304,123020,2,0,P|204:292|244:326,1,70,2|0,0:0|0:0,0:0:0:0:
305,352,124092,5,8,0:0:0:0:
369,288,124627,2,0,P|381:248|353:208,1,70,2|0,0:0|0:0,0:0:0:0:
293,176,125699,1,8,0:0:0:0:
373,128,126234,1,2,0:0:0:0:
305,68,126770,2,0,P|333:36|385:40,1,70,8|0,0:0|0:0,0:0:0:0:
449,40,127842,6,0,P|482:45|502:72,2,70,8|2|0,0:0|0:0|0:0,0:0:0:0:
369,84,129449,2,0,P|333:92|297:84,1,70,8|2,0:0|0:0,0:0:0:0:
229,28,130520,2,0,P|193:20|157:28,1,70,8|0,0:0|0:0,0:0:0:0:
77,60,131592,5,12,0:0:0:0:
137,128,132127,1,2,0:0:0:0:
88,204,132663,2,0,B|116:240|116:240|96:280,1,70,8|0,0:0|0:0,0:0:0:0:
51,334,133734,2,0,B|7:341|7:341|-6:384,2,70,2|0|8,0:0|0:0|0:0,0:0:0:0:
130,381,135342,6,0,B|163:402|163:402|205:374,1,70,8|0,0:0|0:0,0:0:0:0:
259,327,136413,1,2,0:0:0:0:
323,263,136949,2,0,B|356:248|356:248|392:280,1,70,0|8,0:0|0:0,0:0:0:0:
438,330,138020,1,2,0:0:0:0:
497,261,138556,1,8,0:0:0:0:
436,193,139092,6,0,P|401:164|359:157,1,70,12|2,0:0|0:0,0:0:0:0:
332,145,139895,1,0,0:0:0:0:
284,146,140163,2,0,P|241:147|204:175,1,70,8|2,0:0|0:0,0:0:0:0:
175,184,140967,1,0,0:0:0:0:
139,215,141234,2,0,P|111:253|100:304,2,70,8|2|8,0:0|0:0|0:0,0:0:0:0:
204,292,142842,5,8,0:0:0:0:
300,268,143377,1,2,0:0:0:0:
341,249,143645,1,0,0:0:0:0:
377,222,143913,2,0,P|392:173|360:136,1,70
354,124,144717,1,0,0:0:0:0:
321,93,144984,2,0,L|275:54,1,35,2|0,0:0|0:0,0:0:0:0:
260,39,145520,1,8,0:0:0:0:
204,120,146056,1,2,0:0:0:0:
144,204,146592,6,0,B|145:252|145:252|196:283,1,73.4999977569581,12|0,0:0|0:0,0:0:0:0:
260,220,147663,1,2,0:0:0:0:
305,205,147931,1,0,0:0:0:0:
345,236,148199,1,0,0:0:0:0:
416,312,148734,1,8,0:0:0:0:
324,356,149270,2,0,B|295:381|295:381|232:381,1,73.4999977569581,2|8,0:0|0:0,0:0:0:0:
156,372,150342,6,0,B|110:372|110:372|91:336,1,73.4999977569581,8|2,0:0|0:0,0:0:0:0:
100,296,151145,1,0,0:0:0:0:
99,248,151413,2,0,B|101:209|101:209|140:159,1,73.4999977569581,8|2,0:0|0:0,0:0:0:0:
153,145,152217,1,0,0:0:0:0:
193,120,152484,1,2,0:0:0:0:
284,68,153020,2,0,B|321:46|321:46|372:67,1,73.4999977569581,8|2,0:0|0:0,0:0:0:0:
448,92,154092,6,0,B|465:131|465:131|440:176,1,73.4999977569581,12|0,0:0|0:0,0:0:0:0:
420,200,154895,1,0,0:0:0:0:
385,232,155162,1,2,0:0:0:0:
351,265,155430,1,0,0:0:0:0:
317,298,155698,1,0,0:0:0:0:
216,304,156234,1,8,0:0:0:0:
112,292,156770,2,0,B|88:291|88:291|65:241,1,73.4999977569581,2|8,0:0|0:0,0:0:0:0:
44,148,157842,5,8,0:0:0:0:
101,71,158377,1,2,0:0:0:0:
152,151,158913,1,8,0:0:0:0:
203,70,159449,1,2,0:0:0:0:
256,144,159984,1,2,0:0:0:0:
304,68,160520,2,0,L|377:143,1,73.4999977569581,8|2,0:0|0:0,0:0:0:0:
450,183,161592,6,0,P|476:151|471:116,1,70,12|0,0:0|0:0,0:0:0:0:
456,82,162395,1,0,0:0:0:0:
424,49,162663,2,0,P|398:23|357:28,1,70,2|0,0:0|0:0,0:0:0:0:
326,38,163466,1,0,0:0:0:0:
288,64,163734,1,8,0:0:0:0:
219,124,164270,2,0,B|157:186,1,70,2|8,0:0|0:0,0:0:0:0:
104,248,165342,6,0,P|88:290|120:324,1,70,8|0,0:0|0:0,0:0:0:0:
140,324,166145,1,0,0:0:0:0:
184,336,166413,2,0,P|226:352|265:325,1,70,2|0,0:0|0:0,0:0:0:0:
328,304,167484,2,0,P|335:337|324:376,2,70,2|8|2,0:0|0:0|0:0,0:0:0:0:
292,241,169092,5,8,0:0:0:0:
226,178,169627,2,0,P|231:135|254:113,1,70,2|0,0:0|0:0,0:0:0:0:
330,76,170699,1,8,0:0:0:0:
407,122,171234,2,0,P|428:149|429:183,2,70,2|0|8,0:0|0:0|0:0,0:0:0:0:
330,76,172842,6,0,P|290:59|253:76,1,70,8|0,0:0|0:0,0:0:0:0:
184,105,173913,1,2,0:0:0:0:
126,175,174449,2,0,P|97:156|86:116,1,70,8|0,0:0|0:0,0:0:0:0:
48,41,175520,2,0,P|82:33|119:54,1,70,2|0,0:0|0:0,0:0:0:0:
184,105,176592,6,0,P|213:124|224:164,1,70,8|2,0:0|0:0,0:0:0:0:
197,242,177663,1,0,0:0:0:0:
161,325,178199,2,0,P|203:344|243:318,1,70,8|0,0:0|0:0,0:0:0:0:
290,275,179270,2,0,P|330:266|372:282,1,70,2|0,0:0|0:0,0:0:0:0:
445,247,180342,6,0,P|454:280|447:314,2,70,8|0|2,0:0|0:0|0:0,0:0:0:0:
363,205,181949,2,0,P|384:170|425:151,1,70,8|0,0:0|0:0,0:0:0:0:
492,117,183020,2,0,P|470:82|429:63,1,70,2|0,0:0|0:0,0:0:0:0:
364,25,184092,6,0,P|386:0|423:-1,2,70,8|2|0,0:0|0:0|0:0,0:0:0:0:
334,110,185699,2,0,P|355:135|392:136,2,70,8|0|2,0:0|0:0|0:0,0:0:0:0:
270,44,187306,1,0,0:0:0:0:
256,192,187842,12,0,199092,0:0:0:0:
