osu file format v14

[General]
AudioFilename: audio.mp3
AudioLeadIn: 0
PreviewTime: 76958
Countdown: 0
SampleSet: Soft
StackLeniency: 0.7
Mode: 0
LetterboxInBreaks: 0
WidescreenStoryboard: 1

[Editor]
Bookmarks: 42530,83914,84182,84450,84717,84985,108020,108556,109092,109627,116592,121949,161324
DistanceSpacing: 0.6
BeatDivisor: 4
GridSize: 4
TimelineZoom: 1.3

[Metadata]
Title:Haggstrom
TitleUnicode:Haggstrom
Artist:C418
ArtistUnicode:C418
Creator:RythmSniper999
Version:Hard
Source:
Tags:7/4 timing Minecraft peaceful
BeatmapID:1490887
BeatmapSetID:704792

[Difficulty]
HPDrainRate:5
CircleSize:6
OverallDifficulty:5
ApproachRate:7
SliderMultiplier:0.9
SliderTickRate:1

[Events]
//Background and Video events
0,0,"maxresdefault[1].jpg",0,0
//Break Periods
2,108220,115692
//Storyboard Layer 0 (Background)
//Storyboard Layer 1 (Fail)
//Storyboard Layer 2 (Pass)
//Storyboard Layer 3 (Foreground)
//Storyboard Sound Samples

[TimingPoints]
879,535.714285714286,7,2,0,5,1,0
8379,-100,7,2,0,10,0,0
61950,535.714285714286,7,2,0,5,1,0
76950,-90.9090909090909,7,2,0,5,0,0
94092,535.714285714286,7,2,0,5,1,0
127842,-76.9230769230769,7,2,0,5,0,0
128377,-76.9230769230769,7,2,0,5,0,0
129013,-76.9230769230769,7,2,0,10,0,0
161592,-100,7,2,0,10,0,0

[Colours]
Combo1 : 128,128,128
Combo2 : 0,220,0

[HitObjects]
424,228,8379,5,0,0:0:0:0:
512,288,8915,2,0,P|476:315|433:324,1,90,2|0,1:0|1:0,1:0:0:0:
424,228,9986,1,0,0:0:0:0:
432,324,10522,2,0,P|387:317|350:293,1,90,2|0,1:0|1:0,1:0:0:0:
424,228,11593,1,2,0:0:0:0:
352,164,12129,6,2,P|396:157|433:133,1,90,0|2,1:0|1:0,1:0:0:0:
357,69,13200,1,0,0:0:0:0:
431,132,13736,2,0,P|457:96|467:52,1,90,0|2,1:0|1:0,1:0:0:0:
357,69,14807,1,0,2:0:0:0:
168,39,15879,5,8,0:0:0:0:
80,125,16415,1,2,0:0:0:0:
164,146,16951,1,0,0:0:0:0:
92,68,17486,1,8,0:0:0:0:
90,191,18022,1,2,0:0:0:0:
164,146,18557,2,0,P|206:118|239:87,1,90,0|2,0:0|0:0,0:0:0:0:
389,0,19629,5,8,0:0:0:0:
477,86,20165,1,2,0:0:0:0:
393,107,20701,1,0,0:0:0:0:
455,22,21236,1,8,0:0:0:0:
456,145,21771,2,2,P|458:193|453:250,1,90,0|2,0:0|0:0,0:0:0:0:
221,177,23379,5,8,0:0:0:0:
133,263,23915,1,2,0:0:0:0:
217,284,24451,1,0,0:0:0:0:
145,206,24986,1,8,0:0:0:0:
143,329,25522,1,2,2:0:0:0:
217,284,26058,1,0,2:0:0:0:
145,206,26593,1,2,2:0:0:0:
217,128,27128,5,8,0:0:0:0:
140,66,27664,2,0,B|175:38|175:38|219:29,1,90,2|0,0:0|0:0,0:0:0:0:
217,128,28736,1,8,0:0:0:0:
218,29,29271,2,0,B|262:33|262:33|300:58,1,90,2|0,0:0|0:0,0:0:0:0:
408,286,30879,6,0,P|370:261|326:257,1,90,8|2,0:0|0:0,0:0:0:0:
325,356,31949,1,0,2:0:0:0:
326,257,32486,2,0,P|282:266|248:294,1,90,8|0,0:0|0:0,0:0:0:0:
325,356,33556,1,2,2:0:0:0:
326,257,34093,1,0,0:0:0:0:
247,294,34629,5,8,0:0:0:0:
248,195,35164,2,0,P|204:203|169:232,1,90,2|0,0:0|0:0,0:0:0:0:
152,312,36236,1,8,0:0:0:0:
82,382,36771,2,0,P|56:345|52:299,1,90,2|0,0:0|0:0,0:0:0:0:
158,114,38379,5,8,0:0:0:0:
88,44,38914,2,0,B|125:18|125:18|171:14,1,90,2|0,0:0|0:0,0:0:0:0:
158,114,39986,1,8,0:0:0:0:
168,13,40521,1,0,0:0:0:0:
266,161,41057,2,0,B|290:181|290:181|334:129,1,90,2|0,0:0|0:0,0:0:0:0:
396,72,42129,5,8,0:0:0:0:
328,137,42664,2,0,B|365:163|365:163|411:167,1,90,2|0,0:0|0:0,0:0:0:0:
396,72,43736,1,0,0:0:0:0:
406,172,44271,1,0,0:0:0:0:
488,114,44807,1,2,0:0:0:0:
412,296,45879,6,0,P|356:276|300:300,1,90,8|2,0:0|0:0,0:0:0:0:
356,376,46950,1,0,0:0:0:0:
327,281,47486,1,8,0:0:0:0:
298,376,48021,1,0,0:0:0:0:
230,304,48557,1,2,0:0:0:0:
288,320,49093,1,2,0:0:0:0:
208,380,49629,6,0,P|164:388|104:372,1,90,8|0,0:0|0:0,0:0:0:0:
164,288,50700,1,2,0:0:0:0:
116,200,51236,1,8,0:0:0:0:
164,288,51771,1,0,0:0:0:0:
63,285,52307,1,2,0:0:0:0:
12,108,53379,5,8,0:0:0:0:
100,22,53915,1,2,0:0:0:0:
16,1,54451,1,0,0:0:0:0:
96,151,54986,1,8,0:0:0:0:
201,47,55522,1,0,0:0:0:0:
100,22,56058,1,2,0:0:0:0:
176,148,56593,1,0,0:0:0:0:
256,24,57129,6,0,B|308:24|308:24|348:56,1,90,8|0,0:0|0:0,0:0:0:0:
276,104,58200,1,2,0:0:0:0:
336,48,58736,2,8,B|372:84|372:84|378:135,1,90,8|0,0:0|0:0,0:0:0:0:
276,104,59807,1,2,0:0:0:0:
8,164,61950,6,0,P|4:216|24:248,1,90,8|2,0:0|0:0,0:0:0:0:
108,176,63021,1,0,0:0:0:0:
22,246,63557,2,0,P|55:285|92:294,1,90,8|2,0:0|0:0,0:0:0:0:
107,173,64628,1,0,0:0:0:0:
91,293,65164,1,2,0:0:0:0:
181,272,65700,6,8,P|214:233|251:224,1,90,8|2,0:0|0:0,0:0:0:0:
260,320,66771,1,0,0:0:0:0:
332,239,67307,2,0,P|293:218|250:224,1,90,8|0,0:0|0:0,0:0:0:0:
260,320,68378,1,2,0:0:0:0:
408,163,69450,5,12,0:0:0:0:
293,47,69986,1,2,0:0:0:0:
265,158,70522,1,0,0:0:0:0:
347,143,71057,5,8,0:0:0:0:
183,142,71593,1,2,0:0:0:0:
242,240,72129,1,0,0:0:0:0:
242,44,72664,1,2,0:0:0:0:
183,242,73200,5,8,0:0:0:0:
274,99,73735,1,0,0:0:0:0:
350,250,74271,1,2,0:0:0:0:
244,147,74807,5,8,0:0:0:0:
276,243,75342,1,0,0:0:0:0:
304,147,75878,1,2,0:0:0:0:
155,143,76950,5,12,0:0:0:0:
72,92,77485,2,2,P|57:149|75:193,1,99.0000030212403,2|0,0:0|0:0,0:0:0:0:
126,265,78557,1,8,0:0:0:0:
77,354,79092,2,0,P|124:367|170:351,1,99.0000030212403,2|0,0:0|0:0,0:0:0:0:
126,265,80164,1,2,0:0:0:0:
195,103,80700,5,12,0:0:0:0:
356,192,81235,1,0,0:0:0:0:
197,286,81771,1,2,0:0:0:0:
296,168,82307,5,8,0:0:0:0:
190,194,82842,1,0,0:0:0:0:
296,226,83378,1,2,0:0:0:0:
371,3,84450,5,12,0:0:0:0:
146,10,84985,2,0,P|114:47|125:94,1,99.0000030212403,2|0,0:0|0:0,0:0:0:0:
158,175,86057,1,8,0:0:0:0:
218,99,86592,2,0,P|263:82|310:116,1,99.0000030212403,2|0,0:0|0:0,0:0:0:0:
352,167,87664,1,2,0:0:0:0:
311,272,88200,5,8,0:0:0:0:
200,208,88735,2,0,L|119:293,1,99.0000030212403
199,377,89807,5,8,0:0:0:0:
358,373,90342,1,0,0:0:0:0:
200,315,90878,1,2,0:0:0:0:
499,301,94092,6,0,P|520:342|513:386,2,90,0|2|0,0:0|0:0|0:0,0:0:0:0:
446,353,95699,1,0,0:0:0:0:
391,301,96234,2,0,P|370:342|377:386,2,90,2|0|2,0:0|0:0|0:0,0:0:0:0:
456,304,97842,6,0,P|442:261|407:234,1,90,0|2,0:0|0:0,0:0:0:0:
387,303,98913,1,0,0:0:0:0:
340,251,99449,2,0,P|319:290|325:334,2,90,0|0|2,0:0|0:0|0:0,0:0:0:0:
415,171,101592,5,0,0:0:0:0:
483,204,102127,2,0,P|485:147|444:97,1,90,2|0,0:0|0:0,0:0:0:0:
391,59,103199,5,0,0:0:0:0:
323,92,103734,2,0,P|321:35|362:-15,2,90,2|0|2,0:0|0:0|0:0,0:0:0:0:
358,182,105342,6,0,P|415:180|465:221,1,90,0|2,0:0|0:0,0:0:0:0:
391,250,106413,1,0,0:0:0:0:
437,308,106949,2,0,P|392:324|352:313,2,90,2|0|2,0:0|0:0|0:0,0:0:0:0:
0,373,116592,5,2,0:0:0:0:
89,366,117127,1,0,0:0:0:0:
179,360,117663,1,0,0:0:0:0:
269,354,118199,1,2,0:0:0:0:
359,348,118734,1,0,0:0:0:0:
444,339,119270,2,0,P|438:361|444:383,1,45
506,383,119806,2,0,P|512:358|506:339,1,45
512,253,120342,5,8,0:0:0:0:
453,221,120877,2,0,P|432:209|407:212,1,45,2|0,0:0|0:0,0:0:0:0:
363,251,121413,2,0,P|342:262|317:260,1,45
269,223,121949,2,0,P|248:211|223:214,1,45,8|0,0:0|0:0,0:0:0:0:
179,254,122485,2,0,L|130:243,1,45
18,212,123020,2,0,P|11:233|18:255,1,45,2|0,0:0|0:0,0:0:0:0:
80,257,123556,2,0,P|84:231|80:211,1,45
0,138,124092,5,8,0:0:0:0:
92,108,124627,2,0,P|112:96|137:99,1,45,2|0,0:0|0:0,0:0:0:0:
182,138,125163,2,0,P|202:149|227:147,1,45
276,110,125699,2,0,P|296:98|321:101,1,45,8|0,0:0|0:0,0:0:0:0:
367,155,126235,2,0,L|418:144,1,45
512,67,126770,2,0,P|518:88|512:110,1,45,2|0,0:0|0:0,0:0:0:0:
450,110,127306,2,0,P|445:84|450:64,1,45
508,0,127842,6,0,P|476:-5|446:5,1,58.4999973220826,8|0,0:0|0:0,0:0:0:0:
383,68,128377,2,0,L|377:143,1,58.4999973220826,2|0,0:0|0:0,0:0:0:0:
297,62,128913,2,0,L|305:141,1,58.4999973220826
227,63,129449,2,0,L|222:121,1,58.4999973220826,8|0,0:0|0:0,0:0:0:0:
141,57,129985,2,0,L|146:115,1,58.4999973220826
14,111,130520,2,0,L|14:46,1,58.4999973220826,2|0,0:0|0:0,0:0:0:0:
73,60,131056,2,0,L|73:126,1,58.4999973220826
69,194,131592,5,12,0:0:0:0:
94,280,131859,2,0,L|97:309,2,29.2499986610413,0|0|2,0:0|0:0|0:0,0:0:0:0:
177,269,132395,2,0,L|180:298,2,29.2499986610413
259,264,132931,2,0,L|262:293,2,29.2499986610413
331,304,133467,1,0,0:0:0:0:
313,231,133734,1,8,0:0:0:0:
289,158,134002,2,0,L|322:156,2,29.2499986610413,0|0|2,0:0|0:0|0:0,0:0:0:0:
277,82,134538,2,0,L|310:80,2,29.2499986610413,0|0|8,0:0|0:0|0:0,0:0:0:0:
271,5,135074,1,0,0:0:0:0:
144,81,135342,5,12,0:0:0:0:
117,196,135609,1,0,0:0:0:0:
230,167,135877,1,2,0:0:0:0:
165,146,136145,2,0,L|118:135,2,29.2499986610413,0|0|8,0:0|0:0|0:0,0:0:0:0:
193,210,136681,2,0,L|151:235,2,29.2499986610413,0|0|2,0:0|0:0|0:0,0:0:0:0:
232,270,137217,2,0,L|219:317,2,29.2499986610413
302,264,137752,1,0,0:0:0:0:
352,213,138020,1,8,0:0:0:0:
345,53,138556,1,2,0:0:0:0:
352,213,139092,5,12,0:0:0:0:
312,124,139359,2,0,L|289:89,2,29.2499986610413
352,213,139895,1,0,2:0:0:0:
256,184,140163,2,0,P|219:195|194:226,1,58.4999973220826
262,263,140699,1,8,0:0:0:0:
192,81,141234,1,0,0:0:0:0:
72,208,141770,1,2,0:0:0:0:
192,81,142306,1,0,0:0:0:0:
175,177,142842,5,8,0:0:0:0:
227,264,143109,2,0,P|224:293|220:313,2,29.2499986610413,0|0|2,0:0|0:0|0:0,0:0:0:0:
278,177,143645,1,0,0:0:0:0:
262,93,143913,2,0,P|232:103|210:123,1,58.4999973220826
278,177,144449,1,8,0:0:0:0:
398,50,144984,1,0,0:0:0:0:
468,232,145520,1,2,2:0:0:0:
398,50,146055,1,0,0:0:0:0:
398,285,146592,5,12,0:0:0:0:
329,231,146859,2,0,L|298:206,2,29.2499986610413
398,285,147395,1,0,0:0:0:0:
347,361,147663,2,0,P|308:364|279:353,1,58.4999973220826
317,290,148199,1,8,0:0:0:0:
135,360,148734,1,0,2:0:0:0:
215,182,149270,1,2,0:0:0:0:
135,360,149805,1,0,2:0:0:0:
55,182,150342,6,0,P|65:155|104:122,1,58.4999973220826,8|0,0:0|0:0,0:0:0:0:
157,86,150877,2,2,P|183:96|217:134,1,58.4999973220826,2|0,0:0|0:0,0:0:0:0:
239,199,151413,2,2,P|229:225|190:259,1,58.4999973220826,2|0,0:0|0:0,0:0:0:0:
155,183,151949,1,8,0:0:0:0:
306,94,152484,1,0,0:0:0:0:
306,268,153020,1,2,0:0:0:0:
306,94,153556,1,0,0:0:0:0:
168,298,154092,6,0,L|236:298,1,58.4999973220826
116,244,154627,1,0,0:0:0:0:
116,349,154895,1,0,0:0:0:0:
221,239,155163,1,2,0:0:0:0:
221,349,155431,1,0,0:0:0:0:
168,298,155699,1,0,2:0:0:0:
291,173,156234,1,0,2:0:0:0:
337,341,156770,1,2,2:0:0:0:
291,173,157306,1,0,2:0:0:0:
169,297,157842,5,0,0:0:0:0:
282,95,158378,1,2,0:0:0:0:
399,297,158914,1,0,0:0:0:0:
169,297,159449,1,0,0:0:0:0:
305,191,159984,1,0,0:0:0:0:
269,355,160520,1,2,0:0:0:0:
227,192,161055,1,0,0:0:0:0:
269,29,161592,5,6,0:0:0:0:
421,164,162127,2,0,P|392:160|368:135,1,45,2|0,0:0|0:0,0:0:0:0:
321,95,162663,2,0,P|292:99|268:124,1,45
234,168,163199,2,0,P|205:164|181:139,1,45,8|0,0:0|0:0,0:0:0:0:
128,109,163734,2,0,L|75:138,1,45
33,228,164270,2,0,P|26:204|33:184,1,45,2|0,0:0|0:0,0:0:0:0:
99,184,164806,2,0,P|106:211|99:229,1,45
9,288,165342,5,8,0:0:0:0:
100,226,165877,2,0,P|129:230|153:255,1,45,2|0,0:0|0:0,0:0:0:0:
191,298,166413,2,0,P|220:294|244:269,1,45
281,232,166949,2,8,P|310:236|334:261,1,45,8|0,0:0|0:0,0:0:0:0:
378,295,167484,2,0,L|422:262,1,45
512,217,168020,2,0,P|518:196|511:175,1,45,2|0,0:0|0:0,0:0:0:0:
443,176,168556,2,0,P|437:197|444:218,1,45
511,305,169092,5,8,0:0:0:0:
450,384,169627,2,0,P|427:383|408:372,1,45,2|0,0:0|0:0,0:0:0:0:
358,316,170163,2,0,P|335:317|316:328,1,45
268,381,170699,2,0,P|245:380|226:369,1,45,8|0,0:0|0:0,0:0:0:0:
165,329,171234,2,0,L|110:329,1,45
0,340,171770,2,0,P|-4:365|0:385,1,45,2|0,0:0|0:0,0:0:0:0:
65,384,172306,2,0,P|70:360|65:339,1,45
19,231,172842,6,8,P|30:187|64:159,1,90,8|0,0:0|0:0,0:0:0:0:
94,226,173913,1,2,0:0:0:0:
63,159,174449,2,0,P|101:135|145:139,1,90,8|0,0:0|0:0,0:0:0:0:
94,226,175520,1,2,0:0:0:0:
145,308,176056,1,0,0:0:0:0:
196,226,176592,5,8,0:0:0:0:
243,312,177127,2,0,P|276:283|287:240,1,90,2|0,0:0|0:0,0:0:0:0:
196,226,178199,1,8,0:0:0:0:
287,240,178734,2,0,P|290:195|267:158,2,90,0|2|0,0:0|0:0|0:0,0:0:0:0:
226,317,180342,6,8,P|263:340|307:336,1,90,8|0,0:0|0:0,0:0:0:0:
289,239,181413,1,2,0:0:0:0:
307,336,181949,2,0,P|350:325|381:291,1,90,8|0,0:0|0:0,0:0:0:0:
289,239,183020,1,2,0:0:0:0:
380,186,183556,1,0,0:0:0:0:
289,133,184092,6,0,P|244:111|203:122,2,90,8|2|0,0:0|0:0|0:0,0:0:0:0:
240,185,185699,2,0,P|220:228|229:271,2,90,8|0|2,0:0|0:0|0:0,0:0:0:0:
294,237,187306,1,0,0:0:0:0:
256,192,187842,12,0,199092,0:0:0:0:
