osu file format v14

[General]
AudioFilename: audio.mp3
AudioLeadIn: 0
PreviewTime: 76958
Countdown: 0
SampleSet: Soft
StackLeniency: 0.7
Mode: 0
LetterboxInBreaks: 0
WidescreenStoryboard: 0

[Editor]
Bookmarks: 108020,108288,108556,124092,124359,134806,135074,140699,180342,199092,199627,200163,200699,201234
DistanceSpacing: 1
BeatDivisor: 2
GridSize: 4
TimelineZoom: 1

[Metadata]
Title:Haggstrom
TitleUnicode:Haggstrom
Artist:C418
ArtistUnicode:C418
Creator:RythmSniper999
Version:Easy
Source:
Tags:7/4 timing Minecraft peaceful
BeatmapID:1490886
BeatmapSetID:704792

[Difficulty]
HPDrainRate:2
CircleSize:4
OverallDifficulty:3
ApproachRate:3
SliderMultiplier:0.9
SliderTickRate:1

[Events]
//Background and Video events
0,0,"maxresdefault[1].jpg",0,0
//Break Periods
2,108220,118902
//Storyboard Layer 0 (Background)
//Storyboard Layer 1 (Fail)
//Storyboard Layer 2 (Pass)
//Storyboard Layer 3 (Foreground)
//Storyboard Sound Samples

[TimingPoints]
879,535.714285714286,7,2,0,5,1,0
8379,-100,7,2,0,15,0,0
37843,-100,7,2,0,15,0,0
61950,535.714285714286,7,2,0,15,1,0
76950,-96.1538461538461,7,2,0,15,0,0
84450,-92.5925925925926,7,2,0,15,0,0
94092,535.714285714286,7,2,0,15,1,0
94092,-104.166666666667,7,2,0,5,0,0
120342,-100,7,2,0,5,0,0
146592,-96.1538461538461,7,2,0,15,0,0
161592,-100,7,2,0,15,0,0
180342,-100,7,2,0,5,0,0

[Colours]
Combo1 : 128,128,128
Combo2 : 0,220,0

[HitObjects]
58,29,879,6,0,P|144:7|234:54,1,180,8|2,0:0|0:0,0:0:0:0:
288,104,2486,2,0,P|266:190|313:280,1,180,8|2,0:0|0:0,0:0:0:0:
392,268,4093,1,8,0:0:0:0:
448,200,4629,6,0,P|476:280|408:356,1,180
336,368,6236,2,0,B|235:405|169:303,1,180,4|2,0:0|0:0,0:0:0:0:
52,184,8379,6,0,P|30:98|77:8,1,180,8|2,0:0|0:0,0:0:0:0:
156,8,9986,2,0,P|242:-14|332:33,1,180,8|2,0:0|0:0,0:0:0:0:
380,92,11593,1,8,0:0:0:0:
448,152,12129,6,0,P|470:238|423:328,1,180,8|2,0:0|0:0,0:0:0:0:
333,318,13736,2,0,P|247:296|157:343,1,180,8|2,0:0|0:0,0:0:0:0:
50,228,15879,6,0,P|16:105|95:-1,2,270,8|2|8,0:0|0:0|0:0,0:0:0:0:
132,264,19629,2,0,P|248:204|376:260,1,270,8|2,0:0|0:0,0:0:0:0:
508,368,22307,1,8,0:0:0:0:
472,192,23379,6,0,B|424:104|556:104|476:-4,1,180,4|2,0:0|0:0,0:0:0:0:
404,36,24986,2,2,P|336:-8|216:44,1,180,8|2,0:0|0:0,0:0:0:0:
312,72,26593,1,8,0:0:0:0:
340,160,27129,6,0,P|296:232|200:216,1,180,4|2,0:0|0:0,0:0:0:0:
256,148,28736,2,8,P|227:69|307:15,1,180,8|2,0:0|0:0,0:0:0:0:
472,24,30879,6,0,P|450:110|497:200,1,180,4|2,0:0|0:0,0:0:0:0:
436,264,32486,2,0,P|350:242|260:289,1,180,8|2,0:0|0:0,0:0:0:0:
200,336,34093,1,8,0:0:0:0:
208,248,34629,6,4,P|171:171|84:165,1,180,4|2,0:0|0:0,0:0:0:0:
4,204,36236,2,0,L|20:388,1,180,8|2,0:0|0:0,0:0:0:0:
196,340,38379,6,0,B|276:285|276:417|396:329,1,180,4|2,0:0|0:0,0:0:0:0:
324,268,39986,2,0,B|269:187|401:187|313:68,1,180,8|2,0:0|0:0,0:0:0:0:
252,140,41593,1,8,0:0:0:0:
248,52,42129,6,0,P|168:82|159:167,1,180,4|2,0:0|0:0,0:0:0:0:
204,244,43736,2,0,P|281:278|347:224,1,180,8|2,0:0|0:0,0:0:0:0:
447,334,45879,6,0,P|481:255|427:189,1,180,4|2,0:0|0:0,0:0:0:0:
350,161,47486,2,0,P|315:82|369:16,1,180,8|2,0:0|0:0,0:0:0:0:
399,90,49093,1,8,0:0:0:0:
317,88,49629,6,0,B|233:42|135:72,1,180,4|2,0:0|0:0,0:0:0:0:
67,95,51236,2,0,B|3:177|51:277,1,180,8|2,0:0|0:0,0:0:0:0:
208,304,53379,6,4,P|200:220|109:191,1,180,4|2,0:0|0:0,0:0:0:0:
142,266,54986,2,8,P|149:350|241:379,1,180,8|2,0:0|0:0,0:0:0:0:
311,373,56593,1,8,0:0:0:0:
348,301,57129,6,0,P|268:270|260:184,1,180,4|2,0:0|0:0,0:0:0:0:
180,166,58736,2,0,P|235:101|319:122,1,180,8|2,0:0|0:0,0:0:0:0:
512,53,61950,6,0,P|445:-1|368:35,1,180,8|2,0:0|0:0,0:0:0:0:
280,12,63557,2,2,P|289:97|369:126,1,180,8|2,0:0|0:0,0:0:0:0:
460,132,65164,1,8,0:0:0:0:
369,125,65700,6,4,P|284:134|255:214,1,180,4|2,0:0|0:0,0:0:0:0:
344,208,67307,2,8,P|380:285|326:351,1,180,8|2,0:0|0:0,0:0:0:0:
144,348,69450,6,2,P|80:291|89:201,1,180,4|2,0:0|0:0,0:0:0:0:
176,180,71057,2,2,P|235:109|213:27,1,180,4|2,0:0|0:0,0:0:0:0:
124,24,72664,1,8,0:0:0:0:
136,112,73200,6,2,P|213:148|279:94,1,180,8|2,0:0|0:0,0:0:0:0:
368,116,74807,2,2,P|331:193|385:259,1,180,8|2,0:0|0:0,0:0:0:0:
212,328,76950,6,2,B|124:360|124:360|68:284,1,187.199998857422,4|2,0:0|0:0,0:0:0:0:
159,259,78557,2,2,B|197:172|197:172|137:98,1,187.199998857422,8|2,0:0|0:0,0:0:0:0:
104,188,80164,1,8,0:0:0:0:
138,100,80700,6,2,P|219:136|287:75,1,187.199998857422,8|2,0:0|0:0,2:0:0:0:
376,108,82307,2,2,P|339:188|398:256,1,187.199998857422,8|2,0:0|0:0,0:0:0:0:
487,17,84450,6,2,B|537:99|537:99|484:183,1,194.400004746094,4|2,0:0|0:0,0:0:0:0:
438,107,86057,2,2,B|391:191|391:191|447:277,1,194.400004746094,8|2,0:0|0:0,0:0:0:0:
476,354,87664,1,8,0:0:0:0:
393,324,88200,6,2,B|299:302|299:302|224:371,1,194.400004746094,4|2,0:0|0:0,0:0:0:0:
154,319,89807,2,2,B|190:230|190:230|116:155,1,194.400004746094,8|2,0:0|0:0,0:0:0:0:
42,26,94092,6,2,P|3:109|39:182,1,172.80000421875,8|2,0:0|0:0,0:0:0:0:
102,104,95699,2,2,P|154:168|112:252,1,172.80000421875,8|2,0:0|0:0,0:0:0:0:
40,272,97306,1,8,0:0:0:0:
108,324,97842,6,8,P|175:373|259:337,1,172.80000421875,10|2,0:0|0:0,0:0:0:0:
184,292,99449,2,2,P|247:240|331:282,1,172.80000421875,8|2,0:0|0:0,0:0:0:0:
464,372,101592,6,2,P|510:300|475:215,1,172.80000421875,8|2,0:0|0:0,0:0:0:0:
381,274,103199,2,2,P|329:210|371:126,1,172.80000421875,8|2,0:0|0:0,0:0:0:0:
444,116,104806,1,8,0:0:0:0:
386,51,105342,6,2,P|318:4|215:48,1,172.80000421875,8|2,0:0|0:0,0:0:0:0:
301,102,106949,2,8,P|228:142|153:86,1,172.80000421875,8|2,0:0|0:0,0:0:0:0:
80,243,120342,6,0,P|92:288|132:310,1,90,8|2,0:0|0:0,0:0:0:0:
216,308,121413,2,2,B|297:253|297:385|416:297,1,180,8|2,2:0|2:0,2:0:0:0:
472,300,123020,2,2,P|491:261|491:216,1,90,8|2,0:0|0:0,0:0:0:0:
464,128,124092,6,0,P|448:89|406:83,1,90,8|2,0:0|0:0,0:0:0:0:
320,112,125163,2,0,B|233:44|233:176|152:121,1,180,8|2,0:0|0:0,0:0:0:0:
68,136,126770,2,8,P|23:155|5:195,1,90,8|2,0:0|0:0,0:0:0:0:
68,256,127842,5,8,0:0:0:0:
156,272,128377,2,0,P|162:228|138:191,1,90,2|8,0:0|0:0,0:0:0:0:
48,196,129449,2,0,P|52:153|87:120,1,90,2|8,0:0|0:0,0:0:0:0:
172,116,130520,2,0,P|160:66|112:40,1,90,2|8,0:0|0:0,0:0:0:0:
40,36,131592,6,8,P|21:86|30:120,1,90,12|2,0:0|0:0,0:0:0:0:
116,88,132663,2,8,P|175:150|130:238,1,180,8|10,0:0|0:0,0:0:0:0:
68,276,134270,2,0,P|65:322|95:351,1,90,8|2,0:0|0:0,0:0:0:0:
184,372,135342,6,0,P|234:384|258:359,1,90,8|2,0:0|0:0,0:0:0:0:
276,272,136413,2,0,P|356:241|428:292,1,180,8|2,0:0|0:0,0:0:0:0:
476,368,138020,2,0,P|504:335|500:280,1,90,8|2,0:0|0:0,0:0:0:0:
472,208,139092,6,0,B|402:150|402:150|303:192,1,180,12|2,0:0|0:0,0:0:0:0:
260,252,140699,2,0,B|227:280|227:280|180:260,1,90,8|2,0:0|0:0,0:0:0:0:
116,200,141770,2,0,B|83:172|83:172|40:189,1,90,8|2,0:0|0:0,0:0:0:0:
76,272,142842,6,0,B|40:189|40:189|92:116,1,180,8|2,0:0|0:0,0:0:0:0:
168,68,144449,2,0,B|201:40|201:40|252:40,1,90,8|2,0:0|0:0,0:0:0:0:
336,60,145520,2,0,B|380:72|380:72|408:124,1,90,8|2,0:0|0:0,0:0:0:0:
468,176,146592,6,0,B|501:265|501:265|446:338,1,187.199998857422,8|2,0:0|0:0,0:0:0:0:
408,252,148199,2,0,B|375:224|375:224|329:247,1,93.5999994287109,8|2,0:0|0:0,0:0:0:0:
276,320,149270,2,0,B|243:348|243:348|197:325,1,93.5999994287109,8|2,0:0|0:0,0:0:0:0:
108,296,150342,5,8,0:0:0:0:
36,236,150877,2,0,B|0:193|0:193|19:144,1,93.5999994287109,2|8,0:0|0:0,0:0:0:0:
108,172,151948,2,0,B|147:131|147:131|128:81,1,93.5999994287109,2|8,0:0|0:0,0:0:0:0:
40,108,153020,2,0,B|3:65|3:65|20:17,1,93.5999994287109,2|8,0:0|0:0,0:0:0:0:
108,48,154092,6,0,B|200:26|200:26|284:75,1,187.199998857422,8|2,0:0|0:0,0:0:0:0:
360,120,155699,2,0,B|393:150|393:150|395:202,1,93.5999994287109,8|2,0:0|0:0,0:0:0:0:
372,292,156770,2,0,B|329:329|329:329|276:311,1,93.5999994287109,8|2,0:0|0:0,0:0:0:0:
204,284,157842,5,8,0:0:0:0:
116,248,158377,2,0,B|80:205|80:205|98:156,1,93.5999994287109,2|8,0:0|0:0,0:0:0:0:
160,104,159449,2,0,B|199:66|199:66|270:56,1,93.5999994287109,2|8,0:0|0:0,0:0:0:0:
328,80,160520,2,0,B|380:96|380:96|424:152,1,93.5999994287109,2|8,0:0|0:0,0:0:0:0:
460,200,161592,6,0,B|384:292|520:292|452:380,1,180,4|2,0:0|0:0,0:0:0:0:
372,360,163199,2,8,P|329:367|286:353,1,90,8|2,0:0|0:0,0:0:0:0:
200,328,164270,2,0,P|166:300|155:249,1,90,8|2,0:0|0:0,0:0:0:0:
128,172,165342,6,2,B|176:100|39:100|108:13,1,180,8|2,0:0|0:0,0:0:0:0:
192,40,166949,2,0,P|225:12|265:28,1,90,8|2,0:0|0:0,0:0:0:0:
304,108,168020,2,8,P|337:136|377:120,1,90,8|2,0:0|0:0,0:0:0:0:
457,102,169092,6,8,P|453:60|413:45,1,90,8|2,0:0|0:0,0:0:0:0:
336,72,170163,2,0,B|256:148|255:-5|136:83,1,180,8|2,0:0|0:0,0:0:0:0:
122,128,171770,2,0,P|144:155|142:211,1,90,8|2,0:0|0:0,0:0:0:0:
155,288,172842,6,0,P|196:273|217:233,1,90,8|2,0:0|0:0,0:0:0:0:
141,204,173913,2,0,B|196:123|64:123|152:4,1,180,8|2,0:0|0:0,0:0:0:0:
202,75,175520,2,0,P|240:101|252:149,1,90,8|2,0:0|0:0,0:0:0:0:
216,216,176592,6,8,P|207:263|176:290,1,90,8|2,0:0|0:0,0:0:0:0:
88,288,177663,1,8,0:0:0:0:
24,232,178199,6,0,P|45:195|92:172,1,90,2|8,0:0|0:0,0:0:0:0:
172,204,179270,2,0,L|152:112,1,90,2|8,0:0|0:0,0:0:0:0:
112,36,180342,6,0,B|281:43|281:43|312:-16|374:-42|441:-16|465:38,1,360,8|8,0:0|0:0,0:0:0:0:
376,84,183020,2,2,L|376:196,1,90
388,260,184092,6,0,B|219:253|219:253|188:312|126:338|59:312|35:258,1,360,8|8,0:0|0:0,0:0:0:0:
120,212,186770,2,2,L|120:100,1,90
256,192,187842,12,0,199092,0:0:0:0:
