osu file format v14

[General]
AudioFilename: audio.mp3
AudioLeadIn: 0
PreviewTime: 19659
Countdown: 0
SampleSet: Normal
StackLeniency: 0.7
Mode: 1
LetterboxInBreaks: 0
WidescreenStoryboard: 1

[Editor]
DistanceSpacing: 1.3
BeatDivisor: 5
GridSize: 32
TimelineZoom: 1

[Metadata]
Title:Dry Hands
TitleUnicode:Dry Hands
Artist:C418
ArtistUnicode:C418
Creator:jschlatt
Version:Futsuu
Source:Minecraft
Tags:ost classical piano video game instrumental Daniel Rosenfeld vgm music volume alpha ambient original soundtrack jiebi gibee games
BeatmapID:2964508
BeatmapSetID:1440969

[Difficulty]
HPDrainRate:9
CircleSize:2
OverallDifficulty:2.5
ApproachRate:5
SliderMultiplier:1.4
SliderTickRate:1

[Events]
//Background and Video events
0,0,"2021-04-22_19.41.37.jpg",0,0
//Break Periods
//Storyboard Layer 0 (Background)
//Storyboard Layer 1 (Fail)
//Storyboard Layer 2 (Pass)
//Storyboard Layer 3 (Foreground)
//Storyboard Layer 4 (Overlay)
//Storyboard Sound Samples

[TimingPoints]
18637,1230.76923076923,4,1,0,30,1,8
18637,-97.5609756097561,4,1,0,30,0,8
19867,1284.7965738758,4,1,0,30,1,0
19867,-93.4579439252336,4,1,0,30,0,0
21151,1333.33333333333,4,1,0,25,1,8
21151,-90.0900900900901,4,1,0,25,0,8
22484,1254.70514429109,4,1,0,30,1,8
22484,-95.6937799043062,4,1,0,30,0,8
23738,1250,4,1,0,25,1,8
23738,-96.061479346782,4,1,0,25,0,8
24988,1188.11881188119,4,1,0,35,1,0
24988,-101.010101010101,4,1,0,35,0,0
26176,1061.94690265487,4,1,0,25,1,8
26176,-113.122171945701,4,1,0,25,0,8
26706,1307.18954248366,4,1,0,25,1,8
26706,-91.8273645546373,4,1,0,25,0,8
27359,1074.30617726052,4,1,0,35,1,8
27359,-111.731843575419,4,1,0,35,0,8
28433,1066.66666666667,4,1,0,20,1,8
28433,-113.636363636364,4,1,0,20,0,8
29499,979.591836734697,4,1,0,30,1,0
29499,-122.549019607843,4,1,0,30,0,0
29743,1048.03493449782,4,1,0,32,1,8
29743,-114.54753722795,4,1,0,32,0,8
30005,1030.04291845494,4,1,0,28,1,8
30005,-116.550116550117,4,1,0,28,0,8
30520,1034.48275862069,4,1,0,25,1,8
30520,-116.009280742459,4,1,0,25,0,8
31554,1030.92783505155,4,1,0,30,1,8
31554,-116.414435389988,4,1,0,30,0,8
33615,1030.92783505155,4,1,0,40,1,0
33615,-116.414435389988,4,1,0,40,0,8
34645,1021.27659574468,4,1,0,30,1,8
34645,-117.508813160987,4,1,0,30,0,8
35666,1043.47826086957,4,1,0,40,1,8
35666,-115.074798619102,4,1,0,40,0,8
36709,1014.37024513948,4,1,0,20,1,8
36709,-118.343195266272,4,1,0,20,0,8
37723,1121.4953271028,4,1,0,30,1,0
37723,-107.066381156317,4,1,0,30,0,0
38283,993.377483443709,4,1,0,25,1,8
38283,-120.918984280532,4,1,0,25,0,8
39276,1052.63157894737,4,1,0,30,1,8
39276,-114.025085518814,4,1,0,30,0,8
39802,1056.33802816901,4,1,0,40,1,8
39802,-113.636363636364,4,1,0,40,0,8
40858,1090.90909090909,4,1,0,32,1,8
40858,-110.01100110011,4,1,0,32,0,8
41403,1061.94690265487,4,1,0,30,1,8
41403,-113.122171945701,4,1,0,30,0,8
41933,1100.91743119266,4,1,0,40,1,0
41933,-109.051254089422,4,1,0,40,0,0
42483,1052.63157894737,4,1,0,37,1,8
42483,-114.025085518814,4,1,0,37,0,8
43009,1038.96103896104,4,1,0,25,1,8
43009,-115.606936416185,4,1,0,25,0,8
44047,1008.40336134454,4,1,0,30,1,8
44047,-119.047619047619,4,1,0,30,0,8
44551,1021.27659574468,4,1,0,25,1,8
44551,-117.508813160987,4,1,0,25,0,8
45572,1085.97285067873,4,1,0,28,1,8
45572,-110.619469026549,4,1,0,28,0,8
46114,1206.03015075377,4,1,0,25,1,0
46114,-99.009900990099,4,1,0,25,0,0
46717,1061.94690265487,4,1,0,30,1,8
46717,-113.122171945701,4,1,0,30,0,8
47778,1066.66666666667,4,1,0,28,1,8
47778,-112.612612612613,4,1,0,28,0,8
48311,1034.48275862069,4,1,0,40,1,8
48311,-116.009280742459,4,1,0,40,0,8
49345,1016.94915254237,4,1,0,28,1,8
49345,-118.063754427391,4,1,0,28,0,8
50361,1034.48275862069,4,1,0,40,1,0
50361,-116.009280742459,4,1,0,40,0,8
50878,1016.94915254237,4,1,0,40,1,8
50878,-118.063754427391,4,1,0,40,0,8
52403,1016.94915254237,4,1,0,28,1,8
52403,-118.063754427391,4,1,0,28,0,8
52911,1072.76953334525,4,1,0,25,1,8
52911,-111.982082866741,4,1,0,25,0,8
55723,1000,4,1,0,30,1,0
55723,-120.048019207683,4,1,0,30,0,0
56598,1021.27659574468,4,1,0,30,1,8
56598,-117.508813160987,4,1,0,30,0,8
57619,1016.94915254237,4,1,0,30,1,8
57619,-118.063754427391,4,1,0,30,0,8
58635,1016.94915254237,4,1,0,30,1,8
58635,-118.063754427391,4,1,0,30,0,8
59651,963.855421686747,4,1,0,30,1,0
59651,-124.53300124533,4,1,0,30,0,0
60617,963.855421686747,4,1,0,30,1,8
60617,-124.53300124533,4,1,0,30,0,0
61578,1061.94690265487,4,1,0,20,1,8
61578,-112.994350282486,4,1,0,20,0,8
62639,1153.84615384615,4,1,0,20,1,0
62639,-104.058272632674,4,1,0,20,0,0

[HitObjects]
256,192,19867,5,8,0:0:0:0:
256,192,21151,1,8,0:0:0:0:
256,192,22484,1,0,0:0:0:0:
256,192,23738,1,8,0:0:0:0:
256,192,24988,1,0,0:0:0:0:
256,192,26176,1,8,0:0:0:0:
256,192,26706,1,8,0:0:0:0:
256,192,27359,1,0,0:0:0:0:
256,192,28433,1,8,0:0:0:0:
256,192,29499,1,0,0:0:0:0:
256,192,29743,1,0,0:0:0:0:
256,192,30005,1,8,0:0:0:0:
256,192,30520,1,0,0:0:0:0:
256,192,31037,1,8,0:0:0:0:
256,192,31554,1,8,0:0:0:0:
256,192,32584,1,0,0:0:0:0:
256,192,33615,1,8,0:0:0:0:
256,192,34645,1,0,0:0:0:0:
256,192,35155,1,0,0:0:0:0:
256,192,35666,1,8,0:0:0:0:
256,192,36709,1,0,0:0:0:0:
256,192,37723,1,8,0:0:0:0:
256,192,38283,1,0,0:0:0:0:
256,192,39276,1,8,0:0:0:0:
256,192,39802,1,8,0:0:0:0:
256,192,40330,1,0,0:0:0:0:
256,192,40858,1,8,0:0:0:0:
256,192,41403,1,0,0:0:0:0:
256,192,41933,1,0,0:0:0:0:
256,192,42483,1,0,0:0:0:0:
256,192,43009,1,8,0:0:0:0:
256,192,44047,1,8,0:0:0:0:
256,192,44551,1,0,0:0:0:0:
256,192,45572,1,0,0:0:0:0:
256,192,46114,1,8,0:0:0:0:
256,192,46717,1,0,0:0:0:0:
256,192,47778,1,8,0:0:0:0:
256,192,48044,1,8,0:0:0:0:
256,192,48311,1,0,0:0:0:0:
256,192,48828,1,0,0:0:0:0:
256,192,49086,1,8,0:0:0:0:
256,192,49345,1,0,0:0:0:0:
256,192,50107,1,8,0:0:0:0:
256,192,50361,1,0,0:0:0:0:
256,192,50878,1,8,0:0:0:0:
256,192,52403,1,0,0:0:0:0:
256,192,52911,1,8,0:0:0:0:
256,192,55723,1,8,0:0:0:0:
256,192,56598,1,8,0:0:0:0:
256,192,57619,1,0,0:0:0:0:
256,192,58635,1,0,0:0:0:0:
256,192,59651,1,8,0:0:0:0:
256,192,61578,1,0,0:0:0:0:
256,192,61790,1,0,0:0:0:0:
256,192,62002,1,0,0:0:0:0:
256,192,62427,1,0,0:0:0:0:
256,192,62639,1,8,0:0:0:0:
