osu file format v14

[General]
AudioFilename: audio.mp3
AudioLeadIn: 0
PreviewTime: 19659
Countdown: 0
SampleSet: Soft
StackLeniency: 0.7
Mode: 0
LetterboxInBreaks: 0
WidescreenStoryboard: 1

[Editor]
Bookmarks: 185,5306,9817,13933,22251,26432,30679,36041,39969,42957
DistanceSpacing: 1.3
BeatDivisor: 12
GridSize: 32
TimelineZoom: 2.28

[Metadata]
Title:Dry Hands
TitleUnicode:Dry Hands
Artist:C418
ArtistUnicode:C418
Creator:jiebi
Version:A Tribute to Minecraft
Source:Minecraft
Tags:ost classical 2011 piano video game instrumental Daniel Rosenfeld minecraft: volume alpha ambient original soundtrack Sounds and Effects jschlatt Progressive hazu- gibee games
BeatmapID:2919234
BeatmapSetID:1416597

[Difficulty]
HPDrainRate:3
CircleSize:3.5
OverallDifficulty:4
ApproachRate:5
SliderMultiplier:1.6
SliderTickRate:1

[Events]
//Background and Video events
0,0,"bg3.jpg",0,0
//Break Periods
//Storyboard Layer 0 (Background)
//Storyboard Layer 1 (Fail)
//Storyboard Layer 2 (Pass)
//Storyboard Layer 3 (Foreground)
//Storyboard Layer 4 (Overlay)
//Storyboard Sound Samples

[TimingPoints]
18634,1230.76923076923,4,2,1,30,1,8
19864,1284.7965738758,4,2,1,30,1,0
20827,-100,4,2,1,5,0,0
21148,1333.33333333333,4,2,2,25,1,8
22481,1254.70514429109,4,2,3,30,1,8
23422,-100,4,2,3,5,0,8
23735,1250,4,2,4,25,1,8
24985,1188.11881188119,4,2,5,35,1,0
26173,1061.94690265487,4,2,2,25,1,8
26703,1307.18954248366,4,2,7,25,1,8
27356,1074.30617726052,4,2,8,35,1,8
28161,-100,4,2,8,5,0,8
28430,1066.66666666667,4,2,9,20,1,8
29496,979.591836734697,4,2,10,30,1,0
29740,1048.03493449782,4,2,11,32,1,8
30002,1030.04291845494,4,2,12,28,1,8
30517,1034.48275862069,4,2,2,25,1,8
31034,-100,4,2,7,28,0,8
31551,1030.92783505155,4,2,15,30,1,8
32324,-100,4,2,15,5,0,8
32581,-100,4,2,16,25,0,8
33612,1030.92783505155,4,2,17,40,1,0
34642,1021.27659574468,4,2,18,30,1,8
34897,-100,4,2,18,5,0,8
35152,-100,4,2,19,25,0,0
35407,-100,4,2,19,5,0,0
35663,1043.47826086957,4,2,15,40,1,8
36445,-100,4,2,15,5,0,8
36706,1014.37024513948,4,2,21,20,1,8
36706,-100,4,2,21,20,0,0
37720,1121.4953271028,4,2,22,30,1,0
38280,993.377483443709,4,2,19,25,1,8
38280,-100,4,2,19,25,0,8
39273,1052.63157894737,4,2,24,30,1,8
39799,1056.33802816901,4,2,25,40,1,8
40327,-100,4,2,26,30,0,0
40855,1090.90909090909,4,2,24,32,1,8
41400,1061.94690265487,4,2,28,30,1,8
41930,1100.91743119266,4,2,29,40,1,0
42205,-100,4,2,29,5,0,0
42480,1052.63157894737,4,2,18,37,1,8
43006,1038.96103896104,4,2,31,25,1,8
43006,-100,4,2,31,25,0,0
44044,1008.40336134454,4,2,32,30,1,8
44296,-100,4,2,32,5,0,8
44548,1021.27659574468,4,2,33,25,1,8
45569,1085.97285067873,4,2,19,28,1,8
46111,1206.03015075377,4,2,35,25,1,0
46412,-100,4,2,35,5,0,0
46714,1061.94690265487,4,2,19,30,1,8
47775,1066.66666666667,4,2,2,28,1,8
48041,-100,4,2,7,34,0,0
48308,1034.48275862069,4,2,39,40,1,8
48825,-100,4,2,40,40,0,0
49083,-100,4,2,7,34,0,0
49342,1016.94915254237,4,2,42,28,1,8
49342,-100,4,2,42,28,0,0
50104,-100,4,2,31,25,0,0
50358,1034.48275862069,4,2,29,40,1,0
50620,-100,4,2,29,5,0,0
50875,1016.94915254237,4,2,45,40,1,8
52400,1016.94915254237,4,2,29,28,1,8
52908,1072.76953334525,4,2,47,25,1,8
55720,1000,4,2,49,30,1,0
56595,1021.27659574468,4,2,2,20,1,8
57616,1016.94915254237,4,2,3,30,1,8
58378,-100,4,2,3,5,0,8
58632,1016.94915254237,4,2,50,20,1,8
59648,963.855421686747,4,2,51,30,1,0
59648,-50,4,2,51,30,0,0
61575,1061.94690265487,4,2,52,20,1,8
61575,-100,4,2,52,20,0,0
61787,-100,4,2,53,20,0,0
61999,-100,4,2,33,20,0,0
62212,-100,4,2,55,20,0,0
62424,-100,4,2,9,20,0,0
62636,1153.84615384615,4,2,57,20,1,0
62780,-100,4,2,57,15,0,0
64943,-100,4,2,57,10,0,0
67251,-100,4,2,57,5,0,0

[Colours]
Combo1 : 255,255,191
Combo2 : 128,255,128
Combo3 : 255,128,128

[HitObjects]
47,53,19762,5,0,0:0:0:0:
47,53,19864,2,0,L|45:209,1,120,6|0,0:0|0:0,0:0:0:0:
59,251,21148,1,2,0:0:0:0:
225,363,22481,2,0,B|269:365|269:365|293:382|293:382|339:384,1,120,6|0,0:0|0:0,0:0:0:0:
412,357,23735,1,2,0:0:0:0:
467,191,24985,5,6,0:0:0:0:
287,153,26173,1,2,0:0:0:0:
322,30,26703,1,2,0:0:0:0:
202,67,27356,2,0,L|59:66,1,120,6|0,0:0|0:0,0:0:0:0:
3,66,28430,1,2,0:0:0:0:
85,245,29496,5,6,0:0:0:0:
43,314,29740,1,2,0:0:0:0:
111,358,30002,1,2,0:0:0:0:
217,276,30517,1,2,0:0:0:0:
301,378,31034,1,2,0:0:0:0:
334,247,31551,2,0,L|337:113,1,120,6|0,0:0|0:0,0:0:0:0:
346,47,32581,1,2,0:0:0:0:
158,0,33612,5,6,0:0:0:0:
38,155,34642,2,0,L|34:229,1,40,2|0,0:0|0:0,0:0:0:0:
95,250,35152,2,0,L|99:324,1,40,2|0,0:0|0:0,0:0:0:0:
161,341,35663,2,0,P|230:374|294:341,1,120,6|0,0:0|0:0,0:0:0:0:
325,305,36706,1,2,0:0:0:0:
509,270,37720,6,0,L|511:183,1,80,6|2,0:0|0:0,0:0:0:0:
391,44,39273,1,2,0:0:0:0:
300,121,39799,1,6,0:0:0:0:
203,56,40327,1,2,0:0:0:0:
89,74,40855,1,2,0:0:0:0:
143,172,41400,1,2,0:0:0:0:
43,225,41930,6,0,L|41:287,1,40,6|0,0:0|0:0,0:0:0:0:
5,336,42480,1,2,0:0:0:0:
123,379,43006,1,2,0:0:0:0:
341,338,44044,2,0,L|343:263,1,40,6|0,0:0|0:0,0:0:0:0:
326,219,44548,1,2,0:0:0:0:
448,65,45569,1,2,0:0:0:0:
354,4,46111,6,0,L|281:5,1,40,6|0,0:0|0:0,0:0:0:0:
238,15,46714,1,2,0:0:0:0:
56,62,47775,1,2,0:0:0:0:
0,119,48041,1,2,0:0:0:0:
43,193,48308,1,6,0:0:0:0:
124,270,48825,1,2,0:0:0:0:
92,344,49083,1,2,0:0:0:0:
166,376,49342,1,2,0:0:0:0:
221,162,50104,1,2,0:0:0:0:
200,85,50358,6,0,L|202:10,1,40,6|0,0:0|0:0,0:0:0:0:
267,0,50875,1,2,0:0:0:0:
511,154,52400,1,6,0:0:0:0:
500,264,52908,1,2,0:0:0:0:
60,334,55589,5,2,0:0:0:0:
60,334,55720,2,0,L|61:176,1,140,6|2,0:0|0:0,0:0:0:0:
166,47,57616,2,0,P|216:10|281:23,1,120,6|0,0:0|0:0,0:0:0:0:
326,74,58632,1,2,0:0:0:0:
512,182,59648,5,6,0:0:0:0:
203,344,61575,2,0,L|206:289,1,32,6|2,0:0|0:0,0:0:0:0:
265,261,61999,1,2,0:0:0:0:
272,182,62212,1,2,0:0:0:0:
216,127,62424,1,2,0:0:0:0:
212,48,62636,1,6,0:0:0:0:
256,192,62780,12,0,67251,0:0:0:0:
