osu file format v14

[General]
AudioFilename: audio.mp3
AudioLeadIn: 0
PreviewTime: 109722
Countdown: 0
SampleSet: Normal
StackLeniency: 0.7
Mode: 1
LetterboxInBreaks: 0
WidescreenStoryboard: 0

[Editor]
Bookmarks: 11065,21693,33007,43979,54950,60436,65922,87865,98836,104322,109807,115293,120779,126265,131750,142722,153693,159179,164665,170150,175636,197579,203065,208550,214036,219522,225007,235979,241465,246950,252436,257922,263407,268893,279865,290836,296322,301807,307293,312779,313807,319636
DistanceSpacing: 1.9
BeatDivisor: 4
GridSize: 32
TimelineZoom: 1.9

[Metadata]
Title:Cat (Caution & Crisis Remix)
TitleUnicode:Cat (Caution & Crisis Remix)
Artist:C418
ArtistUnicode:C418
Creator:h3oCharles
Version:Childhood Memories
Source:Minecraft
Tags:volume alpha soundtrack ost daniel rosenfeld harvey december dec3mber thompson james shakeshaft electronic dnb drum and & bass video game chiptune trance instrumental
BeatmapID:2607081
BeatmapSetID:1254499

[Difficulty]
HPDrainRate:5
CircleSize:2
OverallDifficulty:6
ApproachRate:0
SliderMultiplier:1.4
SliderTickRate:1

[Events]
//Background and Video events
0,0,"BG.jpg",0,20
//Break Periods
2,60636,61379
2,175836,195779
2,197779,198522
//Storyboard Layer 0 (Background)
//Storyboard Layer 1 (Fail)
//Storyboard Layer 2 (Pass)
//Storyboard Layer 3 (Foreground)
//Storyboard Layer 4 (Overlay)
//Storyboard Sound Samples

[TimingPoints]
1465,342.857142857143,4,1,0,5,1,0
11750,-100,4,1,0,6,0,0
12093,-100,4,1,0,7,0,0
12436,-100,4,1,0,8,0,0
12779,-100,4,1,0,9,0,0
13122,-100,4,1,0,10,0,0
13465,-100,4,1,0,11,0,0
13807,-100,4,1,0,12,0,0
14150,-100,4,1,0,13,0,0
14493,-100,4,1,0,14,0,0
14836,-100,4,1,0,15,0,0
15179,-100,4,1,0,16,0,0
15522,-100,4,1,0,17,0,0
15865,-100,4,1,0,18,0,0
16207,-100,4,1,0,19,0,0
16550,-100,4,1,0,20,0,0
16893,-100,4,1,0,21,0,0
17236,-100,4,1,0,22,0,0
17579,-100,4,1,0,23,0,0
17922,-100,4,1,0,24,0,0
18265,-100,4,1,0,25,0,0
18607,-100,4,1,0,26,0,0
18950,-100,4,1,0,27,0,0
19293,-100,4,1,0,28,0,0
19636,-100,4,1,0,29,0,0
19979,-100,4,1,0,30,0,0
20322,-100,4,1,0,31,0,0
20665,-100,4,1,0,32,0,0
21007,-100,4,1,0,33,0,0
21350,-100,4,1,0,34,0,0
21693,-100,4,1,0,35,0,0
22036,-100,4,1,0,36,0,0
22379,-100,4,1,0,37,0,0
22722,-100,4,1,0,38,0,0
23065,-100,4,1,0,40,0,0
23407,-100,4,1,0,41,0,0
23750,-100,4,1,0,42,0,0
24093,-100,4,1,0,43,0,0
24436,-100,4,1,0,44,0,0
24779,-100,4,1,0,45,0,0
25122,-100,4,1,0,46,0,0
25465,-100,4,1,0,47,0,0
25807,-100,4,1,0,48,0,0
26150,-100,4,1,0,49,0,0
26493,-100,4,1,0,51,0,0
26836,-100,4,1,0,52,0,0
27179,-100,4,1,0,53,0,0
27522,-100,4,1,0,54,0,0
27865,-100,4,1,0,55,0,0
28207,-100,4,1,0,56,0,0
28550,-100,4,1,0,57,0,0
28893,-100,4,1,0,58,0,0
29236,-100,4,1,0,59,0,0
29579,-100,4,1,0,60,0,0
29922,-100,4,1,0,62,0,0
30265,-100,4,1,0,63,0,0
30607,-100,4,1,0,64,0,0
30950,-100,4,1,0,65,0,0
31293,-100,4,1,0,66,0,0
31636,-100,4,1,0,67,0,0
31979,-100,4,1,0,68,0,0
32322,-100,4,1,0,69,0,0
32665,-100,4,1,0,70,0,0
55465,-100,4,1,0,60,0,0
63179,-100,4,1,0,46,0,0
63350,-100,4,1,0,47,0,0
63522,-100,4,1,0,48,0,0
63693,-100,4,1,0,49,0,0
63865,-100,4,1,0,50,0,0
64036,-100,4,1,0,51,0,0
64207,-100,4,1,0,52,0,0
64379,-100,4,1,0,53,0,0
64550,-100,4,1,0,54,0,0
64722,-100,4,1,0,55,0,0
64893,-100,4,1,0,56,0,0
65065,-100,4,1,0,57,0,0
65236,-100,4,1,0,58,0,0
65407,-100,4,1,0,59,0,0
65579,-100,4,1,0,60,0,0
65922,-66.6666666666667,4,1,0,70,0,1
66950,-66.6666666666667,4,1,0,70,0,1
67122,-66.6666666666667,4,1,0,70,0,0
67465,-100,4,1,0,60,0,0
68322,-100,4,1,0,60,0,0
71407,-66.6666666666667,4,1,0,70,0,1
72779,-66.6666666666667,4,1,0,70,0,1
72950,-100,4,1,0,60,0,0
73636,-100,4,1,0,60,0,0
76893,-66.6666666666667,4,1,0,70,0,1
77922,-66.6666666666667,4,1,0,70,0,0
78093,-66.6666666666667,4,1,0,60,0,0
78436,-100,4,1,0,60,0,0
79293,-100,4,1,0,60,0,0
82379,-66.6666666666667,4,1,0,70,0,1
83750,-66.6666666666667,4,1,0,70,0,0
83922,-100,4,1,0,60,0,0
84607,-100,4,1,0,60,0,0
98836,-100,4,1,0,65,0,0
109807,-83.3333333333333,4,1,0,75,0,1
131750,-83.3333333333333,4,1,0,75,0,0
131922,-83.3333333333333,4,1,0,70,0,0
132093,-86.9565217391304,4,1,0,70,0,0
132436,-90.9090909090909,4,1,0,70,0,0
152836,-90.9090909090909,4,1,0,70,0,0
152922,-90.0900900900901,4,1,0,70,0,0
153007,-89.2857142857143,4,1,0,70,0,0
153093,-88.4955752212389,4,1,0,70,0,0
153179,-87.719298245614,4,1,0,70,0,0
153265,-86.9565217391304,4,1,0,70,0,0
153350,-86.2068965517241,4,1,0,70,0,0
153436,-85.4700854700855,4,1,0,70,0,0
153522,-84.7457627118644,4,1,0,70,0,0
153607,-84.0336134453781,4,1,0,70,0,0
153693,-83.3333333333333,4,1,0,75,0,1
175636,-83.3333333333333,4,1,0,70,0,0
175807,-100,4,1,0,60,0,0
197579,-100,4,1,0,70,0,0
197750,-100,4,1,0,60,0,0
200322,-100,4,1,0,46,0,0
200493,-100,4,1,0,47,0,0
200665,-100,4,1,0,48,0,0
200836,-100,4,1,0,49,0,0
201007,-100,4,1,0,50,0,0
201179,-100,4,1,0,51,0,0
201350,-100,4,1,0,52,0,0
201522,-100,4,1,0,53,0,0
201693,-100,4,1,0,54,0,0
201865,-100,4,1,0,55,0,0
202036,-100,4,1,0,56,0,0
202207,-100,4,1,0,57,0,0
202379,-100,4,1,0,58,0,0
202550,-100,4,1,0,59,0,0
202722,-100,4,1,0,60,0,0
203065,-66.6666666666667,4,1,0,70,0,1
204093,-66.6666666666667,4,1,0,70,0,0
204265,-66.6666666666667,4,1,0,60,0,0
205807,-100,4,1,0,46,0,0
205979,-100,4,1,0,47,0,0
206150,-100,4,1,0,48,0,0
206322,-100,4,1,0,49,0,0
206493,-100,4,1,0,50,0,0
206665,-100,4,1,0,51,0,0
206836,-100,4,1,0,52,0,0
207007,-100,4,1,0,53,0,0
207179,-100,4,1,0,54,0,0
207350,-100,4,1,0,55,0,0
207522,-100,4,1,0,56,0,0
207693,-100,4,1,0,57,0,0
207865,-100,4,1,0,58,0,0
208036,-100,4,1,0,59,0,0
208207,-100,4,1,0,60,0,0
208550,-66.6666666666667,4,1,0,70,0,1
209922,-66.6666666666667,4,1,0,70,0,0
210093,-100,4,1,0,60,0,0
211293,-100,4,1,0,46,0,0
211465,-100,4,1,0,47,0,0
211636,-100,4,1,0,48,0,0
211807,-100,4,1,0,49,0,0
211979,-100,4,1,0,50,0,0
212150,-100,4,1,0,51,0,0
212322,-100,4,1,0,52,0,0
212493,-100,4,1,0,53,0,0
212665,-100,4,1,0,54,0,0
212836,-100,4,1,0,55,0,0
213007,-100,4,1,0,56,0,0
213179,-100,4,1,0,57,0,0
213350,-100,4,1,0,58,0,0
213522,-100,4,1,0,59,0,0
213693,-100,4,1,0,60,0,0
214036,-66.6666666666667,4,1,0,70,0,1
215065,-66.6666666666667,4,1,0,70,0,0
215236,-66.6666666666667,4,1,0,60,0,0
215579,-100,4,1,0,60,0,0
216779,-100,4,1,0,46,0,0
216950,-100,4,1,0,47,0,0
217122,-100,4,1,0,48,0,0
217293,-100,4,1,0,49,0,0
217465,-100,4,1,0,50,0,0
217636,-100,4,1,0,51,0,0
217807,-100,4,1,0,52,0,0
217979,-100,4,1,0,53,0,0
218150,-100,4,1,0,54,0,0
218322,-100,4,1,0,55,0,0
218493,-100,4,1,0,56,0,0
218665,-100,4,1,0,57,0,0
218836,-100,4,1,0,58,0,0
219007,-100,4,1,0,59,0,0
219179,-100,4,1,0,60,0,0
219522,-66.6666666666667,4,1,0,70,0,1
220893,-66.6666666666667,4,1,0,70,0,0
221065,-100,4,1,0,60,0,0
222265,-100,4,1,0,46,0,0
222436,-100,4,1,0,47,0,0
222607,-100,4,1,0,48,0,0
222779,-100,4,1,0,49,0,0
222950,-100,4,1,0,50,0,0
223122,-100,4,1,0,51,0,0
223293,-100,4,1,0,52,0,0
223465,-100,4,1,0,53,0,0
223636,-100,4,1,0,54,0,0
223807,-100,4,1,0,55,0,0
223979,-100,4,1,0,56,0,0
224150,-100,4,1,0,57,0,0
224322,-100,4,1,0,58,0,0
224493,-100,4,1,0,59,0,0
224665,-100,4,1,0,60,0,0
246950,-83.3333333333333,4,1,0,75,0,1
268893,-83.3333333333333,4,1,0,75,0,0
269065,-83.3333333333333,4,1,0,70,0,0
269236,-86.9565217391304,4,1,0,70,0,0
269579,-90.9090909090909,4,1,0,70,0,0
289979,-90.9090909090909,4,1,0,70,0,0
290065,-90.0900900900901,4,1,0,70,0,0
290150,-89.2857142857143,4,1,0,70,0,0
290236,-88.4955752212389,4,1,0,70,0,0
290322,-87.719298245614,4,1,0,70,0,0
290407,-86.9565217391304,4,1,0,70,0,0
290493,-86.2068965517241,4,1,0,70,0,0
290579,-85.4700854700855,4,1,0,70,0,0
290665,-84.7457627118644,4,1,0,70,0,0
290750,-84.0336134453781,4,1,0,70,0,0
290836,-83.3333333333333,4,1,0,75,0,1
312779,-66.6666666666667,4,1,0,70,0,0
314150,-100,4,1,0,20,0,0

[HitObjects]
256,192,22036,5,0,1:0:0:0:
256,192,22379,1,0,1:0:0:0:
256,192,22722,1,0,1:0:0:0:
256,192,23065,1,8,1:0:0:0:
256,192,23407,1,0,1:0:0:0:
256,192,23750,1,0,1:0:0:0:
256,192,24093,1,0,1:0:0:0:
256,192,24436,1,8,1:0:0:0:
256,192,24779,1,0,1:0:0:0:
256,192,25122,1,0,1:0:0:0:
256,192,25465,1,0,1:0:0:0:
256,192,25807,1,8,1:0:0:0:
256,192,26150,1,0,1:0:0:0:
256,192,26493,1,0,1:0:0:0:
256,192,26836,1,0,1:0:0:0:
256,192,27179,1,8,1:0:0:0:
256,192,27522,1,0,1:0:0:0:
256,192,27865,1,0,1:0:0:0:
256,192,28207,1,0,1:0:0:0:
256,192,28550,1,8,1:0:0:0:
256,192,28893,1,0,1:0:0:0:
256,192,29236,1,0,1:0:0:0:
256,192,29579,1,0,1:0:0:0:
256,192,29922,1,8,1:0:0:0:
256,192,30265,1,0,1:0:0:0:
256,192,30436,1,0,1:0:0:0:
256,192,30607,1,8,1:0:0:0:
256,192,30779,1,0,1:0:0:0:
256,192,30950,1,8,1:0:0:0:
256,192,31122,1,0,1:0:0:0:
256,192,31293,1,8,1:0:0:0:
256,192,31465,1,0,1:0:0:0:
256,192,31636,8,0,32665,1:0:0:0:
256,192,33007,5,4,1:0:0:0:
256,192,33179,1,8,1:0:0:0:
256,192,33350,1,0,1:0:0:0:
256,192,33522,1,8,1:0:0:0:
256,192,33607,1,8,1:0:0:0:
256,192,33693,1,0,1:0:0:0:
256,192,33779,1,8,1:0:0:0:
256,192,33865,1,0,1:0:0:0:
256,192,34036,1,8,1:0:0:0:
256,192,34207,1,0,1:0:0:0:
256,192,34293,1,0,1:0:0:0:
256,192,34379,1,8,1:0:0:0:
256,192,34550,1,8,1:0:0:0:
256,192,34722,1,8,1:0:0:0:
256,192,34893,1,0,1:0:0:0:
256,192,34979,1,0,1:0:0:0:
256,192,35065,1,8,1:0:0:0:
256,192,35150,1,8,1:0:0:0:
256,192,35236,1,0,1:0:0:0:
256,192,35407,1,8,1:0:0:0:
256,192,35579,1,0,1:0:0:0:
256,192,35665,1,8,1:0:0:0:
256,192,35750,1,0,1:0:0:0:
256,192,35922,1,8,1:0:0:0:
256,192,36093,1,0,1:0:0:0:
256,192,36265,1,8,1:0:0:0:
256,192,36350,1,8,1:0:0:0:
256,192,36436,1,0,1:0:0:0:
256,192,36522,1,8,1:0:0:0:
256,192,36607,1,0,1:0:0:0:
256,192,36779,1,8,1:0:0:0:
256,192,36950,1,0,1:0:0:0:
256,192,37036,1,0,1:0:0:0:
256,192,37122,1,8,1:0:0:0:
256,192,37293,1,0,1:0:0:0:
256,192,37465,1,8,1:0:0:0:
256,192,37636,1,0,1:0:0:0:
256,192,37722,1,0,1:0:0:0:
256,192,37807,1,8,1:0:0:0:
256,192,37893,1,0,1:0:0:0:
256,192,37979,1,0,1:0:0:0:
256,192,38150,1,8,1:0:0:0:
256,192,38322,1,8,1:0:0:0:
256,192,38407,1,8,1:0:0:0:
256,192,38493,1,0,1:0:0:0:
256,192,38665,1,8,1:0:0:0:
256,192,38836,1,0,1:0:0:0:
256,192,39007,1,8,1:0:0:0:
256,192,39093,1,8,1:0:0:0:
256,192,39179,1,0,1:0:0:0:
256,192,39265,1,8,1:0:0:0:
256,192,39350,1,0,1:0:0:0:
256,192,39522,1,8,1:0:0:0:
256,192,39693,1,8,1:0:0:0:
256,192,39779,1,0,1:0:0:0:
256,192,39865,1,0,1:0:0:0:
256,192,40036,1,8,1:0:0:0:
256,192,40207,1,8,1:0:0:0:
256,192,40379,1,8,1:0:0:0:
256,192,40465,1,8,1:0:0:0:
256,192,40550,1,0,1:0:0:0:
256,192,40636,1,8,1:0:0:0:
256,192,40722,1,0,1:0:0:0:
256,192,40893,1,8,1:0:0:0:
256,192,41065,1,0,1:0:0:0:
256,192,41236,1,8,1:0:0:0:
256,192,41407,1,0,1:0:0:0:
256,192,41579,1,8,1:0:0:0:
256,192,41750,1,0,1:0:0:0:
256,192,41836,1,8,1:0:0:0:
256,192,41922,1,0,1:0:0:0:
256,192,42007,1,8,1:0:0:0:
256,192,42093,1,0,1:0:0:0:
256,192,42265,1,8,1:0:0:0:
256,192,42436,1,8,1:0:0:0:
256,192,42522,1,0,1:0:0:0:
256,192,42607,1,8,1:0:0:0:
256,192,42779,1,8,1:0:0:0:
256,192,42950,1,8,1:0:0:0:
256,192,43122,1,0,1:0:0:0:
256,192,43207,1,0,1:0:0:0:
256,192,43293,1,8,1:0:0:0:
256,192,43379,1,0,1:0:0:0:
256,192,43465,1,0,1:0:0:0:
256,192,43636,1,8,1:0:0:0:
256,192,43807,1,0,1:0:0:0:
256,192,43979,1,12,1:0:0:0:
256,192,44150,1,0,1:0:0:0:
256,192,44322,1,8,1:0:0:0:
256,192,44493,1,0,1:0:0:0:
256,192,44579,1,0,1:0:0:0:
256,192,44665,1,8,1:0:0:0:
256,192,44750,1,0,1:0:0:0:
256,192,44836,1,8,1:0:0:0:
256,192,45007,1,8,1:0:0:0:
256,192,45179,1,0,1:0:0:0:
256,192,45265,1,0,1:0:0:0:
256,192,45350,1,8,1:0:0:0:
256,192,45522,1,0,1:0:0:0:
256,192,45693,1,8,1:0:0:0:
256,192,45865,1,0,1:0:0:0:
256,192,45950,1,0,1:0:0:0:
256,192,46036,1,8,1:0:0:0:
256,192,46122,1,0,1:0:0:0:
256,192,46207,1,0,1:0:0:0:
256,192,46379,1,8,1:0:0:0:
256,192,46550,1,0,1:0:0:0:
256,192,46636,1,0,1:0:0:0:
256,192,46722,1,8,1:0:0:0:
256,192,46893,1,0,1:0:0:0:
256,192,47065,1,8,1:0:0:0:
256,192,47236,1,0,1:0:0:0:
256,192,47322,1,0,1:0:0:0:
256,192,47407,1,8,1:0:0:0:
256,192,47493,1,0,1:0:0:0:
256,192,47579,1,0,1:0:0:0:
256,192,47750,1,8,1:0:0:0:
256,192,47922,1,0,1:0:0:0:
256,192,48007,1,0,1:0:0:0:
256,192,48093,1,8,1:0:0:0:
256,192,48265,1,0,1:0:0:0:
256,192,48436,1,8,1:0:0:0:
256,192,48607,1,0,1:0:0:0:
256,192,48693,1,0,1:0:0:0:
256,192,48779,1,8,1:0:0:0:
256,192,48865,1,0,1:0:0:0:
256,192,48950,1,0,1:0:0:0:
256,192,49122,1,8,1:0:0:0:
256,192,49293,1,0,1:0:0:0:
256,192,49379,1,0,1:0:0:0:
256,192,49465,1,8,1:0:0:0:
256,192,49636,1,0,1:0:0:0:
256,192,49807,1,8,1:0:0:0:
256,192,49979,1,0,1:0:0:0:
256,192,50065,1,8,1:0:0:0:
256,192,50150,1,8,1:0:0:0:
256,192,50236,1,0,1:0:0:0:
256,192,50322,1,0,1:0:0:0:
256,192,50493,1,8,1:0:0:0:
256,192,50665,1,0,1:0:0:0:
256,192,50750,1,0,1:0:0:0:
256,192,50836,1,8,1:0:0:0:
256,192,51007,1,0,1:0:0:0:
256,192,51093,1,0,1:0:0:0:
256,192,51179,1,8,1:0:0:0:
256,192,51350,1,0,1:0:0:0:
256,192,51436,1,0,1:0:0:0:
256,192,51522,1,8,1:0:0:0:
256,192,51607,1,0,1:0:0:0:
256,192,51693,1,0,1:0:0:0:
256,192,51865,1,8,1:0:0:0:
256,192,52036,1,8,1:0:0:0:
256,192,52122,1,0,1:0:0:0:
256,192,52207,1,8,1:0:0:0:
256,192,52379,1,0,1:0:0:0:
256,192,52465,1,8,1:0:0:0:
256,192,52550,1,0,1:0:0:0:
256,192,52722,1,8,1:0:0:0:
256,192,52807,1,8,1:0:0:0:
256,192,52893,1,0,1:0:0:0:
256,192,52979,1,8,1:0:0:0:
256,192,53065,1,0,1:0:0:0:
256,192,53236,1,8,1:0:0:0:
256,192,53407,1,8,1:0:0:0:
256,192,53493,1,8,1:0:0:0:
256,192,53579,1,0,1:0:0:0:
256,192,53750,1,8,1:0:0:0:
256,192,53922,1,8,1:0:0:0:
256,192,54007,1,8,1:0:0:0:
256,192,54093,1,0,1:0:0:0:
256,192,54179,1,0,1:0:0:0:
256,192,54265,1,8,1:0:0:0:
256,192,54350,1,8,1:0:0:0:
256,192,54436,1,0,1:0:0:0:
256,192,54607,1,8,1:0:0:0:
256,192,54779,1,8,1:0:0:0:
256,192,54950,1,4,1:0:0:0:
256,192,55465,1,8,1:0:0:0:
256,192,55979,1,0,1:0:0:0:
256,192,56493,1,8,1:0:0:0:
256,192,56665,1,0,1:0:0:0:
256,192,57179,1,8,1:0:0:0:
256,192,57350,1,8,1:0:0:0:
256,192,57693,1,8,1:0:0:0:
256,192,57865,1,0,1:0:0:0:
256,192,58036,1,8,1:0:0:0:
256,192,58207,1,0,1:0:0:0:
256,192,58379,1,0,1:0:0:0:
256,192,58550,1,0,1:0:0:0:
256,192,58722,1,8,1:0:0:0:
256,192,59407,1,0,1:0:0:0:
256,192,60093,1,8,1:0:0:0:
256,192,60436,1,0,1:0:0:0:
256,192,63179,12,0,65579,1:0:0:0:
256,192,65922,5,12,1:0:0:0:
256,192,66093,1,0,1:0:0:0:
256,192,66179,1,0,1:0:0:0:
256,192,66265,1,0,1:0:0:0:
256,192,66436,1,12,1:0:0:0:
256,192,66607,1,0,1:0:0:0:
256,192,66693,1,0,1:0:0:0:
256,192,66779,1,0,1:0:0:0:
256,192,66950,1,12,1:0:0:0:
256,192,68322,1,8,1:0:0:0:
256,192,68493,1,8,1:0:0:0:
256,192,68665,1,0,1:0:0:0:
256,192,69007,1,8,1:0:0:0:
256,192,69179,1,0,1:0:0:0:
256,192,69522,1,0,1:0:0:0:
256,192,70036,1,0,1:0:0:0:
256,192,70893,1,8,1:0:0:0:
256,192,71065,1,8,1:0:0:0:
256,192,71236,1,0,1:0:0:0:
256,192,71407,1,12,1:0:0:0:
256,192,71579,1,0,1:0:0:0:
256,192,71665,1,0,1:0:0:0:
256,192,71750,1,8,1:0:0:0:
256,192,71922,1,12,1:0:0:0:
256,192,72093,1,0,1:0:0:0:
256,192,72179,1,0,1:0:0:0:
256,192,72265,1,8,1:0:0:0:
256,192,72436,1,12,1:0:0:0:
256,192,72779,1,12,1:0:0:0:
256,192,73636,1,8,1:0:0:0:
256,192,73807,1,8,1:0:0:0:
256,192,73979,1,8,1:0:0:0:
256,192,74150,1,0,1:0:0:0:
256,192,74493,1,8,1:0:0:0:
256,192,74665,1,0,1:0:0:0:
256,192,75007,1,8,1:0:0:0:
256,192,75522,1,0,1:0:0:0:
256,192,76207,1,8,1:0:0:0:
256,192,76379,1,8,1:0:0:0:
256,192,76550,1,0,1:0:0:0:
256,192,76893,1,12,1:0:0:0:
256,192,77065,1,0,1:0:0:0:
256,192,77150,1,0,1:0:0:0:
256,192,77236,1,0,1:0:0:0:
256,192,77407,1,12,1:0:0:0:
256,192,77579,1,0,1:0:0:0:
256,192,77665,1,0,0:0:0:0:
256,192,77750,1,8,1:0:0:0:
256,192,77922,1,4,1:0:0:0:
256,192,79293,1,0,1:0:0:0:
256,192,79465,1,8,1:0:0:0:
256,192,79636,1,0,1:0:0:0:
256,192,79979,1,0,1:0:0:0:
256,192,80150,1,8,1:0:0:0:
256,192,80493,1,0,1:0:0:0:
256,192,81007,1,0,1:0:0:0:
256,192,81865,1,8,1:0:0:0:
256,192,82036,1,8,1:0:0:0:
256,192,82207,1,8,1:0:0:0:
256,192,82379,1,4,1:0:0:0:
256,192,82550,1,0,1:0:0:0:
256,192,82636,1,0,1:0:0:0:
256,192,82722,1,8,1:0:0:0:
256,192,82893,1,12,1:0:0:0:
256,192,83065,1,0,1:0:0:0:
256,192,83150,1,0,1:0:0:0:
256,192,83236,1,8,1:0:0:0:
256,192,83407,1,12,1:0:0:0:
256,192,83750,1,12,1:0:0:0:
256,192,84607,1,8,1:0:0:0:
256,192,84779,1,8,1:0:0:0:
256,192,84950,1,8,1:0:0:0:
256,192,85122,1,0,1:0:0:0:
256,192,85465,1,8,1:0:0:0:
256,192,85636,1,8,1:0:0:0:
256,192,85979,1,0,1:0:0:0:
256,192,86493,1,0,1:0:0:0:
256,192,87179,1,8,1:0:0:0:
256,192,87350,1,8,1:0:0:0:
256,192,87522,1,0,1:0:0:0:
256,192,87865,1,0,1:0:0:0:
256,192,87950,1,8,1:0:0:0:
256,192,88036,1,8,1:0:0:0:
256,192,88207,1,8,1:0:0:0:
256,192,88379,1,0,1:0:0:0:
256,192,88465,1,0,1:0:0:0:
256,192,88550,1,8,0:0:0:0:
256,192,89065,1,8,1:0:0:0:
256,192,89407,1,0,1:0:0:0:
256,192,89579,1,8,1:0:0:0:
256,192,89750,1,8,1:0:0:0:
256,192,89836,1,0,1:0:0:0:
256,192,89922,1,0,0:0:0:0:
256,192,90093,1,0,1:0:0:0:
256,192,90265,1,8,1:0:0:0:
256,192,90436,1,0,1:0:0:0:
256,192,90522,1,0,1:0:0:0:
256,192,90607,1,8,1:0:0:0:
256,192,91122,1,8,1:0:0:0:
256,192,91293,1,8,1:0:0:0:
256,192,91465,1,0,1:0:0:0:
256,192,91636,1,8,1:0:0:0:
256,192,91979,1,0,1:0:0:0:
256,192,92150,1,0,1:0:0:0:
256,192,92322,1,8,1:0:0:0:
256,192,92665,1,0,1:0:0:0:
256,192,92836,1,8,1:0:0:0:
256,192,93007,1,8,1:0:0:0:
256,192,93179,1,0,1:0:0:0:
256,192,93350,1,8,1:0:0:0:
256,192,93693,1,8,1:0:0:0:
256,192,93865,1,0,1:0:0:0:
256,192,94036,1,0,1:0:0:0:
256,192,94379,1,8,1:0:0:0:
256,192,94550,1,0,1:0:0:0:
256,192,94722,1,8,1:0:0:0:
256,192,95065,1,8,1:0:0:0:
256,192,95236,1,8,1:0:0:0:
256,192,95407,1,0,1:0:0:0:
256,192,95750,1,0,1:0:0:0:
256,192,95922,1,8,1:0:0:0:
256,192,96093,1,8,1:0:0:0:
256,192,96350,1,8,1:0:0:0:
256,192,96436,1,0,1:0:0:0:
256,192,96607,1,8,1:0:0:0:
256,192,96779,1,0,1:0:0:0:
256,192,96865,1,8,1:0:0:0:
256,192,97122,1,8,1:0:0:0:
256,192,97465,1,0,1:0:0:0:
256,192,97807,1,8,1:0:0:0:
256,192,98150,1,8,1:0:0:0:
256,192,98493,1,0,1:0:0:0:
256,192,98836,1,4,1:0:0:0:
256,192,99179,1,8,1:0:0:0:
256,192,99350,1,8,1:0:0:0:
256,192,99522,1,0,1:0:0:0:
256,192,99865,1,0,1:0:0:0:
256,192,100207,1,8,1:0:0:0:
256,192,100550,1,8,1:0:0:0:
256,192,100893,1,8,1:0:0:0:
256,192,101236,1,8,1:0:0:0:
256,192,101579,1,0,1:0:0:0:
256,192,101922,1,0,1:0:0:0:
256,192,102093,1,8,1:0:0:0:
256,192,102265,1,0,1:0:0:0:
256,192,102436,1,8,1:0:0:0:
256,192,102607,1,0,1:0:0:0:
256,192,102950,1,0,1:0:0:0:
256,192,103293,1,0,1:0:0:0:
256,192,103636,1,8,1:0:0:0:
256,192,103979,1,0,1:0:0:0:
256,192,104150,1,0,1:0:0:0:
256,192,104236,1,0,1:0:0:0:
256,192,104322,1,8,1:0:0:0:
256,192,104493,1,0,1:0:0:0:
256,192,104665,1,0,1:0:0:0:
256,192,104836,1,8,1:0:0:0:
256,192,105007,1,0,1:0:0:0:
256,192,105179,1,0,1:0:0:0:
256,192,105350,1,8,1:0:0:0:
256,192,105522,1,0,1:0:0:0:
256,192,105607,1,0,1:0:0:0:
256,192,105693,1,8,1:0:0:0:
256,192,105865,1,0,1:0:0:0:
256,192,106036,1,0,1:0:0:0:
256,192,106207,1,8,1:0:0:0:
256,192,106379,1,0,1:0:0:0:
256,192,106550,1,0,1:0:0:0:
256,192,106722,1,8,1:0:0:0:
256,192,106893,1,0,1:0:0:0:
256,192,106979,1,0,1:0:0:0:
256,192,107065,1,8,1:0:0:0:
256,192,107150,1,8,1:0:0:0:
256,192,107236,1,0,1:0:0:0:
256,192,107322,1,0,1:0:0:0:
256,192,107407,1,8,1:0:0:0:
256,192,107493,1,0,1:0:0:0:
256,192,107579,1,8,1:0:0:0:
256,192,107665,1,8,1:0:0:0:
256,192,107750,1,0,1:0:0:0:
256,192,107836,1,0,1:0:0:0:
256,192,107922,1,8,1:0:0:0:
256,192,108007,1,0,1:0:0:0:
256,192,108093,1,8,1:0:0:0:
256,192,108179,1,8,1:0:0:0:
256,192,108265,1,0,1:0:0:0:
256,192,108350,1,8,1:0:0:0:
256,192,108436,1,0,1:0:0:0:
256,192,108607,1,0,1:0:0:0:
256,192,108779,1,8,1:0:0:0:
256,192,108950,1,0,1:0:0:0:
256,192,109122,1,8,1:0:0:0:
256,192,109293,1,0,1:0:0:0:
256,192,109465,1,12,1:0:0:0:
256,192,109807,1,4,1:0:0:0:
256,192,109979,1,0,1:0:0:0:
256,192,110150,1,8,1:0:0:0:
256,192,110322,1,8,1:0:0:0:
256,192,110407,1,8,1:0:0:0:
256,192,110493,1,0,1:0:0:0:
256,192,110579,1,8,1:0:0:0:
256,192,110665,1,0,1:0:0:0:
256,192,110836,1,8,1:0:0:0:
256,192,111007,1,0,1:0:0:0:
256,192,111093,1,8,1:0:0:0:
256,192,111179,1,0,1:0:0:0:
256,192,111350,1,0,1:0:0:0:
256,192,111436,1,0,1:0:0:0:
256,192,111522,1,8,1:0:0:0:
256,192,111693,1,0,1:0:0:0:
256,192,111779,1,0,1:0:0:0:
256,192,111865,1,8,1:0:0:0:
256,192,111950,1,8,1:0:0:0:
256,192,112036,1,0,1:0:0:0:
256,192,112207,1,8,1:0:0:0:
256,192,112379,1,8,1:0:0:0:
256,192,112465,1,0,1:0:0:0:
256,192,112550,1,8,1:0:0:0:
256,192,112722,1,0,1:0:0:0:
256,192,112893,1,8,1:0:0:0:
256,192,113065,1,8,1:0:0:0:
256,192,113150,1,8,1:0:0:0:
256,192,113236,1,0,1:0:0:0:
256,192,113322,1,0,1:0:0:0:
256,192,113407,1,0,1:0:0:0:
256,192,113579,1,8,1:0:0:0:
256,192,113750,1,8,1:0:0:0:
256,192,113836,1,8,1:0:0:0:
256,192,113922,1,0,1:0:0:0:
256,192,114093,1,0,1:0:0:0:
256,192,114179,1,0,1:0:0:0:
256,192,114265,1,8,1:0:0:0:
256,192,114436,1,0,1:0:0:0:
256,192,114522,1,8,1:0:0:0:
256,192,114607,1,0,1:0:0:0:
256,192,114693,1,8,1:0:0:0:
256,192,114779,1,0,1:0:0:0:
256,192,114950,1,8,1:0:0:0:
256,192,115122,1,0,1:0:0:0:
256,192,115293,1,12,1:0:0:0:
256,192,115465,1,0,1:0:0:0:
256,192,115550,1,0,1:0:0:0:
256,192,115636,1,8,1:0:0:0:
256,192,115807,1,8,1:0:0:0:
256,192,115893,1,8,1:0:0:0:
256,192,115979,1,0,1:0:0:0:
256,192,116065,1,8,1:0:0:0:
256,192,116150,1,0,1:0:0:0:
256,192,116322,1,8,1:0:0:0:
256,192,116493,1,8,1:0:0:0:
256,192,116579,1,8,1:0:0:0:
256,192,116665,1,0,1:0:0:0:
256,192,116836,1,0,1:0:0:0:
256,192,117007,1,8,1:0:0:0:
256,192,117179,1,0,1:0:0:0:
256,192,117265,1,0,1:0:0:0:
256,192,117350,1,8,1:0:0:0:
256,192,117436,1,8,1:0:0:0:
256,192,117522,1,0,1:0:0:0:
256,192,117693,1,8,1:0:0:0:
256,192,117865,1,0,1:0:0:0:
256,192,117950,1,0,1:0:0:0:
256,192,118036,1,8,1:0:0:0:
256,192,118207,1,0,1:0:0:0:
256,192,118379,1,8,1:0:0:0:
256,192,118550,1,8,1:0:0:0:
256,192,118636,1,0,1:0:0:0:
256,192,118722,1,8,1:0:0:0:
256,192,118807,1,0,1:0:0:0:
256,192,118893,1,8,1:0:0:0:
256,192,119065,1,8,1:0:0:0:
256,192,119236,1,8,1:0:0:0:
256,192,119322,1,0,1:0:0:0:
256,192,119407,1,8,1:0:0:0:
256,192,119579,1,0,1:0:0:0:
256,192,119750,1,8,1:0:0:0:
256,192,119922,1,0,1:0:0:0:
256,192,120007,1,0,1:0:0:0:
256,192,120093,1,8,1:0:0:0:
256,192,120179,1,0,1:0:0:0:
256,192,120265,1,8,1:0:0:0:
256,192,120436,1,8,1:0:0:0:
256,192,120607,1,0,1:0:0:0:
256,192,120693,1,0,1:0:0:0:
256,192,120779,1,12,1:0:0:0:
256,192,120950,1,0,1:0:0:0:
256,192,121122,1,0,1:0:0:0:
256,192,121293,1,8,1:0:0:0:
256,192,121379,1,0,1:0:0:0:
256,192,121465,1,8,1:0:0:0:
256,192,121550,1,8,1:0:0:0:
256,192,121636,1,0,1:0:0:0:
256,192,121807,1,8,1:0:0:0:
256,192,121979,1,8,1:0:0:0:
256,192,122065,1,8,1:0:0:0:
256,192,122150,1,0,1:0:0:0:
256,192,122322,1,0,1:0:0:0:
256,192,122493,1,8,1:0:0:0:
256,192,122665,1,0,1:0:0:0:
256,192,122750,1,0,1:0:0:0:
256,192,122836,1,8,1:0:0:0:
256,192,122922,1,8,1:0:0:0:
256,192,123007,1,0,1:0:0:0:
256,192,123179,1,8,1:0:0:0:
256,192,123350,1,8,1:0:0:0:
256,192,123436,1,0,1:0:0:0:
256,192,123522,1,8,1:0:0:0:
256,192,123693,1,0,1:0:0:0:
256,192,123865,1,8,1:0:0:0:
256,192,124036,1,8,1:0:0:0:
256,192,124122,1,8,1:0:0:0:
256,192,124207,1,0,1:0:0:0:
256,192,124293,1,0,1:0:0:0:
256,192,124379,1,0,1:0:0:0:
256,192,124550,1,8,1:0:0:0:
256,192,124722,1,0,1:0:0:0:
256,192,124807,1,0,1:0:0:0:
256,192,124893,1,8,1:0:0:0:
256,192,125065,1,0,1:0:0:0:
256,192,125236,1,8,1:0:0:0:
256,192,125407,1,0,1:0:0:0:
256,192,125493,1,0,1:0:0:0:
256,192,125579,1,8,1:0:0:0:
256,192,125665,1,0,1:0:0:0:
256,192,125750,1,8,1:0:0:0:
256,192,125922,1,8,1:0:0:0:
256,192,126093,1,0,1:0:0:0:
256,192,126265,1,12,1:0:0:0:
256,192,126436,1,0,1:0:0:0:
256,192,126607,1,8,1:0:0:0:
256,192,126779,1,8,1:0:0:0:
256,192,126865,1,0,1:0:0:0:
256,192,126950,1,0,1:0:0:0:
256,192,127036,1,0,1:0:0:0:
256,192,127122,1,8,1:0:0:0:
256,192,127293,1,8,1:0:0:0:
256,192,127465,1,0,1:0:0:0:
256,192,127550,1,0,1:0:0:0:
256,192,127636,1,8,1:0:0:0:
256,192,127807,1,0,1:0:0:0:
256,192,127893,1,0,1:0:0:0:
256,192,127979,1,8,1:0:0:0:
256,192,128150,1,0,1:0:0:0:
256,192,128236,1,0,1:0:0:0:
256,192,128322,1,8,1:0:0:0:
256,192,128407,1,8,1:0:0:0:
256,192,128493,1,0,1:0:0:0:
256,192,128665,1,8,1:0:0:0:
256,192,128836,1,0,1:0:0:0:
256,192,128922,1,0,1:0:0:0:
256,192,129007,1,8,1:0:0:0:
256,192,129179,1,0,1:0:0:0:
256,192,129265,1,0,1:0:0:0:
256,192,129350,1,8,1:0:0:0:
256,192,129522,1,8,1:0:0:0:
256,192,129607,1,0,1:0:0:0:
256,192,129693,1,0,1:0:0:0:
256,192,129779,1,0,1:0:0:0:
256,192,129865,1,8,1:0:0:0:
256,192,130036,1,8,1:0:0:0:
256,192,130207,1,0,1:0:0:0:
256,192,130293,1,0,1:0:0:0:
256,192,130379,1,8,1:0:0:0:
256,192,130550,1,0,1:0:0:0:
256,192,130722,1,8,1:0:0:0:
256,192,130893,1,0,1:0:0:0:
256,192,130979,1,0,1:0:0:0:
256,192,131065,1,8,1:0:0:0:
256,192,131150,1,0,1:0:0:0:
256,192,131236,1,8,1:0:0:0:
256,192,131407,1,8,1:0:0:0:
256,192,131493,1,0,1:0:0:0:
256,192,131579,1,0,1:0:0:0:
256,192,131750,1,12,1:0:0:0:
256,192,132093,1,0,1:0:0:0:
256,192,132436,1,0,1:0:0:0:
256,192,132779,1,8,1:0:0:0:
256,192,132950,1,8,1:0:0:0:
256,192,133122,1,0,1:0:0:0:
256,192,133465,1,8,1:0:0:0:
256,192,133807,1,0,1:0:0:0:
256,192,133979,1,8,1:0:0:0:
256,192,134065,1,0,1:0:0:0:
256,192,134150,1,0,1:0:0:0:
256,192,134493,1,0,1:0:0:0:
256,192,134836,1,8,1:0:0:0:
256,192,135179,1,0,1:0:0:0:
256,192,135522,1,8,1:0:0:0:
256,192,135693,1,8,1:0:0:0:
256,192,135865,1,0,1:0:0:0:
256,192,136207,1,8,1:0:0:0:
256,192,136550,1,0,1:0:0:0:
256,192,136722,1,8,1:0:0:0:
256,192,136807,1,0,1:0:0:0:
256,192,136893,1,0,1:0:0:0:
256,192,137065,1,0,1:0:0:0:
256,192,137236,1,0,1:0:0:0:
256,192,137579,1,8,1:0:0:0:
256,192,137922,1,0,1:0:0:0:
256,192,138265,1,8,1:0:0:0:
256,192,138436,1,0,0:0:0:0:
256,192,138607,1,0,1:0:0:0:
256,192,138950,1,8,1:0:0:0:
256,192,139293,1,0,1:0:0:0:
256,192,139465,1,8,1:0:0:0:
256,192,139550,1,0,1:0:0:0:
256,192,139636,1,0,1:0:0:0:
256,192,139979,1,0,1:0:0:0:
256,192,140322,1,8,1:0:0:0:
256,192,140665,1,0,1:0:0:0:
256,192,141007,1,8,1:0:0:0:
256,192,141350,1,0,1:0:0:0:
256,192,141522,1,8,1:0:0:0:
256,192,141693,1,0,1:0:0:0:
256,192,141865,1,8,1:0:0:0:
256,192,142036,1,0,1:0:0:0:
256,192,142207,1,0,1:0:0:0:
256,192,142293,1,8,1:0:0:0:
256,192,142379,1,0,1:0:0:0:
256,192,142465,1,0,1:0:0:0:
256,192,142550,1,0,1:0:0:0:
256,192,142722,1,12,1:0:0:0:
256,192,142893,1,8,1:0:0:0:
256,192,143065,1,8,1:0:0:0:
256,192,143236,1,0,1:0:0:0:
256,192,143407,1,8,1:0:0:0:
256,192,143579,1,0,1:0:0:0:
256,192,143750,1,8,1:0:0:0:
256,192,143922,1,8,1:0:0:0:
256,192,144093,1,8,1:0:0:0:
256,192,144265,1,0,1:0:0:0:
256,192,144436,1,8,1:0:0:0:
256,192,144607,1,0,1:0:0:0:
256,192,144779,1,8,1:0:0:0:
256,192,144950,1,0,1:0:0:0:
256,192,145036,1,0,1:0:0:0:
256,192,145122,1,8,1:0:0:0:
256,192,145293,1,0,1:0:0:0:
256,192,145465,1,8,1:0:0:0:
256,192,145636,1,8,1:0:0:0:
256,192,145807,1,8,1:0:0:0:
256,192,145979,1,0,1:0:0:0:
256,192,146150,1,8,1:0:0:0:
256,192,146322,1,0,1:0:0:0:
256,192,146493,1,8,1:0:0:0:
256,192,146665,1,8,1:0:0:0:
256,192,146836,1,8,1:0:0:0:
256,192,147007,1,0,1:0:0:0:
256,192,147179,1,8,1:0:0:0:
256,192,147350,1,0,1:0:0:0:
256,192,147522,1,8,1:0:0:0:
256,192,147693,1,0,1:0:0:0:
256,192,147779,1,0,1:0:0:0:
256,192,147865,1,8,1:0:0:0:
256,192,148036,1,0,1:0:0:0:
256,192,148207,1,8,1:0:0:0:
256,192,148379,1,8,1:0:0:0:
256,192,148550,1,8,1:0:0:0:
256,192,148722,1,0,1:0:0:0:
256,192,148893,1,8,1:0:0:0:
256,192,149065,1,0,1:0:0:0:
256,192,149236,1,8,1:0:0:0:
256,192,149407,1,8,1:0:0:0:
256,192,149579,1,8,1:0:0:0:
256,192,149750,1,0,1:0:0:0:
256,192,149922,1,8,1:0:0:0:
256,192,150093,1,0,1:0:0:0:
256,192,150265,1,8,1:0:0:0:
256,192,150436,1,0,1:0:0:0:
256,192,150522,1,0,1:0:0:0:
256,192,150607,1,8,1:0:0:0:
256,192,150779,1,0,1:0:0:0:
256,192,150950,1,8,1:0:0:0:
256,192,151122,1,8,1:0:0:0:
256,192,151207,1,0,1:0:0:0:
256,192,151293,1,8,1:0:0:0:
256,192,151465,1,8,1:0:0:0:
256,192,151636,1,8,1:0:0:0:
256,192,151807,1,8,1:0:0:0:
256,192,151893,1,0,1:0:0:0:
256,192,151979,1,8,1:0:0:0:
256,192,152150,1,0,1:0:0:0:
256,192,152236,1,0,1:0:0:0:
256,192,152322,1,8,1:0:0:0:
256,192,152493,1,8,1:0:0:0:
256,192,152579,1,0,1:0:0:0:
256,192,152665,1,8,1:0:0:0:
256,192,152836,1,0,1:0:0:0:
256,192,152922,1,0,1:0:0:0:
256,192,153007,1,8,1:0:0:0:
256,192,153179,1,0,1:0:0:0:
256,192,153265,1,8,1:0:0:0:
256,192,153350,1,0,1:0:0:0:
256,192,153436,1,0,1:0:0:0:
256,192,153522,1,8,1:0:0:0:
256,192,153607,1,8,1:0:0:0:
256,192,153693,1,4,1:0:0:0:
256,192,153865,1,8,1:0:0:0:
256,192,153950,1,8,1:0:0:0:
256,192,154036,1,8,1:0:0:0:
256,192,154207,1,0,1:0:0:0:
256,192,154379,1,0,1:0:0:0:
256,192,154465,1,0,1:0:0:0:
256,192,154550,1,8,1:0:0:0:
256,192,154722,1,0,1:0:0:0:
256,192,154893,1,8,1:0:0:0:
256,192,154979,1,8,1:0:0:0:
256,192,155065,1,0,1:0:0:0:
256,192,155236,1,8,1:0:0:0:
256,192,155407,1,0,1:0:0:0:
256,192,155579,1,8,1:0:0:0:
256,192,155665,1,8,1:0:0:0:
256,192,155750,1,0,1:0:0:0:
256,192,155836,1,8,1:0:0:0:
256,192,155922,1,0,1:0:0:0:
256,192,156093,1,8,1:0:0:0:
256,192,156265,1,8,1:0:0:0:
256,192,156436,1,0,1:0:0:0:
256,192,156607,1,8,1:0:0:0:
256,192,156779,1,0,1:0:0:0:
256,192,156950,1,0,1:0:0:0:
256,192,157036,1,8,1:0:0:0:
256,192,157122,1,8,1:0:0:0:
256,192,157207,1,8,1:0:0:0:
256,192,157293,1,0,1:0:0:0:
256,192,157465,1,8,1:0:0:0:
256,192,157636,1,8,1:0:0:0:
256,192,157722,1,8,1:0:0:0:
256,192,157807,1,0,1:0:0:0:
256,192,157979,1,0,1:0:0:0:
256,192,158065,1,0,1:0:0:0:
256,192,158150,1,8,1:0:0:0:
256,192,158322,1,8,1:0:0:0:
256,192,158407,1,8,1:0:0:0:
256,192,158493,1,0,1:0:0:0:
256,192,158579,1,0,1:0:0:0:
256,192,158665,1,8,1:0:0:0:
256,192,158836,1,8,1:0:0:0:
256,192,159007,1,0,1:0:0:0:
256,192,159179,1,12,1:0:0:0:
256,192,159350,1,0,1:0:0:0:
256,192,159522,1,8,1:0:0:0:
256,192,159693,1,8,1:0:0:0:
256,192,159779,1,0,1:0:0:0:
256,192,159865,1,8,1:0:0:0:
256,192,159950,1,8,1:0:0:0:
256,192,160036,1,0,1:0:0:0:
256,192,160207,1,8,1:0:0:0:
256,192,160379,1,8,1:0:0:0:
256,192,160465,1,8,1:0:0:0:
256,192,160550,1,0,1:0:0:0:
256,192,160722,1,0,1:0:0:0:
256,192,160893,1,8,1:0:0:0:
256,192,161065,1,0,1:0:0:0:
256,192,161150,1,8,1:0:0:0:
256,192,161236,1,0,1:0:0:0:
256,192,161322,1,8,1:0:0:0:
256,192,161407,1,0,1:0:0:0:
256,192,161579,1,8,1:0:0:0:
256,192,161750,1,0,1:0:0:0:
256,192,161922,1,8,1:0:0:0:
256,192,162093,1,0,1:0:0:0:
256,192,162265,1,8,1:0:0:0:
256,192,162436,1,0,1:0:0:0:
256,192,162522,1,8,1:0:0:0:
256,192,162607,1,0,1:0:0:0:
256,192,162693,1,8,1:0:0:0:
256,192,162779,1,0,1:0:0:0:
256,192,162950,1,8,1:0:0:0:
256,192,163122,1,0,1:0:0:0:
256,192,163207,1,0,1:0:0:0:
256,192,163293,1,0,1:0:0:0:
256,192,163465,1,0,1:0:0:0:
256,192,163636,1,8,1:0:0:0:
256,192,163807,1,8,1:0:0:0:
256,192,163893,1,0,1:0:0:0:
256,192,163979,1,8,1:0:0:0:
256,192,164150,1,0,1:0:0:0:
256,192,164322,1,8,1:0:0:0:
256,192,164493,1,0,1:0:0:0:
256,192,164579,1,0,1:0:0:0:
256,192,164665,1,12,1:0:0:0:
256,192,164836,1,0,1:0:0:0:
256,192,165007,1,8,1:0:0:0:
256,192,165179,1,8,1:0:0:0:
256,192,165350,1,0,1:0:0:0:
256,192,165436,1,0,1:0:0:0:
256,192,165522,1,8,1:0:0:0:
256,192,165693,1,8,1:0:0:0:
256,192,165865,1,0,1:0:0:0:
256,192,165950,1,0,1:0:0:0:
256,192,166036,1,8,1:0:0:0:
256,192,166207,1,8,1:0:0:0:
256,192,166379,1,8,1:0:0:0:
256,192,166550,1,0,1:0:0:0:
256,192,166636,1,8,1:0:0:0:
256,192,166722,1,0,1:0:0:0:
256,192,166807,1,8,1:0:0:0:
256,192,166893,1,0,1:0:0:0:
256,192,167065,1,8,1:0:0:0:
256,192,167236,1,8,1:0:0:0:
256,192,167407,1,0,1:0:0:0:
256,192,167579,1,8,1:0:0:0:
256,192,167750,1,0,1:0:0:0:
256,192,167922,1,0,1:0:0:0:
256,192,168093,1,8,1:0:0:0:
256,192,168265,1,0,1:0:0:0:
256,192,168436,1,8,1:0:0:0:
256,192,168607,1,8,1:0:0:0:
256,192,168693,1,8,1:0:0:0:
256,192,168779,1,0,1:0:0:0:
256,192,168950,1,0,1:0:0:0:
256,192,169122,1,8,1:0:0:0:
256,192,169293,1,0,1:0:0:0:
256,192,169379,1,0,1:0:0:0:
256,192,169465,1,8,1:0:0:0:
256,192,169550,1,0,1:0:0:0:
256,192,169636,1,8,1:0:0:0:
256,192,169807,1,8,1:0:0:0:
256,192,169979,1,0,1:0:0:0:
256,192,170150,1,12,1:0:0:0:
256,192,170322,1,0,1:0:0:0:
256,192,170493,1,8,1:0:0:0:
256,192,170665,1,8,1:0:0:0:
256,192,170750,1,0,1:0:0:0:
256,192,170836,1,0,1:0:0:0:
256,192,170922,1,0,1:0:0:0:
256,192,171007,1,8,1:0:0:0:
256,192,171179,1,0,1:0:0:0:
256,192,171350,1,8,1:0:0:0:
256,192,171436,1,8,1:0:0:0:
256,192,171522,1,0,1:0:0:0:
256,192,171693,1,0,1:0:0:0:
256,192,171779,1,0,1:0:0:0:
256,192,171865,1,8,1:0:0:0:
256,192,172036,1,0,1:0:0:0:
256,192,172122,1,8,1:0:0:0:
256,192,172207,1,8,1:0:0:0:
256,192,172293,1,8,1:0:0:0:
256,192,172379,1,0,1:0:0:0:
256,192,172550,1,8,1:0:0:0:
256,192,172722,1,0,1:0:0:0:
256,192,172893,1,8,1:0:0:0:
256,192,173065,1,0,1:0:0:0:
256,192,173236,1,8,1:0:0:0:
256,192,173407,1,0,1:0:0:0:
256,192,173493,1,8,1:0:0:0:
256,192,173579,1,0,1:0:0:0:
256,192,173665,1,8,1:0:0:0:
256,192,173750,1,0,1:0:0:0:
256,192,173922,1,8,1:0:0:0:
256,192,174093,1,8,1:0:0:0:
256,192,174179,1,0,1:0:0:0:
256,192,174265,1,8,1:0:0:0:
256,192,174436,1,0,1:0:0:0:
256,192,174607,1,8,1:0:0:0:
256,192,174779,1,0,1:0:0:0:
256,192,174865,1,0,1:0:0:0:
256,192,174950,1,8,1:0:0:0:
256,192,175036,1,0,1:0:0:0:
256,192,175122,1,8,1:0:0:0:
256,192,175293,1,8,1:0:0:0:
256,192,175379,1,0,1:0:0:0:
256,192,175465,1,0,1:0:0:0:
256,192,175636,1,4,1:0:0:0:
256,192,197579,5,4,1:0:0:0:
256,192,200322,12,0,202722,1:0:0:0:
256,192,203065,5,12,1:0:0:0:
256,192,203236,1,0,1:0:0:0:
256,192,203322,1,0,1:0:0:0:
256,192,203407,1,0,1:0:0:0:
256,192,203579,1,12,1:0:0:0:
256,192,203750,1,0,1:0:0:0:
256,192,203836,1,0,1:0:0:0:
256,192,203922,1,0,1:0:0:0:
256,192,204093,1,12,1:0:0:0:
256,192,205807,8,0,208207,1:0:0:0:
256,192,208550,5,12,1:0:0:0:
256,192,208722,1,0,1:0:0:0:
256,192,208807,1,0,1:0:0:0:
256,192,208893,1,8,1:0:0:0:
256,192,209065,1,12,1:0:0:0:
256,192,209236,1,0,1:0:0:0:
256,192,209322,1,0,1:0:0:0:
256,192,209407,1,8,1:0:0:0:
256,192,209579,1,12,1:0:0:0:
256,192,209750,1,0,1:0:0:0:
256,192,209922,1,12,1:0:0:0:
256,192,211293,8,0,213693,1:0:0:0:
256,192,214036,5,12,1:0:0:0:
256,192,214207,1,0,1:0:0:0:
256,192,214293,1,0,1:0:0:0:
256,192,214379,1,0,1:0:0:0:
256,192,214550,1,12,1:0:0:0:
256,192,214722,1,0,1:0:0:0:
256,192,214807,1,0,1:0:0:0:
256,192,214893,1,8,1:0:0:0:
256,192,215065,1,12,1:0:0:0:
256,192,216779,8,0,219179,1:0:0:0:
256,192,219522,5,12,1:0:0:0:
256,192,219693,1,0,1:0:0:0:
256,192,219779,1,0,1:0:0:0:
256,192,219865,1,8,1:0:0:0:
256,192,220036,1,12,1:0:0:0:
256,192,220207,1,0,1:0:0:0:
256,192,220293,1,0,1:0:0:0:
256,192,220379,1,8,1:0:0:0:
256,192,220550,1,12,1:0:0:0:
256,192,220893,1,12,1:0:0:0:
256,192,222265,8,0,224665,1:0:0:0:
256,192,225007,5,8,1:0:0:0:
256,192,225093,1,0,1:0:0:0:
256,192,225179,1,8,1:0:0:0:
256,192,225350,1,8,1:0:0:0:
256,192,225607,1,0,1:0:0:0:
256,192,225693,1,8,1:0:0:0:
256,192,225779,1,0,1:0:0:0:
256,192,226207,1,8,1:0:0:0:
256,192,226722,1,8,1:0:0:0:
256,192,226893,1,0,1:0:0:0:
256,192,226979,1,8,1:0:0:0:
256,192,227065,1,0,1:0:0:0:
256,192,227407,1,8,1:0:0:0:
256,192,227665,1,0,1:0:0:0:
256,192,227750,1,8,1:0:0:0:
256,192,228093,1,0,1:0:0:0:
256,192,228265,1,8,1:0:0:0:
256,192,228436,1,8,1:0:0:0:
256,192,228779,1,8,1:0:0:0:
256,192,229122,1,0,1:0:0:0:
256,192,229465,1,8,1:0:0:0:
256,192,229807,1,0,1:0:0:0:
256,192,230150,1,0,1:0:0:0:
256,192,230322,1,0,1:0:0:0:
256,192,230493,1,8,1:0:0:0:
256,192,230836,1,8,1:0:0:0:
256,192,231007,1,8,1:0:0:0:
256,192,231179,1,0,1:0:0:0:
256,192,231522,1,0,1:0:0:0:
256,192,231865,1,8,1:0:0:0:
256,192,232207,1,0,1:0:0:0:
256,192,232379,1,8,1:0:0:0:
256,192,232550,1,0,1:0:0:0:
256,192,232893,1,0,1:0:0:0:
256,192,233065,1,0,1:0:0:0:
256,192,233236,1,8,1:0:0:0:
256,192,233493,1,8,1:0:0:0:
256,192,233750,1,8,1:0:0:0:
256,192,234007,1,8,1:0:0:0:
256,192,234265,1,0,1:0:0:0:
256,192,234607,1,0,1:0:0:0:
256,192,234950,1,8,1:0:0:0:
256,192,235293,1,8,1:0:0:0:
256,192,235636,1,0,1:0:0:0:
256,192,235979,1,12,1:0:0:0:
256,192,236150,1,0,1:0:0:0:
256,192,236322,1,0,1:0:0:0:
256,192,236493,1,8,1:0:0:0:
256,192,236665,1,0,1:0:0:0:
256,192,237007,1,8,1:0:0:0:
256,192,237350,1,8,1:0:0:0:
256,192,237693,1,0,1:0:0:0:
256,192,238036,1,8,1:0:0:0:
256,192,238207,1,0,1:0:0:0:
256,192,238379,1,8,1:0:0:0:
256,192,238722,1,8,1:0:0:0:
256,192,239065,1,0,1:0:0:0:
256,192,239236,1,8,1:0:0:0:
256,192,239407,1,0,1:0:0:0:
256,192,239579,1,8,1:0:0:0:
256,192,239750,1,8,1:0:0:0:
256,192,240093,1,0,1:0:0:0:
256,192,240436,1,8,1:0:0:0:
256,192,240779,1,8,1:0:0:0:
256,192,240950,1,0,1:0:0:0:
256,192,241122,1,8,1:0:0:0:
256,192,241293,1,0,1:0:0:0:
256,192,241379,1,0,1:0:0:0:
256,192,241465,1,8,1:0:0:0:
256,192,241636,1,0,1:0:0:0:
256,192,241807,1,0,1:0:0:0:
256,192,241979,1,8,1:0:0:0:
256,192,242150,1,0,1:0:0:0:
256,192,242322,1,0,1:0:0:0:
256,192,242493,1,8,1:0:0:0:
256,192,242665,1,0,1:0:0:0:
256,192,242750,1,0,1:0:0:0:
256,192,242836,1,8,1:0:0:0:
256,192,243007,1,0,1:0:0:0:
256,192,243179,1,0,1:0:0:0:
256,192,243350,1,8,1:0:0:0:
256,192,243522,1,0,1:0:0:0:
256,192,243693,1,0,1:0:0:0:
256,192,243865,1,8,1:0:0:0:
256,192,244036,1,0,1:0:0:0:
256,192,244122,1,0,1:0:0:0:
256,192,244207,1,8,1:0:0:0:
256,192,244293,1,0,1:0:0:0:
256,192,244379,1,8,1:0:0:0:
256,192,244465,1,8,1:0:0:0:
256,192,244550,1,8,1:0:0:0:
256,192,244636,1,0,1:0:0:0:
256,192,244722,1,8,1:0:0:0:
256,192,244807,1,0,1:0:0:0:
256,192,244893,1,8,1:0:0:0:
256,192,244979,1,0,1:0:0:0:
256,192,245065,1,8,1:0:0:0:
256,192,245150,1,8,1:0:0:0:
256,192,245236,1,8,1:0:0:0:
256,192,245322,1,0,1:0:0:0:
256,192,245407,1,8,1:0:0:0:
256,192,245493,1,0,1:0:0:0:
256,192,245579,1,8,1:0:0:0:
256,192,245750,1,0,1:0:0:0:
256,192,245922,1,8,1:0:0:0:
256,192,246093,1,0,1:0:0:0:
256,192,246265,1,8,1:0:0:0:
256,192,246436,1,0,1:0:0:0:
256,192,246607,1,8,1:0:0:0:
256,192,246950,1,4,1:0:0:0:
256,192,247122,1,0,1:0:0:0:
256,192,247293,1,8,1:0:0:0:
256,192,247465,1,0,1:0:0:0:
256,192,247550,1,0,1:0:0:0:
256,192,247636,1,8,1:0:0:0:
256,192,247722,1,0,1:0:0:0:
256,192,247807,1,8,1:0:0:0:
256,192,247979,1,0,1:0:0:0:
256,192,248150,1,8,1:0:0:0:
256,192,248236,1,8,1:0:0:0:
256,192,248322,1,0,1:0:0:0:
256,192,248493,1,0,1:0:0:0:
256,192,248579,1,0,1:0:0:0:
256,192,248665,1,8,1:0:0:0:
256,192,248836,1,8,1:0:0:0:
256,192,248922,1,0,1:0:0:0:
256,192,249007,1,8,1:0:0:0:
256,192,249093,1,0,1:0:0:0:
256,192,249179,1,0,1:0:0:0:
256,192,249350,1,8,1:0:0:0:
256,192,249522,1,0,1:0:0:0:
256,192,249693,1,8,1:0:0:0:
256,192,249865,1,8,1:0:0:0:
256,192,250036,1,0,1:0:0:0:
256,192,250207,1,0,1:0:0:0:
256,192,250293,1,8,1:0:0:0:
256,192,250379,1,8,1:0:0:0:
256,192,250465,1,8,1:0:0:0:
256,192,250550,1,0,1:0:0:0:
256,192,250722,1,8,1:0:0:0:
256,192,250893,1,8,1:0:0:0:
256,192,250979,1,8,1:0:0:0:
256,192,251065,1,0,1:0:0:0:
256,192,251236,1,0,1:0:0:0:
256,192,251407,1,8,1:0:0:0:
256,192,251579,1,0,1:0:0:0:
256,192,251665,1,0,1:0:0:0:
256,192,251750,1,0,1:0:0:0:
256,192,251836,1,8,1:0:0:0:
256,192,251922,1,0,1:0:0:0:
256,192,252093,1,8,1:0:0:0:
256,192,252265,1,0,1:0:0:0:
256,192,252436,1,12,1:0:0:0:
256,192,252607,1,0,1:0:0:0:
256,192,252779,1,8,1:0:0:0:
256,192,252950,1,8,1:0:0:0:
256,192,253036,1,0,1:0:0:0:
256,192,253122,1,8,1:0:0:0:
256,192,253207,1,0,1:0:0:0:
256,192,253293,1,8,1:0:0:0:
256,192,253465,1,8,1:0:0:0:
256,192,253636,1,0,1:0:0:0:
256,192,253722,1,0,1:0:0:0:
256,192,253807,1,0,1:0:0:0:
256,192,253979,1,0,1:0:0:0:
256,192,254150,1,8,1:0:0:0:
256,192,254322,1,0,1:0:0:0:
256,192,254407,1,0,1:0:0:0:
256,192,254493,1,8,1:0:0:0:
256,192,254579,1,0,1:0:0:0:
256,192,254665,1,8,1:0:0:0:
256,192,254836,1,8,1:0:0:0:
256,192,255007,1,8,1:0:0:0:
256,192,255093,1,0,1:0:0:0:
256,192,255179,1,8,1:0:0:0:
256,192,255350,1,0,1:0:0:0:
256,192,255522,1,8,1:0:0:0:
256,192,255693,1,8,1:0:0:0:
256,192,255779,1,0,1:0:0:0:
256,192,255865,1,8,1:0:0:0:
256,192,255950,1,0,1:0:0:0:
256,192,256036,1,8,1:0:0:0:
256,192,256207,1,8,1:0:0:0:
256,192,256379,1,0,1:0:0:0:
256,192,256465,1,8,1:0:0:0:
256,192,256550,1,8,1:0:0:0:
256,192,256722,1,8,1:0:0:0:
256,192,256807,1,0,1:0:0:0:
256,192,256893,1,8,1:0:0:0:
256,192,257065,1,0,1:0:0:0:
256,192,257150,1,0,1:0:0:0:
256,192,257236,1,8,1:0:0:0:
256,192,257407,1,8,1:0:0:0:
256,192,257579,1,0,1:0:0:0:
256,192,257750,1,0,1:0:0:0:
256,192,257836,1,0,1:0:0:0:
256,192,257922,1,12,1:0:0:0:
256,192,258093,1,0,1:0:0:0:
256,192,258265,1,8,1:0:0:0:
256,192,258436,1,8,1:0:0:0:
256,192,258522,1,0,1:0:0:0:
256,192,258607,1,0,1:0:0:0:
256,192,258693,1,0,1:0:0:0:
256,192,258779,1,8,1:0:0:0:
256,192,258950,1,8,1:0:0:0:
256,192,259122,1,0,1:0:0:0:
256,192,259207,1,0,1:0:0:0:
256,192,259293,1,0,1:0:0:0:
256,192,259465,1,0,1:0:0:0:
256,192,259636,1,8,1:0:0:0:
256,192,259807,1,0,1:0:0:0:
256,192,259893,1,0,1:0:0:0:
256,192,259979,1,8,1:0:0:0:
256,192,260065,1,8,1:0:0:0:
256,192,260150,1,0,1:0:0:0:
256,192,260322,1,8,1:0:0:0:
256,192,260493,1,8,1:0:0:0:
256,192,260665,1,0,1:0:0:0:
256,192,260836,1,0,1:0:0:0:
256,192,261007,1,8,1:0:0:0:
256,192,261179,1,0,1:0:0:0:
256,192,261265,1,0,1:0:0:0:
256,192,261350,1,8,1:0:0:0:
256,192,261436,1,0,1:0:0:0:
256,192,261522,1,8,1:0:0:0:
256,192,261693,1,8,1:0:0:0:
256,192,261865,1,0,1:0:0:0:
256,192,261950,1,0,1:0:0:0:
256,192,262036,1,0,1:0:0:0:
256,192,262207,1,0,1:0:0:0:
256,192,262293,1,0,1:0:0:0:
256,192,262379,1,8,1:0:0:0:
256,192,262550,1,8,1:0:0:0:
256,192,262636,1,8,1:0:0:0:
256,192,262722,1,8,1:0:0:0:
256,192,262807,1,8,1:0:0:0:
256,192,262893,1,0,1:0:0:0:
256,192,263065,1,8,1:0:0:0:
256,192,263236,1,0,1:0:0:0:
256,192,263407,1,12,1:0:0:0:
256,192,263579,1,0,1:0:0:0:
256,192,263665,1,0,1:0:0:0:
256,192,263750,1,8,1:0:0:0:
256,192,263922,1,8,1:0:0:0:
256,192,264007,1,0,1:0:0:0:
256,192,264093,1,8,1:0:0:0:
256,192,264179,1,0,1:0:0:0:
256,192,264265,1,8,1:0:0:0:
256,192,264436,1,8,1:0:0:0:
256,192,264607,1,0,1:0:0:0:
256,192,264693,1,0,1:0:0:0:
256,192,264779,1,8,1:0:0:0:
256,192,264950,1,0,1:0:0:0:
256,192,265036,1,0,1:0:0:0:
256,192,265122,1,8,1:0:0:0:
256,192,265293,1,0,1:0:0:0:
256,192,265379,1,0,1:0:0:0:
256,192,265465,1,8,1:0:0:0:
256,192,265550,1,0,1:0:0:0:
256,192,265636,1,0,1:0:0:0:
256,192,265807,1,8,1:0:0:0:
256,192,265979,1,8,1:0:0:0:
256,192,266150,1,8,1:0:0:0:
256,192,266322,1,0,1:0:0:0:
256,192,266407,1,0,1:0:0:0:
256,192,266493,1,8,1:0:0:0:
256,192,266665,1,0,1:0:0:0:
256,192,266750,1,0,1:0:0:0:
256,192,266836,1,0,1:0:0:0:
256,192,266922,1,0,1:0:0:0:
256,192,267007,1,8,1:0:0:0:
256,192,267179,1,8,1:0:0:0:
256,192,267350,1,0,1:0:0:0:
256,192,267436,1,0,1:0:0:0:
256,192,267522,1,8,1:0:0:0:
256,192,267693,1,8,1:0:0:0:
256,192,267779,1,0,1:0:0:0:
256,192,267865,1,8,1:0:0:0:
256,192,268036,1,0,1:0:0:0:
256,192,268122,1,0,1:0:0:0:
256,192,268207,1,8,1:0:0:0:
256,192,268379,1,8,1:0:0:0:
256,192,268550,1,0,1:0:0:0:
256,192,268636,1,0,1:0:0:0:
256,192,268722,1,0,1:0:0:0:
256,192,268893,1,12,1:0:0:0:
256,192,269236,1,0,1:0:0:0:
256,192,269579,1,8,1:0:0:0:
256,192,269922,1,0,1:0:0:0:
256,192,270093,1,0,1:0:0:0:
256,192,270265,1,8,1:0:0:0:
256,192,270607,1,8,1:0:0:0:
256,192,270950,1,0,1:0:0:0:
256,192,271122,1,8,1:0:0:0:
256,192,271207,1,0,1:0:0:0:
256,192,271293,1,0,1:0:0:0:
256,192,271636,1,8,1:0:0:0:
256,192,271979,1,0,1:0:0:0:
256,192,272322,1,8,1:0:0:0:
256,192,272665,1,0,1:0:0:0:
256,192,272836,1,0,1:0:0:0:
256,192,273007,1,8,1:0:0:0:
256,192,273350,1,0,1:0:0:0:
256,192,273693,1,0,1:0:0:0:
256,192,273865,1,8,1:0:0:0:
256,192,273950,1,0,1:0:0:0:
256,192,274036,1,0,1:0:0:0:
256,192,274207,1,0,1:0:0:0:
256,192,274379,1,8,1:0:0:0:
256,192,274722,1,0,1:0:0:0:
256,192,275065,1,8,1:0:0:0:
256,192,275407,1,0,1:0:0:0:
256,192,275579,1,8,1:0:0:0:
256,192,275750,1,0,1:0:0:0:
256,192,276093,1,8,1:0:0:0:
256,192,276436,1,0,1:0:0:0:
256,192,276607,1,8,1:0:0:0:
256,192,276693,1,0,1:0:0:0:
256,192,276779,1,0,1:0:0:0:
256,192,277122,1,8,1:0:0:0:
256,192,277465,1,0,1:0:0:0:
256,192,277807,1,8,1:0:0:0:
256,192,278150,1,0,1:0:0:0:
256,192,278493,1,8,1:0:0:0:
256,192,278665,1,0,1:0:0:0:
256,192,278836,1,8,1:0:0:0:
256,192,279007,1,0,0:0:0:0:
256,192,279179,1,8,1:0:0:0:
256,192,279350,1,0,1:0:0:0:
256,192,279436,1,8,1:0:0:0:
256,192,279522,1,0,1:0:0:0:
256,192,279607,1,0,1:0:0:0:
256,192,279693,1,0,1:0:0:0:
256,192,279865,1,12,1:0:0:0:
256,192,280036,1,0,1:0:0:0:
256,192,280207,1,8,1:0:0:0:
256,192,280379,1,8,1:0:0:0:
256,192,280550,1,8,1:0:0:0:
256,192,280722,1,0,1:0:0:0:
256,192,280893,1,8,1:0:0:0:
256,192,281065,1,0,1:0:0:0:
256,192,281236,1,8,1:0:0:0:
256,192,281407,1,0,1:0:0:0:
256,192,281579,1,8,1:0:0:0:
256,192,281750,1,8,1:0:0:0:
256,192,281922,1,8,1:0:0:0:
256,192,282093,1,0,1:0:0:0:
256,192,282179,1,0,1:0:0:0:
256,192,282265,1,8,1:0:0:0:
256,192,282436,1,0,1:0:0:0:
256,192,282607,1,12,1:0:0:0:
256,192,282779,1,8,1:0:0:0:
256,192,282950,1,8,1:0:0:0:
256,192,283122,1,0,1:0:0:0:
256,192,283293,1,8,1:0:0:0:
256,192,283465,1,0,1:0:0:0:
256,192,283636,1,8,1:0:0:0:
256,192,283807,1,8,1:0:0:0:
256,192,283979,1,8,1:0:0:0:
256,192,284150,1,0,1:0:0:0:
256,192,284322,1,8,1:0:0:0:
256,192,284493,1,0,1:0:0:0:
256,192,284665,1,8,1:0:0:0:
256,192,284836,1,0,1:0:0:0:
256,192,284922,1,0,1:0:0:0:
256,192,285007,1,8,1:0:0:0:
256,192,285179,1,0,1:0:0:0:
256,192,285350,1,12,1:0:0:0:
256,192,285522,1,8,1:0:0:0:
256,192,285693,1,8,1:0:0:0:
256,192,285865,1,0,1:0:0:0:
256,192,286036,1,8,1:0:0:0:
256,192,286207,1,0,1:0:0:0:
256,192,286379,1,8,1:0:0:0:
256,192,286550,1,8,1:0:0:0:
256,192,286722,1,8,1:0:0:0:
256,192,286893,1,0,1:0:0:0:
256,192,287065,1,8,1:0:0:0:
256,192,287236,1,0,1:0:0:0:
256,192,287407,1,8,1:0:0:0:
256,192,287579,1,0,1:0:0:0:
256,192,287665,1,0,1:0:0:0:
256,192,287750,1,8,1:0:0:0:
256,192,287922,1,0,1:0:0:0:
256,192,288093,1,8,1:0:0:0:
256,192,288265,1,8,1:0:0:0:
256,192,288436,1,8,1:0:0:0:
256,192,288607,1,0,1:0:0:0:
256,192,288779,1,8,1:0:0:0:
256,192,288950,1,8,1:0:0:0:
256,192,289122,1,8,1:0:0:0:
256,192,289293,1,8,1:0:0:0:
256,192,289465,1,0,1:0:0:0:
256,192,289550,1,0,1:0:0:0:
256,192,289636,1,0,1:0:0:0:
256,192,289722,1,0,1:0:0:0:
256,192,289807,1,8,1:0:0:0:
256,192,289893,1,8,1:0:0:0:
256,192,289979,1,0,1:0:0:0:
256,192,290065,1,0,1:0:0:0:
256,192,290150,1,8,1:0:0:0:
256,192,290236,1,8,1:0:0:0:
256,192,290322,1,0,1:0:0:0:
256,192,290407,1,0,1:0:0:0:
256,192,290493,1,8,1:0:0:0:
256,192,290579,1,8,1:0:0:0:
256,192,290665,1,8,1:0:0:0:
256,192,290750,1,0,1:0:0:0:
256,192,290836,1,12,1:0:0:0:
256,192,291007,1,0,1:0:0:0:
256,192,291179,1,8,1:0:0:0:
256,192,291350,1,0,1:0:0:0:
256,192,291436,1,8,1:0:0:0:
256,192,291522,1,0,1:0:0:0:
256,192,291607,1,0,1:0:0:0:
256,192,291693,1,0,1:0:0:0:
256,192,291865,1,8,1:0:0:0:
256,192,292036,1,8,1:0:0:0:
256,192,292122,1,8,1:0:0:0:
256,192,292207,1,0,1:0:0:0:
256,192,292379,1,0,1:0:0:0:
256,192,292465,1,0,1:0:0:0:
256,192,292550,1,8,1:0:0:0:
256,192,292722,1,0,1:0:0:0:
256,192,292807,1,8,1:0:0:0:
256,192,292893,1,0,1:0:0:0:
256,192,292979,1,0,1:0:0:0:
256,192,293065,1,8,1:0:0:0:
256,192,293236,1,8,1:0:0:0:
256,192,293407,1,8,1:0:0:0:
256,192,293579,1,0,1:0:0:0:
256,192,293750,1,0,1:0:0:0:
256,192,293922,1,8,1:0:0:0:
256,192,294093,1,8,1:0:0:0:
256,192,294179,1,0,1:0:0:0:
256,192,294265,1,8,1:0:0:0:
256,192,294350,1,8,1:0:0:0:
256,192,294436,1,0,1:0:0:0:
256,192,294607,1,8,1:0:0:0:
256,192,294779,1,8,1:0:0:0:
256,192,294865,1,8,1:0:0:0:
256,192,294950,1,0,1:0:0:0:
256,192,295122,1,8,1:0:0:0:
256,192,295293,1,0,1:0:0:0:
256,192,295465,1,8,1:0:0:0:
256,192,295550,1,8,1:0:0:0:
256,192,295636,1,8,1:0:0:0:
256,192,295722,1,8,1:0:0:0:
256,192,295807,1,0,1:0:0:0:
256,192,295979,1,8,1:0:0:0:
256,192,296150,1,0,1:0:0:0:
256,192,296322,1,12,1:0:0:0:
256,192,296493,1,0,1:0:0:0:
256,192,296665,1,8,1:0:0:0:
256,192,296836,1,8,1:0:0:0:
256,192,297007,1,0,1:0:0:0:
256,192,297093,1,0,1:0:0:0:
256,192,297179,1,8,1:0:0:0:
256,192,297350,1,8,1:0:0:0:
256,192,297522,1,0,1:0:0:0:
256,192,297607,1,0,1:0:0:0:
256,192,297693,1,8,1:0:0:0:
256,192,297865,1,0,1:0:0:0:
256,192,298036,1,8,1:0:0:0:
256,192,298207,1,0,1:0:0:0:
256,192,298293,1,8,1:0:0:0:
256,192,298379,1,0,1:0:0:0:
256,192,298465,1,8,1:0:0:0:
256,192,298550,1,0,1:0:0:0:
256,192,298722,1,8,1:0:0:0:
256,192,298893,1,8,1:0:0:0:
256,192,299065,1,8,1:0:0:0:
256,192,299236,1,0,1:0:0:0:
256,192,299407,1,8,1:0:0:0:
256,192,299579,1,0,1:0:0:0:
256,192,299665,1,0,1:0:0:0:
256,192,299750,1,8,1:0:0:0:
256,192,299836,1,0,1:0:0:0:
256,192,299922,1,0,1:0:0:0:
256,192,300093,1,8,1:0:0:0:
256,192,300265,1,0,1:0:0:0:
256,192,300436,1,8,1:0:0:0:
256,192,300607,1,0,1:0:0:0:
256,192,300779,1,8,1:0:0:0:
256,192,300950,1,0,1:0:0:0:
256,192,301036,1,0,1:0:0:0:
256,192,301122,1,8,1:0:0:0:
256,192,301207,1,0,1:0:0:0:
256,192,301293,1,8,1:0:0:0:
256,192,301465,1,8,1:0:0:0:
256,192,301636,1,0,1:0:0:0:
256,192,301722,1,0,1:0:0:0:
256,192,301807,1,12,1:0:0:0:
256,192,301979,1,0,1:0:0:0:
256,192,302150,1,0,1:0:0:0:
256,192,302322,1,8,1:0:0:0:
256,192,302407,1,0,1:0:0:0:
256,192,302493,1,0,1:0:0:0:
256,192,302579,1,0,1:0:0:0:
256,192,302665,1,8,1:0:0:0:
256,192,302836,1,8,1:0:0:0:
256,192,303007,1,0,1:0:0:0:
256,192,303093,1,0,1:0:0:0:
256,192,303179,1,8,1:0:0:0:
256,192,303350,1,0,1:0:0:0:
256,192,303522,1,8,1:0:0:0:
256,192,303693,1,0,1:0:0:0:
256,192,303779,1,0,1:0:0:0:
256,192,303865,1,0,1:0:0:0:
256,192,303950,1,0,1:0:0:0:
256,192,304036,1,8,1:0:0:0:
256,192,304207,1,8,1:0:0:0:
256,192,304379,1,8,1:0:0:0:
256,192,304550,1,0,1:0:0:0:
256,192,304722,1,0,1:0:0:0:
256,192,304893,1,8,1:0:0:0:
256,192,305065,1,8,1:0:0:0:
256,192,305150,1,0,1:0:0:0:
256,192,305236,1,8,1:0:0:0:
256,192,305322,1,8,1:0:0:0:
256,192,305407,1,0,1:0:0:0:
256,192,305579,1,8,1:0:0:0:
256,192,305750,1,8,1:0:0:0:
256,192,305836,1,8,1:0:0:0:
256,192,305922,1,0,1:0:0:0:
256,192,306093,1,0,1:0:0:0:
256,192,306265,1,8,1:0:0:0:
256,192,306436,1,0,1:0:0:0:
256,192,306522,1,0,1:0:0:0:
256,192,306607,1,0,1:0:0:0:
256,192,306693,1,0,1:0:0:0:
256,192,306779,1,8,1:0:0:0:
256,192,306950,1,8,1:0:0:0:
256,192,307122,1,0,1:0:0:0:
256,192,307293,1,12,1:0:0:0:
256,192,307465,1,0,1:0:0:0:
256,192,307636,1,8,1:0:0:0:
256,192,307807,1,8,1:0:0:0:
256,192,307893,1,0,1:0:0:0:
256,192,307979,1,0,1:0:0:0:
256,192,308065,1,0,1:0:0:0:
256,192,308150,1,8,1:0:0:0:
256,192,308322,1,0,1:0:0:0:
256,192,308493,1,0,1:0:0:0:
256,192,308579,1,0,1:0:0:0:
256,192,308665,1,8,1:0:0:0:
256,192,308836,1,8,1:0:0:0:
256,192,308922,1,8,1:0:0:0:
256,192,309007,1,0,1:0:0:0:
256,192,309179,1,0,1:0:0:0:
256,192,309265,1,8,1:0:0:0:
256,192,309350,1,8,1:0:0:0:
256,192,309436,1,0,1:0:0:0:
256,192,309522,1,8,1:0:0:0:
256,192,309693,1,8,1:0:0:0:
256,192,309865,1,0,1:0:0:0:
256,192,310036,1,0,1:0:0:0:
256,192,310207,1,8,1:0:0:0:
256,192,310379,1,8,1:0:0:0:
256,192,310550,1,0,1:0:0:0:
256,192,310636,1,0,1:0:0:0:
256,192,310722,1,8,1:0:0:0:
256,192,310807,1,8,1:0:0:0:
256,192,310893,1,0,1:0:0:0:
256,192,311065,1,8,1:0:0:0:
256,192,311236,1,0,1:0:0:0:
256,192,311322,1,0,1:0:0:0:
256,192,311407,1,8,1:0:0:0:
256,192,311579,1,0,1:0:0:0:
256,192,311750,1,8,1:0:0:0:
256,192,311922,1,0,1:0:0:0:
256,192,312007,1,0,1:0:0:0:
256,192,312093,1,8,1:0:0:0:
256,192,312265,1,8,1:0:0:0:
256,192,312436,1,8,1:0:0:0:
256,192,312522,1,0,1:0:0:0:
256,192,312607,1,0,1:0:0:0:
256,192,312779,1,12,1:0:0:0:
256,192,312950,1,0,1:0:0:0:
256,192,313036,1,8,1:0:0:0:
256,192,313122,1,8,1:0:0:0:
256,192,313293,1,12,1:0:0:0:
256,192,313465,1,0,1:0:0:0:
256,192,313550,1,8,1:0:0:0:
256,192,313636,1,8,1:0:0:0:
256,192,313807,1,12,1:0:0:0:
