osu file format v14

[General]
AudioFilename: audio.mp3
AudioLeadIn: 0
PreviewTime: 22662
Countdown: 1
SampleSet: Soft
StackLeniency: 0.7
Mode: 0
LetterboxInBreaks: 0
WidescreenStoryboard: 0

[Editor]
Bookmarks: 19062,96173,101640
DistanceSpacing: 1.1
BeatDivisor: 4
GridSize: 32
TimelineZoom: 0.7

[Metadata]
Title:Alpha
TitleUnicode:Alpha
Artist:C418
ArtistUnicode:C418
Creator:Yenmaster
Version:Tranquil
Source:Minecraft
Tags:
BeatmapID:2112774
BeatmapSetID:1009229

[Difficulty]
HPDrainRate:4
CircleSize:4
OverallDifficulty:4
ApproachRate:6
SliderMultiplier:1
SliderTickRate:1

[Events]
//Background and Video events
0,0,"Alpha-bg.png",0,0
//Break Periods
2,96373,100590
2,180135,186756
//Storyboard Layer 0 (Background)
//Storyboard Layer 1 (Fail)
//Storyboard Layer 2 (Pass)
//Storyboard Layer 3 (Foreground)
//Storyboard Layer 4 (Overlay)
//Storyboard Sound Samples

[TimingPoints]
279,810.810810810811,4,2,2,24,1,0
3522,-100,4,2,2,5,0,0
5684,-133.333333333333,4,2,1,20,0,0
20907,810.810810810811,4,2,1,20,1,0
22662,789.473684210526,4,2,1,20,1,0
24504,598.205383848455,3,2,1,20,1,0
49628,583.260425780111,6,2,1,20,1,0
53127,596.658711217184,3,2,1,20,1,0
71044,595.238095238095,3,2,1,20,1,0
74002,579.710144927536,3,2,1,22,1,0
74584,599.700149925038,3,2,1,15,1,0
81750,-100,3,2,1,7,0,0
83545,-100,3,2,1,5,0,0
84741,-100,3,2,1,5,0,0
86727,-133.333333333333,3,2,1,5,0,0
91125,-222.222222222221,3,2,1,5,0,0
101640,599.700149925038,3,2,1,5,1,0
101640,-99.7008973080758,3,2,1,5,0,0
102238,598.802395209581,3,2,1,5,1,0
104034,579.710144927536,3,2,1,15,1,0
105773,597.014925373134,3,2,1,30,1,0
129653,645.161290322581,3,2,1,30,1,0
130943,600,3,2,1,30,1,0
131443,697.674418604651,3,2,1,30,1,0
132743,600,3,2,1,30,1,0
136319,597.014925373134,3,2,1,30,1,0
141721,597.014925373134,3,2,1,30,1,0
156646,681.818181818182,3,2,1,30,1,0
156646,-90.9090909090909,3,2,1,30,0,0
158009,631.578947368421,3,2,1,30,1,0
159272,582.52427184466,3,2,1,30,1,0
159858,-100,3,2,1,20,0,0
165971,-100,3,2,2,5,0,0
166907,618.556701030928,3,2,1,7,1,0
168762,659.340659340659,3,2,1,7,1,0
170080,631.578947368421,3,2,1,5,1,0
170711,652.173913043478,3,2,1,7,1,0
172015,705.882352941176,3,2,1,7,1,0
172720,659.340659340659,3,2,1,7,1,0
174038,645.161290322581,3,2,1,7,1,0
174683,659.340659340659,3,2,1,7,1,0
177979,652.173913043478,3,2,1,7,1,0
177979,-200,3,2,1,7,0,0
179935,655.952771400459,4,2,1,7,1,0
190430,631.578947368421,4,2,1,7,1,0

[Colours]
Combo1 : 222,0,227
Combo2 : 255,0,51
Combo3 : 255,102,0
Combo4 : 244,226,0
Combo5 : 128,242,0
Combo6 : 0,230,138
Combo7 : 0,71,236
Combo8 : 96,0,255

[HitObjects]
256,192,76,12,0,3522,0:0:0:0:
168,66,5684,5,0,0:0:0:0:
328,322,10008,5,0,0:0:0:0:
392,226,13657,5,0,0:0:0:0:
296,66,15481,5,0,0:0:0:0:
232,226,17306,5,2,0:0:0:0:
200,98,19062,5,0,0:0:0:0:
104,290,20907,5,2,0:0:0:0:
232,322,22662,6,0,P|268:329|306:330,2,75
122,270,24504,6,0,L|17:253,2,100,2|0|0,0:0|0:0|0:0,0:0:0:0:
223,227,26298,2,0,L|328:210,2,100,2|0|0,0:0|0:0|0:0,0:0:0:0:
120,186,28093,6,0,P|101:140|101:88,2,100,2|0|0,0:0|0:0|0:0,0:0:0:0:
215,240,29887,2,0,P|234:286|234:338,2,100,2|0|0,0:0|0:0|0:0,0:0:0:0:
110,204,31682,6,0,B|82:211|53:199|63:192|35:179|9:187,2,100,2|0|0,0:0|0:0|0:0,0:0:0:0:
218,187,33477,2,0,B|229:160|221:130|212:139|204:109|215:85,2,100,2|0|0,0:0|0:0|0:0,0:0:0:0:
171,286,35271,6,0,P|219:298|268:292,1,100,2|0,0:0|0:0,0:0:0:0:
369,249,36468,1,0,0:0:0:0:
433,159,37066,2,0,P|431:109|410:63,2,100,2|0|0,0:0|0:0|0:0,0:0:0:0:
369,249,38860,6,0,L|355:348,2,100
363,204,40356,1,2,0:0:0:0:
363,204,40655,2,0,P|318:181|269:172,1,100,2|0,0:0|0:0,0:0:0:0:
179,177,41851,1,0,0:0:0:0:
89,186,42450,6,0,L|57:91,2,100,2|0|0,0:0|0:0|0:0,0:0:0:0:
139,284,44244,1,2,0:0:0:0:
227,335,44842,2,0,P|275:347|324:341,1,100
378,272,46039,6,0,P|427:274|474:257,2,100,2|0|0,0:0|0:0|0:0,0:0:0:0:
269,252,47834,1,2,0:0:0:0:
161,227,48432,2,0,P|111:224|64:241,1,100
126,332,49628,5,4,0:1:0:0:
126,332,53127,6,0,P|181:342|227:334,1,100,2|0,0:0|0:0,0:0:0:0:
308,304,54320,1,0,0:0:0:0:
364,234,54916,2,0,L|359:132,1,100,2|0,0:0|0:0,0:0:0:0:
329,49,56110,1,0,0:0:0:0:
245,15,56706,6,0,P|190:5|144:13,1,100,2|0,0:0|0:0,0:0:0:0:
70,59,57900,1,0,0:0:0:0:
19,133,58496,2,0,L|23:232,1,100,2|0,0:0|0:0,0:0:0:0:
55,316,59690,1,0,0:0:0:0:
136,355,60286,6,0,P|194:363|243:354,1,100,2|0,0:0|0:0,0:0:0:0:
317,321,61480,1,0,0:0:0:0:
364,244,62076,2,0,L|393:146,2,100,2|0|0,0:0|0:0|0:0,0:0:0:0:
299,307,63867,6,0,P|249:313|200:305,1,100,2|0,0:0|0:0,0:0:0:0:
119,266,65060,1,0,0:0:0:0:
65,193,65657,1,2,0:0:0:0:
326,126,67447,6,0,L|344:21,2,100,2|0|0,0:0|0:0|0:0,0:0:0:0:
307,214,69237,2,0,P|351:236|400:240,2,100,2|0|0,0:0|0:0|0:0,0:0:0:0:
246,152,71044,1,2,0:0:0:0:
167,108,71639,1,0,0:0:0:0:
77,105,72234,1,0,0:0:0:0:
0,150,72829,2,0,P|1:199|6:249,1,100,2|0,0:0|0:0,0:0:0:0:
68,314,74002,5,2,0:0:0:0:
154,338,74584,2,0,P|204:341|258:329,2,100,2|0|0,0:0|0:0|0:0,0:0:0:0:
73,298,76383,2,0,B|85:271|75:238|69:250|61:223|74:188,1,100,2|0,0:0|0:0,0:0:0:0:
107,116,77582,1,0,0:0:0:0:
185,71,78182,5,2,0:0:0:0:
274,65,78781,1,0,0:0:0:0:
362,80,79381,1,0,0:0:0:0:
444,116,79981,2,0,P|452:165|447:214,1,100,2|0,0:0|0:0,0:0:0:0:
407,296,81180,1,0,0:0:0:0:
329,338,81780,6,0,P|290:350|226:342,2,100
399,282,83579,2,0,L|399:166,2,100
223,140,86727,6,0,P|218:191|224:213,1,75.0000028610231
280,267,88127,2,0,B|303:260|345:269|330:276|363:283|400:274,2,118.750004529953
197,229,91125,2,0,L|201:139,1,89.9999972534181
256,192,92575,12,0,96173,0:0:0:0:
138,82,101640,6,0,B|192:69|247:80|232:89|290:102|342:85,1,200
420,59,103435,1,0,0:0:0:0:
427,147,104034,6,0,P|425:204|410:257,1,100,2|0,0:0|0:0,0:0:0:0:
375,327,105193,1,0,0:0:0:0:
292,352,105773,2,0,P|242:357|192:353,1,100,2|0,0:0|0:0,0:0:0:0:
106,328,106967,1,0,0:0:0:0:
63,248,107564,5,2,0:0:0:0:
84,160,108161,2,0,L|103:60,1,100
176,9,109355,2,0,P|225:3|275:7,2,100,2|0|0,0:0|0:0|0:0,0:0:0:0:
100,59,111146,6,0,P|88:107|93:156,1,100,2|0,0:0|0:0,0:0:0:0:
124,241,112340,1,0,0:0:0:0:
202,284,112937,2,0,L|175:383,2,100,2|0|0,0:0|0:0|0:0,0:0:0:0:
249,207,114728,6,0,P|242:157|250:108,2,100,2|0|0,0:0|0:0|0:0,0:0:0:0:
286,288,116519,1,0,0:0:0:0:
357,342,117116,2,0,L|462:324,1,100,2|0,0:0|0:0,0:0:0:0:
508,252,118310,5,2,0:0:0:0:
482,165,118907,2,0,P|462:119|430:81,1,100
351,36,120101,1,2,0:0:0:0:
318,119,120698,2,0,L|306:218,1,100
302,308,121892,6,0,L|401:300,2,100,2|0|0,0:0|0:0|0:0,0:0:0:0:
215,334,123683,1,2,0:0:0:0:
140,282,124280,2,0,P|107:243|88:197,1,100
72,109,125474,5,2,0:0:0:0:
129,40,126071,2,0,P|178:28|231:36,1,100
313,61,127265,1,2,0:0:0:0:
388,110,127862,2,0,L|392:213,1,100
413,297,129056,5,2,0:0:0:0:
343,353,129653,2,0,L|241:358,2,100,0|0|2,0:0|0:0|0:0,0:0:0:0:
421,308,131443,2,0,P|432:252|427:207,1,100
404,122,132743,5,2,0:0:0:0:
326,76,133343,2,0,P|285:57|224:52,1,100
141,42,134543,2,0,L|41:11,2,100,2|0|0,0:0|0:0|0:0,0:0:0:0:
220,84,136319,6,0,L|215:183,1,100,2|0,0:0|0:0,0:0:0:0:
202,272,137513,2,0,P|253:285|315:274,1,100,0|2,0:0|0:0,0:0:0:0:
381,241,138707,1,0,0:0:0:0:
450,184,139304,1,0,0:0:0:0:
447,94,139901,6,0,P|417:44|380:26,1,100,2|0,0:0|0:0,0:0:0:0:
291,14,141095,1,0,0:0:0:0:
197,24,141721,2,0,L|177:141,1,100,2|0,0:0|0:0,0:0:0:0:
161,210,142914,1,0,0:0:0:0:
202,289,143511,6,0,P|281:314|308:315,1,100,2|0,0:0|0:0,0:0:0:0:
386,301,144705,1,0,0:0:0:0:
450,238,145303,2,0,L|458:132,2,100,2|2|2,0:0|0:0|0:0,0:0:0:0:
386,301,147093,5,2,0:0:0:0:
302,335,147690,2,0,P|252:340|204:327,1,100,2|2,0:0|0:0,0:0:0:0:
123,286,148885,2,0,L|132:177,1,100,2|0,0:0|0:0,0:0:0:0:
145,97,150079,1,2,0:0:0:0:
219,46,150676,6,0,P|268:36|317:45,2,100,2|0|2,0:0|0:0|0:0,0:0:0:0:
147,101,152467,2,0,L|135:200,1,100,2|0,0:0|0:0,0:0:0:0:
123,286,153661,1,2,0:0:0:0:
200,332,154258,6,0,P|269:343|322:333,1,100,2|0,0:0|0:0,0:0:0:0:
383,308,155452,1,0,0:0:0:0:
417,224,156049,1,2,0:0:0:0:
433,135,156646,2,0,L|326:113,1,110.000003356934,0|2,0:0|0:0,0:0:0:0:
234,144,158009,6,0,L|216:245,2,100,2|0|0,0:0|0:0|0:0,0:0:0:0:
252,55,159854,1,2,0:0:0:0:
256,192,160437,12,0,166262,0:0:0:0:
172,69,166907,101,0,0:0:0:0:
223,154,168144,2,0,P|296:163|334:147,1,100
393,81,170080,6,0,P|397:130|393:188,1,100,2|0,0:0|0:0,0:0:0:0:
352,271,172015,1,2,0:0:0:0:
345,180,172720,1,0,0:0:0:0:
191,79,174038,6,0,P|187:153|196:178,1,100,0|2,0:0|0:0,0:0:0:0:
326,53,176001,1,0,0:0:0:0:
306,140,176661,1,2,0:0:0:0:
203,96,177979,6,0,B|187:141|199:172|200:156|215:197|196:245,1,150,2|4,0:0|0:0,0:0:0:0:
256,192,187806,12,0,189774,0:0:0:0:
172,246,190430,70,0,L|261:251,1,75,2|0,0:0|0:0,0:0:0:0:
269,250,191061,2,0,L|290:194,1,50
309,116,192008,1,0,0:0:0:0:
309,116,192324,2,0,P|281:120|247:115,1,50
188,93,192956,6,0,L|187:174,1,75,2|0,0:0|0:0,0:0:0:0:
189,190,193587,1,0,0:0:0:0:
217,260,193903,2,0,P|254:267|324:249,1,100
