osu file format v14

[General]
AudioFilename: 04 The Beat.mp3
AudioLeadIn: 0
PreviewTime: 21843
Countdown: 1
SampleSet: Normal
StackLeniency: 0.7
Mode: 0
LetterboxInBreaks: 1
WidescreenStoryboard: 0

[Editor]
Bookmarks: 2359,22307,42101,61895,71792,91586,101483,121276,143544,163338,185606,205400
DistanceSpacing: 1.2
BeatDivisor: 8
GridSize: 8
TimelineZoom: 1.6

[Metadata]
Title:The Beat
TitleUnicode:The Beat
Artist:C2C
ArtistUnicode:C2C
Creator:ThePal
Version:Insane
Source:
Tags:Down The Road
BeatmapID:494241
BeatmapSetID:210043

[Difficulty]
HPDrainRate:7
CircleSize:4
OverallDifficulty:8
ApproachRate:9
SliderMultiplier:3.59999990463257
SliderTickRate:2

[Events]
//Background and Video events
0,0,"BG.jpg",0,0
//Break Periods
2,61895,70555
2,91786,95934
2,121276,129955
//Storyboard Layer 0 (Background)
//Storyboard Layer 1 (Fail)
//Storyboard Layer 2 (Pass)
//Storyboard Layer 3 (Foreground)
//Storyboard Layer 4 (Overlay)
//Storyboard Sound Samples

[TimingPoints]
2514,618.556701030928,4,1,0,65,1,0
130555,-200,4,1,0,65,0,0
131173,-100,4,1,0,65,0,0
141534,-133.333333333333,4,1,0,65,0,0
142153,-200,4,1,0,65,0,0
142926,-100,4,1,0,65,0,0
143544,-100,4,1,0,65,0,1
162101,-90.9090909090909,4,1,0,65,0,1
162720,-76.9230769230769,4,1,0,65,0,1
163338,-100,4,1,0,65,0,0
174627,-133.333333333333,4,1,0,65,0,0
175555,-100,4,1,0,65,0,0

[Colours]
Combo1 : 214,105,184
Combo2 : 121,219,177
Combo3 : 202,159,32
Combo4 : 165,191,241

[HitObjects]
112,152,2359,5,0,0:0:0:0:
176,88,2514,2,0,P|208:112|264:128,1,89.9999976158143,4|0,0:1|0:0,0:0:0:0:
369,54,2823,1,0,0:0:0:0:
376,188,2977,1,0,0:0:0:0:
255,127,3132,2,0,L|278:213,2,89.9999976158143,8|0|0,0:0|0:0|0:0,0:0:0:0:
297,283,3596,6,0,P|203:298|121:268,1,179.999995231629,8|0,0:0|0:0,0:0:0:0:
111,142,4060,2,0,B|155:166|198:149,1,89.9999976158143
54,213,4369,1,8,0:0:0:0:
75,56,4524,2,0,B|123:40|162:65,1,89.9999976158143
247,37,4833,6,0,B|267:171|267:171|286:176|311:176,1,179.999995231629,8|0,0:0|0:0,0:0:0:0:
383,61,5297,1,0,0:0:0:0:
311,176,5452,1,0,0:0:0:0:
397,150,5606,2,0,P|441:162|472:193,1,89.9999976158143,8|0,0:0|0:0,0:0:0:0:
390,334,5916,2,0,P|346:322|315:291,1,89.9999976158143,0|8,0:0|0:0,0:0:0:0:
71,178,6379,5,0,0:0:0:0:
93,265,6534,2,0,P|134:241|155:204,1,89.9999976158143
55,89,6843,2,0,P|99:91|137:116,2,89.9999976158143,8|0|0,0:0|0:0|0:0,0:0:0:0:
180,37,7307,5,0,0:0:0:0:
305,89,7462,2,0,L|334:175,1,89.9999976158143,4|0,0:0|0:0,0:0:0:0:
248,203,7771,2,0,L|219:289,1,89.9999976158143
291,343,8081,2,0,P|337:325|378:328,2,89.9999976158143,8|0|0,0:0|0:0|0:0,0:0:0:0:
309,255,8544,6,0,P|387:190|412:115,1,179.999995231629,8|0,0:0|0:0,0:0:0:0:
466,46,9008,1,0,0:0:0:0:
333,72,9163,1,0,0:0:0:0:
422,173,9318,2,0,P|450:130|484:111,2,89.9999976158143,8|0|0,0:0|0:0|0:0,0:0:0:0:
372,248,9782,6,0,P|269:247|200:278,1,179.999995231629,8|0,0:0|0:0,0:0:0:0:
273,329,10245,1,0,0:0:0:0:
363,334,10400,1,0,0:0:0:0:
200,277,10555,2,0,B|161:256|161:256|116:250,1,89.9999976158143,8|0,0:0|0:0,0:0:0:0:
255,165,10864,2,0,B|294:186|294:186|339:192,1,89.9999976158143,0|8,0:0|0:0,0:0:0:0:
98,70,11328,5,0,0:0:0:0:
184,42,11483,1,0,0:0:0:0:
250,102,11637,1,0,0:0:0:0:
164,130,11792,1,8,0:0:0:0:
79,158,11946,1,0,0:0:0:0:
145,218,12101,1,0,0:0:0:0:
165,130,12256,1,0,0:0:0:0:
231,190,12410,6,0,B|265:221|265:221|283:237|305:236,1,89.9999976158143,4|0,0:0|0:0,0:0:0:0:
410,113,12720,2,0,B|366:126|366:126|343:134|333:154,1,89.9999976158143,0|0,0:0|0:0,0:0:0:0:
386,306,13029,2,0,B|395:261|395:261|400:237|388:218,2,89.9999976158143,8|0|0,0:0|0:0|0:0,0:0:0:0:
235,332,13493,6,0,B|168:322|152:308|152:308|160:277|149:253|149:253|126:255|112:261,1,179.999995231629,8|0,0:0|0:0,0:0:0:0:
71,340,13957,1,0,0:0:0:0:
53,207,14111,1,0,0:0:0:0:
133,98,14266,2,0,L|144:141,1,44.9999988079071,8|0,0:0|2:0,0:0:0:0:
166,102,14421,2,0,L|197:133,1,44.9999988079071,0|0,0:0|2:0,0:0:0:0:
202,89,14575,2,0,P|245:73|289:74,1,89.9999976158143,0|8,0:0|0:0,0:0:0:0:
471,273,15039,5,0,0:0:0:0:
388,237,15194,1,0,0:0:0:0:
299,252,15349,1,0,0:0:0:0:
237,316,15503,1,8,0:0:0:0:
212,229,15658,1,0,0:0:0:0:
143,170,15812,2,0,P|119:212|85:240,1,89.9999976158143,0|8,0:0|0:0,0:0:0:0:
362,102,16276,6,0,L|292:161,1,89.9999976158143
280,328,16586,2,0,L|263:238,1,89.9999976158143,0|8,0:0|0:0,0:0:0:0:
125,144,16895,2,0,L|209:174,1,89.9999976158143
336,220,17204,1,0,0:0:0:0:
416,328,17359,6,0,B|410:266|410:266|406:225|436:202,1,134.999996423721,4|0,0:1|2:0,0:0:0:0:
406,167,17668,2,0,B|450:123|450:123|479:94|471:57,1,134.999996423721,2|0,0:2|2:0,0:0:0:0:
432,34,17977,2,0,P|408:36|387:42,1,44.9999988079071,2|0,0:2|2:0,0:0:0:0:
358,76,18132,2,0,P|337:113|253:118,1,134.999996423721,2|0,0:2|2:0,0:0:0:0:
232,76,18441,6,0,B|258:102|250:142|250:142|237:203,1,89.9999976158143,2|0,0:2|2:0,0:0:0:0:
196,183,18751,2,0,L|155:159,1,44.9999988079071,2|0,0:2|2:0,0:0:0:0:
118,136,18905,2,0,P|112:187|40:218,1,134.999996423721,2|0,0:2|2:0,0:0:0:0:
33,263,19215,2,0,P|57:274|72:288,1,44.9999988079071,2|0,0:2|2:0,0:0:0:0:
93,325,19369,2,0,B|112:310|136:310|153:325|153:325|172:339|196:339|218:325,1,134.999996423721,2|0,0:2|2:0,0:0:0:0:
191,284,19678,6,0,P|218:326|301:329,1,134.999996423721,2|0,0:2|2:0,0:0:0:0:
334,302,19988,2,0,L|371:326,1,44.9999988079071,2|0,0:2|2:0,0:0:0:0:
408,352,20142,2,0,P|402:298|428:220,1,134.999996423721,2|0,0:2|2:0,0:0:0:0:
426,176,20452,2,0,P|415:153|399:139,1,44.9999988079071,2|0,0:2|2:0,0:0:0:0:
360,120,20606,2,0,P|342:74|406:39,1,134.999996423721,2|0,0:2|2:0,0:0:0:0:
440,70,20916,5,2,0:2:0:0:
213,193,21225,2,0,B|226:182|242:182|253:193|253:193|267:202|283:202|298:193,3,89.9999976158143,8|8|8|8,0:0|0:0|0:0|0:0,0:0:0:0:
233,304,21843,1,2,0:0:0:0:
140,350,21998,1,0,0:0:0:0:
72,272,22153,2,2,B|104:248|144:248|144:248|120:192|144:136|144:136|104:136|72:112,1,269.999992847443,6|2,0:0|0:0,0:0:0:0:
208,82,22771,1,0,0:0:0:0:
342,116,22926,2,0,P|365:98|379:80,2,44.9999988079071,8|2|0,0:0|2:0|0:0,0:0:0:0:
299,36,23235,1,0,0:0:0:0:
342,116,23390,6,0,B|383:196|383:196|404:235|456:244,1,179.999995231629,8|0,0:0|0:0,0:0:0:0:
388,303,23854,1,0,0:0:0:0:
456,244,24008,1,0,0:0:0:0:
452,71,24163,2,0,P|472:111|477:156,1,89.9999976158143,8|0,0:0|0:0,0:0:0:0:
315,133,24472,2,0,P|296:93|291:49,1,89.9999976158143,0|0,0:0|0:0,2:0:0:0:
452,71,24782,6,0,P|472:111|477:156,1,89.9999976158143,2|0,0:2|0:0,0:0:0:0:
364,53,25091,1,2,0:0:0:0:
394,137,25245,1,0,0:0:0:0:
399,227,25400,2,0,P|354:232|312:253,1,89.9999976158143,8|2,0:0|0:0,0:0:0:0:
311,341,25709,1,0,0:0:0:0:
221,335,25864,2,0,P|216:290|195:248,1,89.9999976158143,8|2,0:0|0:0,0:0:0:0:
107,247,26173,1,0,0:0:0:0:
113,157,26328,2,0,P|157:152|199:131,1,89.9999976158143,0|2,0:0|0:0,0:0:0:0:
201,43,26637,1,8,0:0:0:0:
272,80,26791,5,2,0:0:0:0:
360,80,26946,1,0,0:0:0:0:
440,40,27100,2,2,B|470:97|425:171|363:169|363:169|330:168|305:193|307:226,1,269.999992847443,2|2,0:0|0:0,0:0:0:0:
459,323,27874,2,0,L|451:279,1,44.9999988079071,8|0,0:0|2:0,0:0:0:0:
426,315,28029,2,0,L|397:281,1,44.9999988079071,0|0,0:0|2:0,0:0:0:0:
389,325,28183,2,0,L|301:292,1,89.9999976158143,0|8,0:0|0:0,0:0:0:0:
78,164,28648,2,0,B|125:169|125:169|150:171|165:160,1,89.9999976158143
317,55,28957,2,0,B|269:50|269:50|245:48|230:59,1,89.9999976158143,0|8,0:0|0:0,0:0:0:0:
256,192,29266,5,2,0:0:0:0:
229,59,29421,1,0,0:0:0:0:
96,40,29575,2,2,B|123:127|123:127|137:171|110:209|110:209|57:284,1,269.999992847443
283,325,30349,1,8,0:0:0:0:
256,192,30503,1,2,0:0:0:0:
283,325,30658,1,0,0:0:0:0:
416,344,30812,2,2,B|388:256|388:256|374:212|401:174|401:174|454:99,1,269.999992847443,10|2,0:0|0:0,0:0:0:0:
186,52,31586,1,8,0:0:0:0:
96,58,31740,6,2,P|113:104|143:131,1,89.9999976158143,2|0,0:0|0:0,0:0:0:0:
233,130,32050,2,2,B|234:192|171:239|105:214|105:214|66:296,1,269.999992847443
282,272,32823,2,0,B|244:290|244:290|223:299|213:324,1,89.9999976158143,8|0,0:0|0:0,0:0:0:0:
347,338,33132,1,0,0:0:0:0:
465,272,33287,2,0,L|446:184,1,89.9999976158143,8|0,0:0|0:0,0:0:0:0:
424,96,33596,1,0,0:0:0:0:
348,46,33751,1,2,0:2:0:0:
326,55,33828,1,2,0:2:0:0:
305,63,33905,1,0,0:2:0:0:
218,38,34060,2,0,B|217:66|217:66|196:68|176:78|164:93,1,89.9999976158143,8|0,0:0|0:0,0:0:0:0:
284,225,34369,2,0,B|226:157,1,89.9999976158143
348,291,34678,6,0,B|336:306|316:316|295:318|295:318|294:346,2,89.9999976158143,0|0|0,0:0|0:0|0:0,0:0:0:0:
437,280,35142,1,0,0:0:0:0:
337,202,35297,1,8,0:0:0:0:
426,190,35452,6,0,B|412:138|371:121|371:121|328:104|328:104|307:95|301:74,1,179.999995231629,0|8,0:0|0:0,0:0:0:0:
211,74,35916,2,0,B|205:95|183:104|183:104|140:121|140:121|99:138|86:190,1,179.999995231629,0|0,0:0|0:0,0:0:0:0:
128,272,36379,2,0,L|211:238,1,89.9999976158143,0|8,0:0|0:0,0:0:0:0:
384,272,36689,6,2,L|301:238,1,89.9999976158143,2|0,0:0|0:0,0:0:0:0:
210,146,36998,2,2,P|255:48|300:147,1,269.999992847443
134,334,37771,1,8,0:0:0:0:
165,212,37926,1,0,0:0:0:0:
43,245,38081,1,0,0:0:0:0:
134,334,38235,2,0,B|164:212|164:212|216:196,1,179.999995231629,8|0,0:0|0:0,0:0:0:0:
237,189,38622,1,2,0:2:0:0:
258,182,38699,1,2,0:2:0:0:
279,175,38776,1,2,0:2:0:0:
300,168,38854,1,2,0:2:0:0:
385,140,39008,1,8,0:0:0:0:
391,229,39163,6,0,P|372:270|341:301,2,89.9999976158143,0|2|0,0:0|0:0|0:0,0:0:0:0:
170,81,39627,2,0,P|137:112|119:153,1,89.9999976158143,2|0,0:0|0:0,0:0:0:0:
256,192,39936,1,2,0:0:0:0:
256,192,40091,1,0,0:0:0:0:
400,120,40245,2,2,B|333:135|269:113|269:113|223:126,1,179.999995231629,10|0,0:0|0:0,0:0:0:0:
112,264,40709,2,0,B|179:249|243:271|243:271|289:258,2,179.999995231629,10|0|0,0:0|0:0|0:0,0:0:0:0:
256,192,41483,1,8,0:0:0:0:
144,48,42101,6,0,B|181:78|181:78|199:93|201:116,1,89.9999976158143,2|0,0:2|2:0,0:0:0:0:
368,48,42410,2,0,B|330:78|330:78|313:93|311:116,1,89.9999976158143,2|0,0:2|2:0,0:0:0:0:
256,219,42720,1,8,0:0:0:0:
331,267,42874,2,0,P|256:308|178:267,1,179.999995231629,0|8,0:0|0:0,0:0:0:0:
256,70,43493,1,2,0:2:0:0:
256,93,43570,1,2,0:2:0:0:
256,115,43648,1,2,0:2:0:0:
328,168,43802,2,0,L|299:253,1,89.9999976158143,2|8,0:2|0:0,0:0:0:0:
212,253,44111,2,0,L|184:168,2,89.9999976158143,2|2|2,0:2|0:2|0:2,0:0:0:0:
199,342,44575,6,0,B|153:328|153:328|131:320|120:300,1,89.9999976158143,0|0,0:0|2:0,0:0:0:0:
313,342,44885,2,0,B|358:328|358:328|380:320|391:300,1,89.9999976158143,0|0,0:0|2:0,0:0:0:0:
405,212,45194,1,8,0:0:0:0:
414,122,45349,2,0,P|369:128|334:156,1,89.9999976158143
301,238,45658,1,8,0:0:0:0:
211,238,45812,1,0,0:0:0:0:
256,70,45967,1,2,0:2:0:0:
256,93,46044,1,2,0:2:0:0:
256,115,46122,1,2,0:2:0:0:
177,154,46276,1,2,0:2:0:0:
107,212,46431,2,0,B|128:236|156:246|188:244|188:244|197:289,2,134.999996423721,8|2|2,0:0|0:2|0:2,0:0:0:0:
177,154,47050,6,0,P|219:129|221:92,1,89.9999976158143
335,230,47359,2,0,P|292:254|290:291,1,89.9999976158143
379,303,47668,1,8,0:0:0:0:
472,205,47823,1,0,0:0:0:0:
341,173,47977,1,0,0:0:0:0:
379,303,48132,1,8,0:0:0:0:
309,42,48441,5,2,0:2:0:0:
314,64,48519,1,2,0:2:0:0:
319,85,48596,1,2,0:2:0:0:
181,150,48751,2,0,B|221:130|221:130|248:88,2,89.9999976158143,2|8|2,0:2|0:0|0:2,0:0:0:0:
105,37,49215,2,0,B|65:57|65:57|38:98,1,89.9999976158143,0|2,0:0|0:2,0:0:0:0:
181,150,49524,5,0,0:0:0:0:
144,231,49678,1,0,0:0:0:0:
89,158,49833,1,0,0:0:0:0:
233,222,49988,2,0,P|262:188|270:144,2,89.9999976158143,0|8|0,0:0|0:0|0:0,0:0:0:0:
460,76,50606,2,0,L|376:107,1,89.9999976158143,8|0,0:0|0:0,0:0:0:0:
384,197,50916,1,0,0:0:0:0:
210,233,51070,1,0,0:0:0:0:
302,233,51225,1,0,0:0:0:0:
128,197,51379,2,0,B|144:184|153:162|153:162|170:118,1,89.9999976158143,8|0,0:0|2:0,0:0:0:0:
341,118,51689,2,0,B|358:162|358:162|367:184|384:197,1,89.9999976158143,0|0,0:0|2:0,0:0:0:0:
471,213,51998,6,0,P|447:257|414:278,1,89.9999976158143
256,336,52307,1,0,0:0:0:0:
97,277,52462,2,0,P|61:252|41:213,2,89.9999976158143,0|8|0,0:0|0:0|0:0,0:0:0:0:
256,192,53081,1,8,0:0:0:0:
163,37,53390,2,0,P|187:87|190:120,1,89.9999976158143
349,347,53854,2,0,P|325:297|322:264,1,89.9999976158143,8|0,0:0|0:0,0:0:0:0:
41,170,54472,6,0,P|65:127|98:106,1,89.9999976158143
256,48,54781,1,0,0:0:0:0:
415,107,54936,2,0,P|451:131|471:171,2,89.9999976158143,0|8|0,0:0|0:0|0:0,0:0:0:0:
160,168,55555,1,8,0:0:0:0:
352,168,55864,1,0,0:0:0:0:
436,201,56019,2,0,P|441:181|441:157,2,44.9999988079071,2|2|2,0:2|0:2|0:2,0:0:0:0:
352,168,56328,1,8,0:0:0:0:
267,135,56483,1,0,0:0:0:0:
183,102,56637,1,0,0:0:0:0:
98,69,56792,1,0,0:0:0:0:
127,172,56946,6,0,P|167:193|210:197,1,89.9999976158143
384,211,57256,2,0,P|345:190|301:186,1,89.9999976158143
285,99,57565,2,0,P|374:104|451:150,1,179.999995231629,8|0,0:0|0:0,0:0:0:0:
226,284,58029,2,0,P|137:279|61:233,2,179.999995231629,8|0|0,0:0|0:0|0:0,0:0:0:0:
256,192,58802,1,8,0:0:0:0:
285,99,58957,1,2,0:2:0:0:
307,96,59034,1,2,0:2:0:0:
330,96,59111,1,2,0:2:0:0:
352,99,59188,1,2,0:2:0:0:
374,104,59266,1,2,0:2:0:0:
451,150,59421,5,0,0:0:0:0:
61,233,59730,1,0,0:0:0:0:
296,320,60039,1,8,0:0:0:0:
216,64,60348,1,0,2:0:0:0:
292,112,60503,2,0,B|288:163|256:192|256:192|223:220|219:271,2,179.999995231629,8|0|0,0:0|0:0|0:0,0:0:0:0:
219,271,61276,1,8,0:0:0:0:
206,113,71792,5,0,0:0:0:0:
228,110,71869,1,0,0:0:0:0:
250,105,71946,1,0,0:0:0:0:
271,98,72023,1,0,0:0:0:0:
292,89,72101,2,0,P|313:76|330:62,3,44.9999988079071,0|0|0|0,0:0|0:0|0:0|0:0,0:0:0:0:
345,48,72410,1,12,0:0:0:0:
429,81,72565,5,0,0:0:0:0:
396,165,72720,2,0,P|413:209|418:251,1,89.9999976158143,2|2,0:2|0:0,0:0:0:0:
329,266,73029,1,0,0:0:0:0:
251,220,73184,2,0,P|234:176|229:134,1,89.9999976158143,2|2,0:2|0:0,0:0:0:0:
160,75,73493,2,0,P|196:49|240:44,2,89.9999976158143,0|8|0,0:0|0:0|0:0,0:0:0:0:
116,159,73957,1,0,0:0:0:0:
118,253,74111,1,0,0:0:0:0:
166,335,74266,5,0,0:0:0:0:
180,317,74343,1,0,0:0:0:0:
196,302,74421,1,0,0:0:0:0:
214,288,74498,1,0,0:0:0:0:
233,276,74575,2,0,P|253:267|275:260,3,44.9999988079071,0|0|0|0,0:0|0:0|0:0|0:0,0:0:0:0:
297,255,74885,1,12,0:0:0:0:
397,206,75039,6,0,P|394:158|378:119,1,89.9999976158143
270,51,75349,2,2,P|222:54|183:70,1,89.9999976158143,2|0,0:0|0:0,0:0:0:0:
115,178,75658,2,0,P|118:226|134:265,1,89.9999976158143,0|0,0:0|0:0,0:0:0:0:
242,333,75967,2,0,P|290:330|329:314,2,89.9999976158143,0|8|0,0:0|0:0|0:0,0:0:0:0:
256,192,76431,1,2,0:2:0:0:
456,48,76740,5,0,0:0:0:0:
445,67,76817,1,0,0:0:0:0:
436,88,76894,1,0,0:0:0:0:
429,109,76971,1,0,0:0:0:0:
424,131,77049,1,0,0:0:0:0:
423,154,77126,1,0,0:0:0:0:
424,176,77203,1,0,0:0:0:0:
426,198,77281,1,0,0:0:0:0:
433,220,77358,1,12,0:0:0:0:
357,269,77513,5,0,0:0:0:0:
269,245,77668,2,0,P|238:215|193:205,1,89.9999976158143,2|2,0:2|0:0,0:0:0:0:
103,207,77977,1,0,0:0:0:0:
153,281,78132,2,0,P|183:250|193:205,1,89.9999976158143,2|2,0:2|0:0,0:0:0:0:
146,128,78441,1,0,0:0:0:0:
103,207,78596,2,0,P|70:177|56:133,2,89.9999976158143,8|0|0,0:0|0:0|0:0,0:0:0:0:
146,128,79060,1,0,0:0:0:0:
230,96,79215,5,0,0:0:0:0:
253,99,79292,1,0,0:0:0:0:
275,99,79369,1,0,0:0:0:0:
297,97,79446,1,0,0:0:0:0:
319,92,79524,1,0,0:0:0:0:
341,86,79601,1,0,0:0:0:0:
363,83,79678,1,0,0:0:0:0:
385,88,79756,1,0,0:0:0:0:
404,101,79833,1,12,0:0:0:0:
341,169,79988,2,0,B|323:187|273:175|256:192,1,89.9999976158143,2|0,0:2|0:0,0:0:0:0:
169,217,80297,1,2,0:2:0:0:
108,283,80452,5,0,0:0:0:0:
126,296,80529,1,0,0:0:0:0:
149,300,80607,1,0,0:0:0:0:
170,298,80684,1,0,0:0:0:0:
193,292,80761,1,0,0:0:0:0:
215,286,80839,1,0,0:0:0:0:
237,284,80916,1,0,0:0:0:0:
259,285,80993,1,0,0:0:0:0:
281,288,81070,1,12,0:0:0:0:
366,258,81225,2,0,P|414:282|438:314,2,89.9999976158143
297,200,81689,5,0,0:0:0:0:
262,117,81843,1,0,0:0:0:0:
128,96,81998,1,0,0:0:0:0:
163,179,82152,1,0,0:0:0:0:
262,117,82307,2,0,B|301:95|301:95|322:84|344:86,1,89.9999976158143,10|0,0:0|0:0,0:0:0:0:
413,144,82617,5,0,0:0:0:0:
373,224,82771,1,0,0:0:0:0:
413,144,82926,1,0,0:0:0:0:
373,224,83080,1,0,0:0:0:0:
288,256,83235,2,0,B|249:234|249:234|228:223|206:225,1,89.9999976158143,2|0,0:0|0:0,0:0:0:0:
138,285,83544,5,8,0:0:0:0:
90,208,83699,1,0,0:0:0:0:
164,57,83854,1,0,0:0:0:0:
99,118,84008,1,0,0:0:0:0:
184,145,84163,2,0,P|225:123|249:86,2,89.9999976158143,2|0|0,0:0|0:0|0:0,0:0:0:0:
164,57,84627,1,0,0:0:0:0:
317,42,84782,6,0,B|353:58|353:58|377:69|387:93,1,89.9999976158143,8|0,0:0|0:0,0:0:0:0:
333,217,85091,2,0,P|379:220|419:205,1,89.9999976158143,0|2,0:0|0:2,0:0:0:0:
306,130,85400,2,0,P|266:154|245:193,2,89.9999976158143,0|0|0,0:0|0:0|0:0,0:0:0:0:
346,258,85864,2,0,P|323:296|285:319,1,89.9999976158143,0|8,0:0|0:0,0:0:0:0:
150,309,86173,1,0,0:0:0:0:
83,190,86328,1,0,0:0:0:0:
133,64,86483,1,0,0:0:0:0:
261,102,86637,6,0,P|225:129|181:138,1,89.9999976158143
337,150,86946,2,0,P|350:107|342:64,2,89.9999976158143,0|0|10,0:0|0:0|0:0,0:0:0:0:
335,240,87410,1,0,0:0:0:0:
386,314,87565,5,0,0:0:0:0:
296,321,87720,1,0,0:0:0:0:
386,314,87874,1,0,0:0:0:0:
296,321,88029,1,0,0:0:0:0:
185,242,88184,2,0,B|203:281|203:281|212:299|205:327,1,89.9999976158143,2|0,0:0|0:0,0:0:0:0:
104,211,88493,2,0,B|97:239|106:257|106:257|124:296,2,89.9999976158143,8|0|0,0:0|0:0|0:0,0:0:0:0:
175,155,88957,1,0,0:0:0:0:
406,231,89266,6,0,L|319:256,1,89.9999976158143
232,279,89575,1,2,0:2:0:0:
256,192,89730,1,8,2:1:0:0:
280,105,89885,1,2,0:2:0:0:
106,153,90194,2,0,L|193:128,1,89.9999976158143
280,105,90503,1,2,0:2:0:0:
256,192,90658,1,0,2:0:0:0:
232,279,90813,1,2,0:2:0:0:
280,105,91122,5,0,0:0:0:0:
319,256,91276,1,0,0:0:0:0:
168,214,91431,1,2,0:2:0:0:
256,192,91586,1,6,0:0:0:0:
256,192,96534,12,0,98854,2:0:0:0:
256,192,99008,12,4,100245,0:0:0:0:
256,192,100864,5,8,0:0:0:0:
194,258,101019,1,2,0:0:0:0:
230,105,101174,1,0,0:0:0:0:
343,213,101328,2,2,B|329:282|238:305|193:256|193:256|139:313,1,269.999992847443
115,226,101946,2,0,L|84:194,1,44.9999988079071,0|0,0:0|2:0,0:0:0:0:
127,182,102101,2,0,L|109:141,1,44.9999988079071,8|0,0:0|2:0,0:0:0:0:
153,144,102256,2,0,L|149:98,1,44.9999988079071,0|0,0:0|2:0,0:0:0:0:
189,118,102410,2,0,B|227:96|227:96|249:84|255:61,2,89.9999976158143,0|8|0,0:0|0:0|0:0,0:0:0:0:
225,239,102874,5,0,0:0:0:0:
305,278,103029,1,0,0:0:0:0:
406,246,103184,1,0,0:0:0:0:
399,268,103261,1,0,0:0:0:0:
393,290,103338,1,8,0:0:0:0:
432,160,103493,2,0,B|401:127|401:127|390:81,2,89.9999976158143,0|0|0,0:0|0:0|0:0,0:0:0:0:
390,83,103957,6,0,B|326:105|326:105|312:123,1,89.9999976158143
256,192,104266,1,2,0:0:0:0:
147,57,104421,2,0,B|169:122|169:122|187:136,1,89.9999976158143,0|8,0:0|0:0,0:0:0:0:
256,192,104730,1,2,0:0:0:0:
121,300,104885,2,0,B|186:279|186:279|200:261,1,89.9999976158143,0|8,0:0|0:0,0:0:0:0:
256,192,105194,1,2,0:0:0:0:
364,326,105349,2,0,B|343:262|343:262|325:248,1,89.9999976158143
256,192,105658,1,2,0:0:0:0:
278,104,105812,2,0,P|318:125|341:163,1,89.9999976158143,8|2,0:0|0:0,0:0:0:0:
256,192,106122,5,0,0:0:0:0:
186,132,106276,2,2,P|190:255|312:260,1,269.999992847443
440,100,107050,2,0,L|446:56,2,44.9999988079071,8|2|2,0:0|2:0|0:2,0:0:0:0:
426,189,107359,1,2,0:2:0:0:
413,278,107514,1,8,0:0:0:0:
266,321,107668,2,0,L|278:232,1,89.9999976158143,0|2,0:0|1:2,0:0:0:0:
150,147,107977,2,0,L|137:235,2,89.9999976158143,0|2|8,0:0|0:2|0:0,0:0:0:0:
56,264,108441,5,2,0:0:0:0:
164,327,108596,1,0,0:0:0:0:
280,277,108751,2,2,B|314:186|314:186|325:158|348:140|376:137,2,179.999995231629,2|2|0,0:0|0:0|0:0,0:0:0:0:
465,245,109524,1,8,0:0:0:0:
456,120,109678,1,2,0:0:0:0:
348,57,109833,1,0,0:0:0:0:
232,107,109988,2,2,B|198:198|198:198|187:226|164:244|136:247,1,179.999995231629,10|2,0:0|0:0,0:0:0:0:
46,256,110452,2,0,P|53:211|80:176,1,89.9999976158143
213,159,110761,1,8,0:0:0:0:
139,108,110916,2,0,L|66:54,1,89.9999976158143,2|0,0:0|0:0,0:0:0:0:
213,159,111225,6,2,B|261:192|310:219|377:233|377:233|363:206|363:169|377:147,1,269.999992847443
456,191,111843,1,0,0:0:0:0:
450,101,111998,2,0,P|407:114|377:147,2,89.9999976158143,8|2|0,0:0|0:0|0:0,0:0:0:0:
456,191,112462,6,0,B|377:233|377:233|389:252|406:267,1,134.999996423721,10|0,0:0|2:0,0:0:0:0:
427,276,112771,2,0,L|413:318,1,44.9999988079071,2|0,0:2|2:0,0:0:0:0:
407,340,112926,2,0,B|363:331|330:334|330:334|320:327,1,89.9999976158143,0|0,0:0|0:0,0:0:0:0:
319,326,113235,1,8,0:0:0:0:
271,210,113390,1,2,0:0:0:0:
170,134,113544,1,0,0:0:0:0:
46,107,113699,2,0,B|54:80|76:60|105:55|105:55|201:39,1,179.999995231629,2|0,0:0|0:0,0:0:0:0:
343,119,114163,6,0,P|341:43|274:78,1,179.999995231629,0|8,0:0|0:0,0:0:0:0:
274,304,114627,2,0,P|341:339|344:264,1,179.999995231629,0|8,0:0|0:0,0:0:0:0:
149,152,115091,2,0,P|85:192|148:232,1,179.999995231629
256,192,115555,1,0,0:0:0:0:
345,192,115709,2,0,L|436:192,2,89.9999976158143,8|2|0,0:0|0:0|0:0,0:0:0:0:
299,114,116173,6,2,B|203:96|203:96|173:90|152:70|144:43,1,179.999995231629,2|0,0:0|0:0,0:0:0:0:
75,101,116637,2,2,P|62:148|61:189,1,89.9999976158143,2|0,0:0|0:0,0:0:0:0:
85,275,116946,1,8,0:0:0:0:
150,212,117101,2,0,P|190:191|233:181,1,89.9999976158143,0|0,0:0|0:0,0:0:0:0:
323,189,117410,1,8,0:0:0:0:
162,335,117720,2,0,L|149:291,2,44.9999988079071,2|2|0,0:2|0:2|0:0,0:0:0:0:
285,309,118029,1,2,0:2:0:0:
323,189,118184,1,8,0:0:0:0:
251,85,118338,2,0,B|222:91|222:91|193:88|193:88|163:95,2,89.9999976158143,0|2|0,0:0|0:0|0:0,0:0:0:0:
385,158,118802,6,0,B|298:178,1,89.9999976158143,2|0,0:0|0:0,0:0:0:0:
222,312,119111,2,0,B|253:306|253:306|277:289|277:289|306:283,1,89.9999976158143,2|0,0:0|0:0,0:0:0:0:
170,208,119421,2,2,B|120:161|120:161|88:129|114:78|156:89,1,179.999995231629,10|0,0:0|0:0,0:0:0:0:
259,199,119885,2,0,B|297:141|297:141|321:103|284:59|245:79,2,179.999995231629,10|0|0,0:0|0:0|0:0,0:0:0:0:
222,281,120658,1,8,0:0:0:0:
80,112,130555,6,0,P|149:80|207:74,1,134.999996423721,8|2,0:0|0:2,0:0:0:0:
297,83,131173,5,6,0:0:0:0:
417,45,131328,1,0,0:0:0:0:
389,168,131483,1,0,0:0:0:0:
123,216,131792,1,8,0:0:0:0:
215,301,131947,1,0,0:0:0:0:
95,338,132102,1,0,0:0:0:0:
123,216,132256,1,8,0:0:0:0:
215,301,132410,6,0,P|219:244|210:213,1,89.9999976158143,0|8,0:0|0:0,0:0:0:0:
297,83,132720,2,0,P|293:140|302:171,2,89.9999976158143,0|0|8,0:0|0:0|0:0,0:0:0:0:
417,45,133184,1,0,0:0:0:0:
389,168,133339,1,0,0:0:0:0:
311,266,133493,1,2,0:2:0:0:
194,314,133648,6,0,B|176:270|176:270|167:250|145:240,1,89.9999976158143,6|0,0:0|0:0,0:0:0:0:
60,212,133957,1,0,0:0:0:0:
317,70,134266,2,0,B|335:113|335:113|344:133|366:143,1,89.9999976158143,8|0,0:0|0:0,0:0:0:0:
452,172,134575,1,0,0:0:0:0:
387,235,134730,1,8,0:0:0:0:
301,206,134885,5,0,0:0:0:0:
365,143,135039,1,8,0:0:0:0:
211,178,135194,1,0,0:0:0:0:
147,241,135348,1,0,0:0:0:0:
125,149,135503,1,8,0:0:0:0:
211,178,135658,2,0,B|221:154|224:130|221:103|221:103|233:94,2,89.9999976158143,0|0|2,0:0|0:0|0:2,0:0:0:0:
301,205,136122,6,0,B|291:230|288:254|291:281|291:281|279:290,2,89.9999976158143,6|0|0,0:0|0:0|0:0,0:0:0:0:
301,205,136740,1,8,0:0:0:0:
382,167,136895,2,0,P|350:130|310:116,1,89.9999976158143
130,217,137204,2,0,P|162:254|202:268,1,89.9999976158143,8|0,0:0|0:0,0:0:0:0:
211,178,137514,5,8,0:0:0:0:
137,127,137668,1,0,0:0:0:0:
130,217,137823,1,0,0:0:0:0:
211,179,137977,2,0,B|276:148|276:148|293:153,1,89.9999976158143,8|0,0:0|0:0,0:0:0:0:
204,267,138287,2,0,B|269:236|269:236|286:240,1,89.9999976158143,0|2,0:0|0:2,0:0:0:0:
124,306,138596,5,6,0:0:0:0:
256,336,138751,1,0,0:0:0:0:
388,306,138905,1,0,0:0:0:0:
256,56,139215,1,8,0:0:0:0:
306,130,139369,2,0,B|323:106|353:110|353:110|423:121|423:121|453:126|470:102,2,179.999995231629,0|8|8,0:0|0:0|0:0,0:0:0:0:
222,186,140142,2,0,L|176:178,1,44.9999988079071,0|0,0:0|2:0,0:0:0:0:
268,223,140297,2,0,L|284:267,1,44.9999988079071,0|0,0:0|2:0,0:0:0:0:
277,165,140452,2,0,L|307:129,1,44.9999988079071,8|0,0:0|2:0,0:0:0:0:
49,46,140916,5,0,2:0:0:0:
138,55,141070,2,0,L|331:76,1,179.999995231629,2|0,2:2|2:0,2:0:0:0:
154,126,141534,5,0,2:0:0:0:
220,132,141688,2,0,L|365:148,1,135.000001573563,2|0,2:2|2:2,2:0:0:0:
261,207,142153,5,0,2:0:0:0:
305,211,142307,2,0,L|401:221,2,89.9999976158143,2|0|8,2:2|2:0|0:0,2:0:0:0:
62,331,143235,5,2,0:0:0:0:
99,201,143390,1,2,0:2:0:0:
193,297,143544,2,0,P|239:305|282:296,2,89.9999976158143,2|0|2,0:0|0:0|0:2,0:0:0:0:
303,218,144008,2,0,B|325:224|344:240|354:262|354:262|392:245|426:242|462:251,1,179.999995231629,10|2,0:0|0:2,0:2:0:0:
411,176,144472,1,2,0:0:0:0:
402,319,144627,1,0,0:0:0:0:
340,149,144782,2,0,P|311:110|189:90,2,179.999995231629,2|2|10,0:0|0:2|0:0,0:0:0:0:
118,302,145709,5,2,0:0:0:0:
191,222,145864,2,0,B|177:236|177:236|160:220|139:212|114:212|114:212|112:168|112:168|111:151|104:135|94:126,1,179.999995231629,2|2,0:0|0:2,0:0:0:0:
140,48,146328,1,2,0:0:0:0:
302,115,146483,1,0,0:0:0:0:
214,99,146637,1,10,0:0:0:0:
389,93,146792,2,0,B|398:145|375:183|328:201|328:201|336:222|352:238,1,179.999995231629,2|2,0:2|0:0,0:0:0:0:
465,343,147256,2,0,L|454:251,1,89.9999976158143,2|0,0:0|0:0,0:0:0:0:
465,343,147565,2,0,L|424:260,1,89.9999976158143,2|0,0:0|0:0,0:0:0:0:
465,343,147874,2,0,L|398:279,2,89.9999976158143,10|2|0,0:0|0:2|0:0,0:0:0:0:
357,351,148338,1,0,0:0:0:0:
256,310,148493,6,0,P|244:286|231:271,1,44.9999988079071,2|0,0:0|2:0,0:0:0:0:
206,249,148648,2,0,B|219:221|244:205|277:201|277:201|368:188,1,179.999995231629,2|0,0:0|0:0,0:0:0:0:
455,175,149111,2,0,P|437:133|402:106,1,89.9999976158143,10|0,0:0|0:0,0:0:0:0:
366,188,149421,1,2,0:2:0:0:
420,259,149575,1,0,0:0:0:0:
390,81,149730,2,0,B|381:64|359:56|359:56|313:42,1,89.9999976158143,2|0,0:0|2:0,0:0:0:0:
213,120,150039,2,0,P|255:131|298:120,1,89.9999976158143,2|0,0:0|0:0,0:0:0:0:
199,42,150349,2,0,B|153:56|153:56|131:64|121:81,1,89.9999976158143,10|0,0:0|2:0,0:0:0:0:
83,211,150658,1,2,0:0:0:0:
46,340,150812,1,2,0:2:0:0:
177,308,150967,6,0,B|192:290|213:281|213:281|193:249|195:214|219:184|256:176,1,179.999995231629,2|0,0:0|0:0,0:0:0:0:
335,308,151431,2,0,B|319:290|298:281|298:281|318:249|316:214|292:184|256:176,2,179.999995231629,10|2|2,0:0|0:0|0:2,0:0:0:0:
415,268,152204,1,2,0:0:0:0:
256,48,152514,1,2,0:0:0:0:
97,268,152823,1,10,0:0:0:0:
256,192,153132,5,2,0:0:0:0:
256,282,153287,1,2,0:2:0:0:
178,147,153441,1,6,0:0:0:0:
333,147,153596,1,0,0:0:0:0:
256,192,153751,1,2,0:2:0:0:
173,74,153905,2,2,P|255:46|340:74,1,179.999995231629,2|0,0:0|0:0,0:0:0:0:
394,146,154369,1,2,0:0:0:0:
302,301,154524,1,0,0:0:0:0:
377,252,154678,2,0,B|365:232|343:217|319:212|319:212|257:198,1,134.999996423721,2|0,0:0|2:0,0:0:0:0:
244,154,154988,2,0,B|222:213|222:213|214:237|197:257|175:266,1,134.999996423721,2|0,0:2|2:0,0:0:0:0:
132,274,155297,2,0,P|112:233|80:204,1,89.9999976158143,10|0,0:0|0:0,0:0:0:0:
114,73,155606,5,2,0:0:0:0:
114,73,155761,2,0,B|133:50|162:58|162:58|231:76|231:76|260:84|280:62,1,179.999995231629,2|2,0:0|0:2,0:0:0:0:
409,123,156225,1,2,0:0:0:0:
265,150,156379,1,0,0:0:0:0:
347,188,156534,1,10,0:0:0:0:
369,43,156689,2,0,B|410:124|410:124|426:153|465:157|486:132,1,179.999995231629,0|2,0:0|0:0,0:0:0:0:
476,42,157153,1,2,0:0:0:0:
345,328,157462,1,2,0:0:0:0:
162,71,157771,2,0,B|114:68|114:68|92:67|76:85,1,89.9999976158143,10|2,0:0|0:2,0:0:0:0:
163,201,158081,2,0,B|211:203|211:203|233:205|249:187,1,89.9999976158143,0|2,0:0|0:2,0:0:0:0:
256,42,158390,5,2,0:0:0:0:
256,42,158544,1,2,0:0:0:0:
256,342,158854,1,0,0:0:0:0:
256,342,159008,1,10,0:0:0:0:
256,160,159318,1,0,0:0:0:0:
334,119,159472,1,0,0:0:0:0:
332,208,159627,2,0,P|256:250|180:208,2,179.999995231629,2|2|10,0:0|0:0|0:0,0:0:0:0:
178,119,160555,5,2,0:0:0:0:
334,119,160709,1,0,0:0:0:0:
400,57,160864,2,0,P|362:34|318:31,1,89.9999976158143,2|0,0:0|0:0,0:0:0:0:
256,96,161173,1,0,0:0:0:0:
112,57,161328,2,0,P|150:34|194:31,1,89.9999976158143,2|8,0:0|0:0,0:0:0:0:
256,96,161637,2,2,L|256:280,1,179.999995231629,2|0,0:0|0:0,0:0:0:0:
424,216,162101,2,0,B|404:226|380:232|352:231|352:231|334:246,1,99.0000003986359,2|0,0:0|0:0,0:0:0:0:
88,216,162410,2,0,B|108:226|132:232|160:231|160:231|178:246,1,99.0000003986359,2|0,0:0|0:0,0:0:0:0:
256,96,162720,2,0,B|264:100|264:100|247:100|247:100|256:104|256:104|256:186,1,116.999991544724,10|0,0:0|0:0,0:0:0:0:
184,310,163184,5,2,0:2:0:0:
328,310,163338,1,2,0:0:0:0:
42,40,163957,1,8,0:0:0:0:
56,146,164111,1,0,0:0:0:0:
77,140,164188,1,0,0:0:0:0:
98,132,164266,1,0,0:0:0:0:
189,73,164421,1,8,0:0:0:0:
196,180,164575,6,0,L|153:193,1,44.9999988079071,0|0,0:0|2:0,0:0:0:0:
232,217,164730,2,0,L|214:259,1,44.9999988079071,2|0,0:2|2:0,0:0:0:0:
280,217,164885,2,0,L|298:259,1,44.9999988079071,2|0,0:2|2:0,0:0:0:0:
316,180,165039,2,0,L|359:193,1,44.9999988079071,2|0,0:2|2:0,0:0:0:0:
256,159,165194,1,10,0:0:0:0:
256,159,165812,5,0,0:0:0:0:
353,111,165967,2,0,L|393:92,2,44.9999988079071,2|0|2,0:2|0:0|0:0,0:0:0:0:
157,205,166276,2,0,L|117:224,2,44.9999988079071,2|0|0,0:2|0:0|0:0,0:0:0:0:
355,205,166586,2,0,L|395:224,2,44.9999988079071,2|0|2,0:2|0:0|0:0,0:0:0:0:
159,111,166895,2,0,L|119:92,1,44.9999988079071,2|0,0:2|0:0,0:0:0:0:
97,81,167050,1,0,0:2:0:0:
79,95,167127,1,0,0:2:0:0:
65,113,167204,1,0,0:2:0:0:
56,133,167281,1,0,0:2:0:0:
50,155,167359,1,2,0:2:0:0:
50,177,167436,1,2,0:2:0:0:
54,199,167513,1,2,0:2:0:0:
63,220,167591,1,2,0:2:0:0:
76,238,167668,1,10,0:0:0:0:
374,264,168132,5,2,0:2:0:0:
374,120,168286,1,2,0:0:0:0:
204,64,168596,1,0,0:0:0:0:
210,85,168673,1,0,0:0:0:0:
216,106,168751,1,0,0:0:0:0:
222,127,168828,1,0,0:0:0:0:
228,148,168905,2,0,P|199:186|190:226,1,89.9999976158143,10|0,0:0|0:0,0:0:0:0:
214,313,169215,6,0,L|251:340,1,44.9999988079071,2|0,0:2|2:0,0:0:0:0:
257,295,169369,2,0,L|294:322,1,44.9999988079071,2|0,0:2|2:0,0:0:0:0:
298,276,169524,2,0,B|328:265|328:265|357:272|357:272|383:263,1,89.9999976158143
426,247,169756,2,0,L|466:268,2,44.9999988079071,2|0|0,0:2|0:0|0:0,0:0:0:0:
406,235,169988,1,0,0:0:0:0:
386,223,170065,1,0,0:0:0:0:
366,211,170142,1,10,0:0:0:0:
186,63,170452,6,0,B|143:75|143:75|128:79|115:86|104:97,3,89.9999976158143,0|8|0|0,0:0|0:0|0:0|0:0,0:0:0:0:
74,130,171070,1,8,0:0:0:0:
326,144,171225,2,0,B|369:156|369:156|384:160|397:167|408:178,1,89.9999976158143
438,211,171534,1,8,0:0:0:0:
186,223,171689,2,0,B|143:235|143:235|128:239|115:246|104:257,1,89.9999976158143
74,290,171998,1,8,0:0:0:0:
326,299,172153,2,0,B|369:311|369:311|384:315|397:322|408:333,2,89.9999976158143,0|0|2,0:0|0:0|0:2,0:0:0:0:
281,289,172617,1,10,0:0:0:0:
194,266,172771,2,0,B|151:254|151:254|136:249|123:243|112:232,2,89.9999976158143,0|2|2,0:0|0:2|0:2,0:0:0:0:
166,180,173235,6,0,P|124:158|83:162,1,89.9999976158143,2|0,0:0|2:0,0:0:0:0:
317,118,173699,1,2,0:2:0:0:
345,204,173854,2,0,P|388:225|428:222,1,89.9999976158143,10|0,0:0|2:0,0:0:0:0:
166,180,174318,1,0,0:0:0:0:
311,120,174472,1,2,0:0:0:0:
290,275,174627,2,0,P|223:295|178:340,1,135.000001573563,2|8,0:0|0:0,0:0:0:0:
431,83,175555,6,0,L|410:42,1,44.9999988079071,2|2,0:2|0:2,0:0:0:0:
431,83,175709,2,0,P|416:133|416:170,1,89.9999976158143,2|0,0:0|0:0,0:0:0:0:
311,296,176019,2,0,P|267:308|222:307,1,89.9999976158143,2|0,0:0|0:0,0:0:0:0:
134,290,176328,1,8,0:0:0:0:
75,221,176483,2,0,L|30:229,2,44.9999988079071,2|2|0,0:2|0:2|0:0,0:0:0:0:
191,193,176792,1,8,0:0:0:0:
107,99,176946,1,0,0:0:0:0:
214,30,177101,1,2,0:2:0:0:
221,51,177178,1,2,0:2:0:0:
230,73,177256,1,2,0:2:0:0:
337,137,177410,1,2,0:2:0:0:
344,116,177487,1,2,0:2:0:0:
353,94,177565,1,10,0:0:0:0:
431,192,177720,6,0,L|465:164,1,44.9999988079071,2|0,0:2|2:0,0:0:0:0:
431,192,177874,2,0,P|418:236|419:280,2,89.9999976158143,0|0|2,0:0|0:0|0:0,0:0:0:0:
272,277,178493,2,0,P|240:273|212:272,5,59.9999984105428,0|0|0|0|0|0,2:0|2:0|2:0|2:0|2:0|2:0,2:0:0:0:
212,272,179111,1,2,0:0:0:0:
105,126,179421,2,2,P|128:128|148:129,2,44.9999988079071,2|2|2,2:0|2:0|2:0,2:0:0:0:
136,41,179730,1,0,0:0:0:0:
256,80,179885,1,0,0:0:0:0:
376,41,180039,1,10,0:0:0:0:
442,208,180349,1,0,0:0:0:0:
426,224,180426,1,0,0:0:0:0:
413,242,180503,1,0,0:0:0:0:
403,262,180581,1,0,0:0:0:0:
398,283,180658,6,0,B|393:299|390:317|390:317|362:315|336:321,1,89.9999976158143,2|0,0:2|0:0,0:0:0:0:
306,235,180967,2,0,P|298:216|284:197,2,44.9999988079071
335,321,181276,1,8,0:0:0:0:
246,302,181431,1,0,0:0:0:0:
76,257,181586,2,0,P|119:268|155:296,1,89.9999976158143
206,221,181895,2,2,L|215:193,6,29.9999992052714,2|2|2|2|2|2|2,1:2|2:2|2:2|2:2|2:2|2:2|2:2,2:2:0:0:
257,48,182514,1,8,0:0:0:0:
256,192,182668,12,8,184988,0:0:0:0:
142,208,185142,6,0,P|129:251|99:291,1,89.9999976158143,2|0,0:0|0:0,0:0:0:0:
225,255,185452,2,2,B|230:228|243:199|263:176|263:176|354:152,1,179.999995231629,2|0,0:0|0:0,0:0:0:0:
473,120,185916,1,2,0:0:0:0:
403,224,186070,1,0,0:0:0:0:
278,242,186225,6,0,P|284:263|294:283,1,44.9999988079071,8|0,0:0|2:0,0:0:0:0:
256,246,186379,2,0,L|256:306,1,44.9999988079071,0|0,0:0|2:0,0:0:0:0:
234,242,186534,2,0,P|227:263|217:283,1,44.9999988079071,2|0,0:2|2:0,0:0:0:0:
201,186,186689,2,0,P|180:181|157:179,1,44.9999988079071,0|0,0:2|2:0,0:0:0:0:
209,165,186843,2,0,L|157:135,1,44.9999988079071,0|0,0:0|2:0,0:0:0:0:
223,147,186998,2,0,P|208:131|196:113,1,44.9999988079071,2|0,0:2|2:0,0:0:0:0:
288,147,187153,2,0,P|303:131|315:113,1,44.9999988079071,0|0,0:2|2:0,0:0:0:0:
302,165,187307,2,0,L|354:135,1,44.9999988079071,0|0,0:0|2:0,0:0:0:0:
310,186,187462,2,0,P|354:180|399:181,2,89.9999976158143,8|0|0,0:0|2:0|0:0,0:0:0:0:
201,186,187926,2,0,P|158:180|113:181,2,89.9999976158143,0|0|0,0:0|2:0|0:0,0:0:0:0:
256,114,188390,6,0,B|260:86|268:63|268:63|279:40|256:15|233:40|244:63|244:63|252:86|256:114,1,179.999995231629,2|8,0:0|0:0,0:0:0:0:
188,231,188854,2,0,B|162:241|138:246|138:246|112:248|102:280|135:287|150:266|150:266|166:248|188:231,1,179.999995231629,2|0,0:0|0:0,0:0:0:0:
323,231,189318,2,0,B|345:248|361:266|361:266|376:287|409:280|399:248|373:246|373:246|349:241|323:231,1,179.999995231629,2|0,0:0|0:0,0:0:0:0:
306,141,189782,2,0,B|318:118|341:113|341:113|389:104,1,89.9999976158143,0|8,0:0|0:0,0:0:0:0:
206,141,190091,2,0,B|194:118|171:113|171:113|123:104,1,89.9999976158143,2|0,0:0|0:0,0:0:0:0:
37,102,190400,6,2,B|82:179|82:179|96:203|123:220|161:213,1,179.999995231629,2|0,0:0|0:0,0:0:0:0:
249,221,190864,2,0,P|229:269|198:293,1,89.9999976158143,2|0,0:0|0:0,0:0:0:0:
284,324,191173,2,0,P|355:300|400:266,1,89.9999976158143
387,281,191405,1,2,0:2:0:0:
405,267,191483,1,2,0:2:0:0:
323,228,191637,2,0,P|248:217|198:193,1,89.9999976158143
214,206,191869,1,2,0:2:0:0:
194,196,191947,1,2,0:2:0:0:
262,137,192101,2,0,P|333:113|378:79,1,89.9999976158143
365,94,192333,1,2,0:2:0:0:
383,80,192411,1,8,0:0:0:0:
301,42,192565,5,2,0:0:0:0:
211,42,192720,1,0,0:0:0:0:
129,80,192874,2,0,B|99:96|91:127|91:127|77:181|77:181|68:212|85:241,2,179.999995231629,2|2|0,0:0|0:0|0:0,0:0:0:0:
213,113,193648,1,8,0:0:0:0:
256,192,193802,5,2,0:0:0:0:
299,270,193957,1,0,0:0:0:0:
383,303,194111,2,0,B|412:287|420:256|420:256|434:202|434:202|443:171|426:142,2,179.999995231629,2|2|0,0:0|0:0|0:0,0:0:0:0:
299,270,194885,1,8,0:0:0:0:
297,180,195039,2,0,P|256:167|214:181,1,89.9999976158143,2|0,0:0|0:0,0:0:0:0:
213,270,195349,1,2,0:0:0:0:
129,303,195503,6,0,L|88:322,1,44.9999988079071,2|0,0:2|2:0,0:0:0:0:
109,282,195658,2,0,L|64:286,1,44.9999988079071,2|0,0:2|2:0,0:0:0:0:
98,256,195812,2,0,B|92:243|90:228|90:228|101:210|104:187|101:169,1,89.9999976158143
40,101,196122,1,8,0:0:0:0:
128,84,196276,2,2,B|141:64|166:62|166:62|257:55,1,134.999996423721,2|0,0:2|2:0,0:2:0:0:
294,79,196586,2,2,B|281:99|256:101|256:101|165:108,1,134.999996423721,2|0,0:2|2:0,0:2:0:0:
138,143,196895,2,0,L|113:180,2,44.9999988079071,2|2|0,0:2|0:2|0:0,0:0:0:0:
192,215,197204,1,2,0:2:0:0:
188,237,197281,1,2,0:2:0:0:
180,258,197358,1,8,0:0:0:0:
469,43,197977,5,2,0:2:0:0:
446,45,198055,1,0,0:0:0:0:
425,51,198132,1,0,0:0:0:0:
403,59,198209,1,0,0:0:0:0:
384,71,198287,1,2,0:2:0:0:
367,85,198364,1,0,0:0:0:0:
352,102,198441,1,0,0:0:0:0:
339,120,198519,1,0,0:0:0:0:
329,140,198596,2,0,P|347:158|358:172,1,44.9999988079071,8|0,0:0|0:0,0:0:0:0:
381,212,198751,2,0,P|323:235|301:254,1,89.9999976158143,2|0,0:2|0:0,0:0:0:0:
250,326,199060,1,0,0:0:0:0:
184,264,199215,2,0,B|161:223|171:180|204:159|204:159|195:140|197:116|209:101,1,179.999995231629,2|0,0:2|0:0,0:0:0:0:
296,79,199678,2,0,B|301:100|301:100|325:101|347:108|365:122,1,89.9999976158143,2|8,0:2|0:0,0:0:0:0:
381,212,199988,5,2,0:0:0:0:
462,246,200142,1,0,0:0:0:0:
391,300,200297,2,2,B|320:304|281:245|297:182|297:182|266:204|233:209|210:208,1,269.999992847443
126,240,200916,1,0,0:0:0:0:
75,313,201070,1,8,0:0:0:0:
171,231,201225,2,0,P|165:171|151:140,1,89.9999976158143,2|0,0:0|0:0,0:0:0:0:
149,36,201534,2,0,P|165:40|189:54,1,44.9999988079071,2|0,0:2|0:0,0:0:0:0:
224,83,201689,2,0,B|236:91|252:95|266:95|266:95|281:95|297:102|307:113,2,89.9999976158143,2|0|0,0:2|0:0|0:2,0:0:0:0:
363,46,202153,1,2,0:0:0:0:
432,171,202307,2,0,B|411:210|411:210|403:225|388:234|373:236,1,89.9999976158143,8|2,0:0|0:0,0:0:0:0:
215,316,202617,2,2,B|236:276|236:276|244:261|259:252|274:250,1,89.9999976158143,2|0,0:0|0:0,0:0:0:0:
133,192,202926,5,2,0:0:0:0:
194,85,203081,1,0,0:0:0:0:
317,85,203235,1,2,0:0:0:0:
379,192,203390,1,0,0:0:0:0:
276,211,203544,2,0,B|272:212|256:248|256:248|240:212|217:192|217:192|192:168|224:144|256:172|256:172|288:144|320:168|294:192,2,269.999992847443,10|2|0,0:0|0:0|0:0,0:0:0:0:
317,298,204627,1,0,0:0:0:0:
194,298,204781,1,8,0:0:0:0:
