osu file format v14

[General]
AudioFilename: audio.mp3
AudioLeadIn: 0
PreviewTime: -1
Countdown: 0
SampleSet: Normal
StackLeniency: 0.7
Mode: 0
LetterboxInBreaks: 0
WidescreenStoryboard: 1

[Editor]
Bookmarks: 14404,73559
DistanceSpacing: 1.3
BeatDivisor: 4
GridSize: 16
TimelineZoom: 2

[Metadata]
Title:Fuujin Raijin
TitleUnicode:風仁雷仁
Artist:C.S.Port
ArtistUnicode:C.S.Port
Creator:Kumano
Version:Hard
Source:
Tags:
BeatmapID:1018548
BeatmapSetID:476677

[Difficulty]
HPDrainRate:5
CircleSize:4
OverallDifficulty:5
ApproachRate:7.5
SliderMultiplier:1.4
SliderTickRate:1

[Events]
//Background and Video events
0,0,"53031871_p0.jpg",0,0
//Break Periods
//Storyboard Layer 0 (Background)
//Storyboard Layer 1 (Fail)
//Storyboard Layer 2 (Pass)
//Storyboard Layer 3 (Foreground)
//Storyboard Sound Samples

[TimingPoints]
883,422.535211267606,4,1,0,100,1,0
87080,452.830188679245,4,1,0,100,1,0
87080,-133.333333333333,4,1,0,100,0,0
88438,459.770114942529,4,1,0,100,1,0
88438,-133.333333333333,4,1,0,100,0,0
88885,512.820512820513,4,1,0,100,1,0
88885,-200,4,1,0,100,0,0
89409,476.190476190476,4,1,0,100,1,0
89409,-200,4,1,0,100,0,0
89885,521.739130434783,4,1,0,100,1,0
89885,-200,4,1,0,100,0,0
90928,662.983425414365,4,1,0,100,1,0

[HitObjects]
131,243,2150,5,0,0:0:0:0:
213,282,2361,1,0,0:0:0:0:
214,191,2573,2,0,L|307:194,1,70
339,265,2995,2,0,L|432:268,1,70
408,267,3418,1,0,0:0:0:0:
340,76,3840,5,0,0:0:0:0:
287,150,4052,1,0,0:0:0:0:
227,81,4263,2,0,P|194:93|169:117,1,70
83,93,4685,2,0,P|77:127|86:160,1,70
86,160,5108,1,0,0:0:0:0:
163,245,5530,5,0,0:0:0:0:
230,183,5742,1,0,0:0:0:0:
304,236,5953,2,0,P|319:204|317:170,1,70
340,71,6375,2,0,P|373:81|396:107,1,70
317,170,6798,2,0,P|283:159|260:133,1,70
213,56,7221,2,0,P|185:77|170:108,1,70
80,92,7643,6,0,P|96:158|152:196,2,140
170,108,8910,5,0,0:0:0:0:
250,153,9122,1,0,0:0:0:0:
314,88,9333,2,0,L|348:148,1,70
440,136,9755,2,0,L|432:205,1,70
432,205,10178,1,0,0:0:0:0:
255,275,10601,5,0,0:0:0:0:
172,314,10812,1,0,0:0:0:0:
88,278,11023,2,0,P|111:253|147:232,1,70
125,145,11446,2,0,P|158:145|198:158,1,70
193,155,11868,1,0,0:0:0:0:
348,92,12291,5,0,0:0:0:0:
381,178,12502,1,0,0:0:0:0:
422,262,12713,1,0,0:0:0:0:
240,263,13136,5,0,0:0:0:0:
127,91,13559,1,0,0:0:0:0:
100,219,13981,1,0,0:0:0:0:
238,52,14404,6,0,L|306:65,1,70
260,143,14826,2,0,L|328:156,1,70
292,240,15249,2,0,L|360:253,1,70
314,331,15671,2,0,L|382:344,1,70
484,295,16094,6,0,L|447:207,1,70
363,170,16516,2,0,L|340:236,1,70
246,296,16939,2,0,L|209:208,1,70
256,126,17361,1,0,0:0:0:0:
218,231,17573,1,0,0:0:0:0:
151,137,17784,6,0,P|127:163|117:196,1,70
204,220,18206,2,0,P|195:254|203:288,1,70
290,257,18629,2,0,P|299:291|323:316,1,70
388,251,19051,2,0,P|413:275|446:285,1,70
473,177,19474,6,0,P|472:142|455:112,1,70
374,35,19897,2,0,P|353:62|348:97,1,70
348,97,20319,1,0,0:0:0:0:
240,71,20530,1,0,0:0:0:0:
240,71,20636,1,0,0:0:0:0:
240,71,20742,1,0,0:0:0:0:
262,182,20953,1,0,0:0:0:0:
262,182,21059,1,0,0:0:0:0:
261,181,21164,6,0,L|337:237,1,70
311,315,21587,2,0,L|254:273,1,70
179,223,22009,2,0,L|103:167,1,70
130,89,22432,2,0,L|186:130,1,70
261,181,22854,6,0,L|350:178,1,70
361,265,23277,2,0,L|272:268,1,70
270,356,23699,2,0,L|359:353,1,70
427,328,24122,2,0,L|461:299,4,35
361,265,24756,5,0,0:0:0:0:
339,353,24967,1,0,0:0:0:0:
247,289,25178,1,0,0:0:0:0:
247,289,25284,1,0,0:0:0:0:
247,289,25390,1,0,0:0:0:0:
157,355,25601,1,0,0:0:0:0:
157,355,25706,1,0,0:0:0:0:
157,355,25812,1,0,0:0:0:0:
118,251,26023,1,0,0:0:0:0:
118,251,26129,1,0,0:0:0:0:
118,251,26235,1,0,0:0:0:0:
174,282,27925,6,0,B|156:243|156:243|169:193,1,70
234,159,28347,2,0,B|252:198|252:198|245:224,1,70
322,273,28770,2,0,L|398:275,1,70
440,198,29192,2,0,L|364:200,1,70
322,273,29615,5,0,0:0:0:0:
140,261,30037,1,0,0:0:0:0:
106,175,30249,1,0,0:0:0:0:
195,190,30460,1,0,0:0:0:0:
341,114,30883,1,0,0:0:0:0:
384,194,31094,1,0,0:0:0:0:
318,253,31305,6,0,L|286:190,1,70
195,190,31728,2,0,L|226:252,1,70
318,253,32150,2,0,P|349:266|384:263,1,70
441,192,32573,2,0,P|409:178|374:181,1,70
284,166,32995,2,0,L|311:84,2,70
195,190,33629,1,0,0:0:0:0:
195,190,33735,1,0,0:0:0:0:
195,190,33840,1,0,0:0:0:0:
121,244,34052,2,0,L|84:340,2,70
89,159,34685,6,0,P|118:140|152:137,1,70
242,120,35108,2,0,P|243:154|228:185,1,70
199,272,35530,2,0,P|168:256|148:227,1,70
89,159,35953,2,0,P|118:140|152:137,1,70
190,54,36375,6,0,P|220:69|240:98,1,70
330,83,36798,2,0,P|331:117|316:148,1,70
248,208,37221,2,0,P|275:229|308:239,1,70
390,200,37643,1,0,0:0:0:0:
382,290,37854,1,0,0:0:0:0:
301,333,38066,6,0,L|235:358,2,70
382,290,38699,2,0,L|449:307,2,70
308,239,39333,1,0,0:0:0:0:
217,239,39544,1,0,0:0:0:0:
163,164,39756,6,0,P|181:68|278:60,1,210
343,125,40601,2,0,P|325:221|227:229,1,210
163,164,41446,1,0,0:0:0:0:
