osu file format v14

[General]
AudioFilename: audio.mp3
AudioLeadIn: 0
PreviewTime: 25844
Countdown: 0
SampleSet: Soft
StackLeniency: 0.3
Mode: 0
LetterboxInBreaks: 0
WidescreenStoryboard: 0

[Editor]
Bookmarks: 1459,4266,9880,15494
DistanceSpacing: 1.2
BeatDivisor: 4
GridSize: 32
TimelineZoom: 2.2

[Metadata]
Title:Just a fool loves you
TitleUnicode:Just a fool loves you
Artist:C.I.L. Cafe
ArtistUnicode:C.I.L. Café
Creator:DigiDrake
Version:Myka's Hard
Source:バカ部
Tags:Club Of By For The Baka Natsunosuke Yamato Ryoka Amada Sho Uraki Mizuki Yui KENN Skyjunction ポン吉 はち ねこすけ、ハウる visual novel furry yaoi Bakabu Takiken まずらぼ[muzzle-lab] Mazurabo Opening Version op ver video game japanese Squilly gokugohan12468 Bariton Mykaterasu SkinnyJommy KittyAdventure Mindmaster107
BeatmapID:1529309
BeatmapSetID:511326

[Difficulty]
HPDrainRate:4
CircleSize:3.3
OverallDifficulty:6
ApproachRate:8
SliderMultiplier:1.4
SliderTickRate:1

[Events]
//Background and Video events
0,0,"Oh Yes.jpg",0,0
Video,0,"vid.flv"
//Break Periods
//Storyboard Layer 0 (Background)
//Storyboard Layer 1 (Fail)
//Storyboard Layer 2 (Pass)
//Storyboard Layer 3 (Foreground)
//Storyboard Sound Samples

[TimingPoints]
1459,350.877192982456,4,2,1,25,1,0
1459,-125,4,2,1,25,0,0
3388,-125,4,3,1,40,0,0
4266,-100,4,2,68,50,0,0
9529,-100,4,2,1,50,0,0
9880,-125,4,2,1,40,0,0
10844,-125,4,2,1,5,0,0
10932,-125,4,2,1,40,0,0
13037,-125,4,2,1,40,0,0
14441,-125,4,2,1,40,0,0
15494,-111.111111111111,4,2,1,45,0,0
18651,-111.111111111111,4,2,1,45,0,0
19704,-111.111111111111,4,3,1,50,0,0
20230,-111.111111111111,4,3,68,50,0,0
21108,-133.333333333333,4,3,68,30,0,0
23915,-100,4,2,1,50,0,0
26108,-100,4,2,1,5,0,0
26195,-100,4,2,1,50,0,0
26546,350.877192982456,4,2,1,60,1,1
26546,-90.9090909090909,4,2,1,60,0,1
26809,-90.9090909090909,4,2,1,5,0,1
26897,-90.9090909090909,4,2,1,60,0,1
28301,-90.9090909090909,4,2,1,60,0,1
28915,-90.9090909090909,4,2,1,5,0,1
29002,-90.9090909090909,4,2,1,60,0,1
29616,-90.9090909090909,4,2,1,5,0,1
29703,-90.9090909090909,4,2,1,60,0,1
30317,-90.9090909090909,4,2,1,5,0,1
30405,-90.9090909090909,4,2,1,60,0,1
30756,-90.9090909090909,4,2,1,60,0,0
31020,-90.9090909090909,4,2,1,5,0,0
31108,-90.9090909090909,4,2,1,60,0,0
31722,-90.9090909090909,4,2,1,5,0,0
31809,-90.9090909090909,4,2,1,60,0,0
32160,-90.9090909090909,4,2,1,60,0,1
32423,-90.9090909090909,4,2,1,5,0,1
32511,-90.9090909090909,4,2,1,60,0,1
33915,-90.9090909090909,4,2,1,60,0,1
35230,-90.9090909090909,4,2,1,5,0,1
35318,-90.9090909090909,4,2,1,60,0,1
35932,-90.9090909090909,4,2,1,5,0,1
36020,-90.9090909090909,4,2,1,60,0,1
37073,-90.9090909090909,4,3,1,60,0,1
37774,-100,4,3,1,60,0,0
40581,-100,4,2,1,60,0,0

[Colours]
Combo1 : 252,226,167
Combo2 : 94,174,255
Combo3 : 255,128,0
Combo4 : 147,147,147

[HitObjects]
297,300,1459,6,0,P|354:292|427:302,2,112
225,267,2336,1,0,0:0:0:0:
277,326,2511,1,0,0:0:0:0:
352,238,2687,6,0,L|339:114,1,112
239,117,3213,2,0,P|206:121|164:115,1,56,0|8,0:0|0:0,0:0:0:0:
152,100,3476,1,8,0:0:0:0:
152,100,3564,1,0,0:0:0:0:
127,174,3739,1,0,0:0:0:0:
77,62,3915,2,0,P|106:29|168:23,1,84,8|0,0:0|0:0,0:0:0:0:
192,15,4266,6,0,B|260:39|260:39|328:38,1,140,0|10,0:3|0:3,0:3:0:0:
407,81,4792,1,0,0:3:0:0:
407,81,4880,1,0,0:3:0:0:
407,81,4967,2,0,P|403:114|409:156,1,70,0|0,0:3|0:3,0:3:0:0:
476,199,5318,1,8,0:3:0:0:
349,214,5494,6,0,P|311:276|348:347,1,140,2|2,0:3|0:3,0:3:0:0:
388,280,6020,1,8,0:3:0:0:
288,267,6195,2,0,P|248:265|154:300,1,140,2|2,0:3|0:3,0:3:0:0:
44,320,6722,1,8,0:3:0:0:
112,370,6897,1,0,0:3:0:0:
92,252,7073,6,0,P|152:220|214:246,1,140,2|8,0:3|0:3,0:3:0:0:
231,323,7599,1,0,0:3:0:0:
303,297,7774,2,0,P|336:293|378:299,1,70,0|0,0:3|0:3,0:3:0:0:
439,334,8125,1,8,0:3:0:0:
488,274,8301,6,0,L|480:195,1,70,2|0,0:3|0:3,0:3:0:0:
400,226,8651,2,0,L|408:147,1,70,2|8,0:3|0:3,0:3:0:0:
325,178,9002,2,0,L|317:99,1,70,2|0,0:3|0:3,0:3:0:0:
364,43,9353,1,2,0:3:0:0:
255,58,9529,2,0,B|219:62|219:62|186:52,1,70,8|0,0:3|0:3,0:3:0:0:
100,121,9880,6,0,P|113:163|109:245,1,112,6|0,0:0|0:0,0:0:0:0:
68,296,10406,1,0,0:0:0:0:
131,344,10581,2,0,P|169:339|218:346,1,84,0|0,0:0|0:0,0:0:0:0:
241,352,10932,1,0,0:0:0:0:
238,267,11108,6,0,L|245:197,1,56,2|0,0:0|0:0,0:0:0:0:
316,248,11458,2,0,P|295:208|285:127,1,112,0|2,0:0|0:0,0:0:0:0:
314,69,11985,1,0,0:0:0:0:
366,131,12160,1,0,0:0:0:0:
439,97,12336,2,0,L|509:104,1,56,2|0,0:0|0:0,0:0:0:0:
471,206,12687,6,0,P|467:244|474:293,1,84,2|0,0:0|0:0,0:0:0:0:
479,316,13037,1,0,0:0:0:0:
405,345,13213,2,0,L|335:338,1,56,0|0,0:0|0:0,0:0:0:0:
367,262,13564,2,0,L|297:269,1,56,2|0,0:0|0:0,0:0:0:0:
225,334,13915,1,2,0:0:0:0:
233,256,14090,6,0,P|229:217|211:171,1,84,0|0,0:0|0:0,0:0:0:0:
202,150,14441,1,0,0:0:0:0:
132,187,14616,2,0,L|62:180,1,56,2|0,0:0|0:0,0:0:0:0:
0,171,14967,1,0,0:0:0:0:
82,106,15143,2,0,B|111:101|111:101|137:111,1,56,12|0,0:0|0:0,0:0:0:0:
211,195,15494,6,0,P|251:174|332:164,1,125.999996154785,2|0,0:0|0:0,0:0:0:0:
409,185,16020,1,0,0:0:0:0:
480,145,16195,2,0,P|482:118|475:78,1,62.9999980773926,0|0,0:0|0:0,0:0:0:0:
406,40,16546,2,0,P|383:54|344:68,1,62.9999980773926
271,42,16897,5,0,0:0:0:0:
294,136,17073,2,0,P|295:163|288:203,1,62.9999980773926,2|0,0:0|0:0,0:0:0:0:
370,209,17423,2,0,P|368:236|375:276,1,62.9999980773926,2|0,0:0|0:0,0:0:0:0:
294,282,17774,2,0,P|295:309|288:349,1,62.9999980773926,2|0,0:0|0:0,0:0:0:0:
379,357,18125,1,0,0:0:0:0:
379,357,18213,1,0,0:0:0:0:
379,357,18301,6,0,P|438:333|460:282,1,94.499997116089,2|0,0:0|0:0,0:0:0:0:
460,278,18651,1,0,0:0:0:0:
387,238,18827,2,0,P|359:236|319:243,1,62.9999980773926
254,285,19178,2,0,P|226:286|186:279,1,62.9999980773926,2|0,0:0|0:0,0:0:0:0:
69,307,19529,1,10,0:0:0:0:
122,243,19704,6,0,L|115:173,2,62.9999980773926,0|0|8,0:0|0:0|0:0,0:0:0:0:
204,205,20230,1,2,0:0:0:0:
204,205,20318,1,0,0:0:0:0:
204,205,20406,1,0,0:0:0:0:
282,237,20581,1,0,0:0:0:0:
254,135,20757,2,0,P|264:72|308:39,1,94.499997116089,8|0,0:0|2:0,0:0:0:0:
308,40,21108,6,0,L|417:29,1,105.000004005432,6|2,0:0|0:0,0:0:0:0:
483,63,21634,1,0,0:0:0:0:
435,125,21809,2,0,L|330:114,1,105.000004005432,10|2,0:0|0:0,0:0:0:0:
258,148,22336,1,0,0:0:0:0:
272,52,22511,6,0,P|232:39|147:46,1,105.000004005432,2|2,0:0|0:0,0:0:0:0:
91,49,23037,1,0,0:0:0:0:
175,121,23213,2,0,P|176:149|169:189,1,52.5000020027161,10|0,0:0|0:0,0:0:0:0:
95,237,23564,1,2,0:0:0:0:
96,160,23739,1,0,0:0:0:0:
174,253,23915,6,0,L|258:261,1,70,10|0,0:1|0:1,0:1:0:0:
330,193,24266,2,0,P|331:221|323:262,1,70,2|8,0:1|0:1,0:1:0:0:
367,333,24616,2,0,P|395:331|436:339,1,70,2|0,0:1|0:1,0:1:0:0:
506,292,24967,2,0,P|507:263|499:222,1,70,10|0,0:1|0:1,0:1:0:0:
432,171,25318,1,2,0:1:0:0:
482,103,25494,1,10,0:1:0:0:
482,103,25581,1,8,0:1:0:0:
482,103,25669,1,8,0:1:0:0:
356,134,25844,6,0,P|292:138|250:102,1,105,2|0,0:1|0:1,0:1:0:0:
238,84,26195,1,10,0:1:0:0:
238,84,26546,6,0,P|264:126|261:222,1,115.50000352478,6|0,0:1|0:1,0:1:0:0:
262,224,26896,2,0,L|178:232,1,77.0000023498536,2|8,0:1|0:1,0:1:0:0:
124,172,27247,1,2,0:1:0:0:
78,243,27423,2,0,P|76:273|85:318,1,77.0000023498536,2|2,0:1|0:1,0:1:0:0:
146,377,27774,1,10,0:1:0:0:
229,300,27949,6,0,P|271:274|367:277,1,115.50000352478,2|0,0:1|0:1,0:1:0:0:
369,276,28300,2,0,L|453:268,1,77.0000023498536,2|8,0:1|0:1,0:1:0:0:
448,173,28651,6,0,P|401:189|308:166,1,115.50000352478,0|0,0:1|0:1,0:1:0:0:
306,167,29002,1,2,0:1:0:0:
356,99,29177,1,10,0:1:0:0:
283,52,29353,6,0,P|236:36|143:59,1,115.50000352478,2|0,0:1|0:1,0:1:0:0:
140,56,29703,1,2,0:1:0:0:
109,136,29879,1,10,0:1:0:0:
8,69,30054,6,0,P|24:116|1:209,1,115.50000352478,2|0,0:1|0:1,0:1:0:0:
7,214,30405,2,0,L|15:298,1,77.0000023498536,2|8,0:1|0:1,0:1:0:0:
89,230,30756,6,0,P|136:214|229:237,1,115.50000352478,2|0,0:1|0:1,0:1:0:0:
231,236,31107,2,0,L|239:320,1,77.0000023498536,2|8,0:1|0:1,0:1:0:0:
315,250,31458,6,0,P|362:234|455:257,1,115.50000352478,2|0,0:1|0:1,0:1:0:0:
457,256,31809,1,2,0:1:0:0:
512,320,31984,1,10,0:1:0:0:
495,176,32160,6,0,P|481:128|407:66,1,115.50000352478,2|0,0:1|0:1,0:1:0:0:
395,74,32510,2,0,L|311:66,1,77.0000023498536,2|8,0:1|0:1,0:1:0:0:
255,9,32861,1,2,0:1:0:0:
185,58,33037,2,0,P|183:88|192:133,1,77.0000023498536,2|0,0:1|0:1,0:1:0:0:
270,166,33388,1,10,0:1:0:0:
238,280,33563,6,0,P|191:264|98:287,1,115.50000352478,2|0,0:1|0:1,0:1:0:0:
93,280,33914,1,2,0:1:0:0:
17,242,34089,1,8,0:1:0:0:
48,352,34265,5,2,0:1:0:0:
48,352,34616,2,0,L|132:360,1,77.0000023498536,2|10,0:1|0:1,0:1:0:0:
216,311,34967,6,0,P|263:327|340:310,1,115.50000352478,2|0,0:1|0:1,0:1:0:0:
356,306,35317,1,2,0:1:0:0:
412,369,35493,1,10,0:1:0:0:
474,283,35668,6,0,P|458:236|481:143,1,115.50000352478,2|0,0:1|0:1,0:1:0:0:
474,130,36019,2,0,L|390:122,1,77.0000023498536,2|10,0:1|0:1,0:1:0:0:
343,188,36370,6,0,P|313:190|268:181,1,77.0000023498536,2|0,0:1|0:1,0:1:0:0:
196,134,36721,2,0,P|166:132|121:141,1,77.0000023498536,2|10,0:1|0:1,0:1:0:0:
59,200,37072,1,8,0:1:0:0:
59,200,37160,1,8,0:1:0:0:
59,200,37247,2,0,L|67:284,1,77.0000023498536,8|2,0:1|0:1,0:1:0:0:
129,333,37598,1,2,0:1:0:0:
144,231,37774,6,0,P|191:215|277:238,1,140,10|2,0:1|0:1,0:1:0:0:
332,299,38300,1,2,0:1:0:0:
341,188,38475,6,0,P|388:204|474:181,1,140,10|2,0:1|0:1,0:1:0:0:
507,104,39002,1,2,0:1:0:0:
404,100,39177,6,0,L|236:116,1,140,2|2,0:1|0:1,0:1:0:0:
187,68,39703,2,0,L|179:144,1,70,10|0,0:1|0:1,0:1:0:0:
105,196,40054,2,0,L|97:119,1,70,8|0,0:1|0:1,0:1:0:0:
88,39,40405,1,8,0:1:0:0:
20,150,40581,1,14,0:1:0:0:
