osu file format v14

[General]
AudioFilename: audio.mp3
AudioLeadIn: 0
PreviewTime: 25844
Countdown: 0
SampleSet: Soft
StackLeniency: 1
Mode: 0
LetterboxInBreaks: 0
WidescreenStoryboard: 0

[Editor]
DistanceSpacing: 0.3
BeatDivisor: 4
GridSize: 4
TimelineZoom: 2.2

[Metadata]
Title:Just a fool loves you
TitleUnicode:Just a fool loves you
Artist:C.I.L. Cafe
ArtistUnicode:C.I.L. Café
Creator:DigiDrake
Version:Mindmaster's Insane
Source:バカ部
Tags:Club Of By For The Baka Natsunosuke Yamato Ryoka Amada Sho Uraki Mizuki Yui KENN Skyjunction ポン吉 はち ねこすけ、ハウる visual novel furry yaoi Bakabu Takiken まずらぼ[muzzle-lab] Mazurabo Opening Version op ver video game japanese Squilly gokugohan12468 Bariton Mykaterasu SkinnyJommy KittyAdventure Mindmaster107
BeatmapID:1634415
BeatmapSetID:511326

[Difficulty]
HPDrainRate:6
CircleSize:3
OverallDifficulty:8
ApproachRate:8.7
SliderMultiplier:1.4
SliderTickRate:1

[Events]
//Background and Video events
0,0,"Oh Yes.jpg",0,0
Video,0,"vid.flv"
//Break Periods
//Storyboard Layer 0 (Background)
//Storyboard Layer 1 (Fail)
//Storyboard Layer 2 (Pass)
//Storyboard Layer 3 (Foreground)
//Storyboard Sound Samples

[TimingPoints]
1459,350.877192982456,4,2,1,25,1,0
1459,-66.6666666666667,4,2,1,25,0,0
3388,-66.6666666666667,4,2,1,40,0,0
4266,-66.6666666666667,4,2,1,50,0,0
9529,-66.6666666666667,4,2,1,55,0,0
9880,-100,4,2,1,50,0,0
12687,-100,4,2,69,50,0,0
13037,-100,4,2,1,50,0,0
13915,-100,4,2,69,50,0,0
14090,-100,4,2,1,50,0,0
15494,-66.6666666666667,4,2,1,50,0,0
18301,-66.6666666666667,4,2,69,50,0,0
18476,-66.6666666666667,4,2,1,50,0,0
21108,-133.333333333333,4,2,1,60,0,0
23915,-133.333333333333,4,2,1,60,0,0
26546,350.877192982456,4,2,1,75,1,1
26546,-66.6666666666667,4,2,1,75,0,1
26809,-66.6666666666667,4,2,1,5,0,1
26896,-66.6666666666667,4,2,1,75,0,1
28212,-66.6666666666667,4,2,1,5,0,1
28300,-66.6666666666667,4,2,1,75,0,1
30756,-66.6666666666667,4,2,1,70,0,0
31019,-66.6666666666667,4,2,1,5,0,0
31107,-66.6666666666667,4,2,1,70,0,0
32160,-66.6666666666667,4,2,1,75,0,1
32423,-66.6666666666667,4,2,1,5,0,1
32511,-66.6666666666667,4,2,1,75,0,1
33826,-66.6666666666667,4,2,1,5,0,1
33914,-66.6666666666667,4,2,1,75,0,1
40581,-66.6666666666667,4,2,1,75,0,0

[Colours]
Combo1 : 252,226,167
Combo2 : 94,174,255
Combo3 : 255,128,0
Combo4 : 147,147,147

[HitObjects]
53,238,3388,5,0,0:0:0:0:
76,261,3476,1,8,0:3:0:0:
99,297,3564,1,8,0:3:0:0:
153,166,3739,1,8,0:3:0:0:
200,297,3915,1,8,0:3:0:0:
266,126,4090,1,0,0:0:0:0:
326,307,4266,6,0,P|407:327|460:308,1,105.000004005432,4|0,0:0|0:0,0:0:0:0:
384,123,4616,2,0,L|392:241,1,105.000004005432,8|0,0:0|0:0,0:0:0:0:
475,115,4967,1,0,0:0:0:0:
297,217,5143,1,0,0:0:0:0:
391,227,5318,1,8,0:0:0:0:
326,11,5494,6,0,P|254:60|106:51,1,210.000008010865,2|0,0:0|0:0,0:0:0:0:
213,167,6020,1,8,0:0:0:0:
43,26,6195,2,0,B|26:79|60:125|60:125|93:170|77:224,1,210.000008010865,6|0,0:0|0:0,0:0:0:0:
0,299,6722,1,10,0:0:0:0:
38,300,6809,1,2,0:0:0:0:
77,309,6897,1,2,0:0:0:0:
113,324,6985,1,2,0:0:0:0:
147,343,7073,6,0,P|214:374|287:367,1,105.000004005432,6|0,0:0|0:0,0:0:0:0:
320,156,7423,2,0,P|259:198|229:265,1,105.000004005432,8|0,0:0|0:0,0:0:0:0:
440,365,7774,1,0,0:0:0:0:
333,255,7950,1,0,0:0:0:0:
341,346,8125,1,8,0:0:0:0:
440,211,8301,6,0,L|418:-19,1,210.000008010865,0|0,0:0|0:0,0:0:0:0:
512,91,8827,1,8,0:0:0:0:
337,169,9002,2,0,P|344:271|458:319,1,210.000008010865,0|0,0:0|0:0,0:0:0:0:
338,80,9529,2,2,L|290:44,3,52.5000020027161,8|0|0|0,0:0|0:0|0:0|0:0,0:0:0:0:
261,55,9880,6,0,L|254:141,1,70,4|0,0:0|0:0,0:0:0:0:
99,129,10230,2,0,L|106:215,1,70,8|0,0:0|0:0,0:0:0:0:
203,204,10581,2,0,L|196:290,1,70,0|0,0:0|0:0,0:0:0:0:
94,293,10932,1,8,0:0:0:0:
282,335,11108,6,0,P|199:376|132:362,1,140,2|0,0:0|0:0,0:0:0:0:
197,273,11634,1,8,0:0:0:0:
297,244,11809,2,0,L|383:251,1,70,2|0,0:0|0:0,0:0:0:0:
480,258,12160,1,0,0:0:0:0:
365,167,12336,1,8,0:0:0:0:
424,337,12511,1,0,0:0:0:0:
455,105,12687,6,0,P|362:60|316:68,1,140,2|8,2:0|0:0,0:0:0:0:
264,142,13213,2,0,L|178:149,1,70,0|0,0:0|0:0,0:0:0:0:
150,39,13564,2,0,L|236:46,1,70,0|8,0:0|0:0,0:0:0:0:
365,167,13915,1,2,2:0:0:0:
163,264,14090,6,0,P|104:227|74:165,1,140,0|8,0:0|0:0,0:0:0:0:
264,142,14616,2,0,L|178:149,2,70,2|0|0,0:1|0:0|0:3,0:0:0:0:
191,362,15143,5,12,0:3:0:0:
0,287,15318,1,0,0:3:0:0:
266,238,15494,6,0,P|282:299|286:345,1,105.000004005432,4|0,0:0|0:0,0:0:0:0:
182,257,15844,1,8,0:0:0:0:
182,257,16020,1,0,0:0:0:0:
284,132,16195,2,0,P|328:176|354:214,1,105.000004005432,0|0,0:0|0:0,0:0:0:0:
407,360,16546,2,0,P|412:308|427:258,1,105.000004005432,8|0,0:0|0:0,0:0:0:0:
512,78,16897,5,0,0:0:0:0:
434,166,17073,1,0,0:0:0:0:
434,166,17248,2,0,P|411:118|380:76,2,105.000004005432,8|0|0,0:0|0:0|0:0,0:0:0:0:
288,136,17774,1,0,0:0:0:0:
288,136,17950,1,8,0:0:0:0:
51,140,18125,1,0,0:0:0:0:
238,48,18301,6,0,P|206:90|169:126,1,105.000004005432,2|0,2:0|0:0,0:0:0:0:
95,36,18651,1,8,0:0:0:0:
227,199,18827,2,0,P|178:220|128:233,1,105.000004005432,0|0,0:0|0:0,0:0:0:0:
17,316,19178,2,0,P|65:337|115:350,1,105.000004005432,0|8,0:0|0:0,0:0:0:0:
202,309,19529,1,4,0:0:0:0:
23,210,19704,5,0,0:0:0:0:
128,232,19880,1,8,0:3:0:0:
113,99,20055,1,12,0:3:0:0:
227,199,20230,1,0,0:0:0:0:
308,32,20406,1,0,0:0:0:0:
308,32,20494,1,0,0:0:0:0:
308,32,20581,1,0,0:0:0:0:
391,209,20757,2,2,L|423:266,3,52.5000020027161,4|0|0|0,0:3|0:0|0:0|0:0,0:0:0:0:
355,130,21108,6,0,L|181:109,1,157.500006008148,4|0,0:0|0:0,0:0:0:0:
122,211,21809,1,8,0:0:0:0:
122,211,21985,2,0,L|226:198,1,105.000004005432,0|0,0:0|0:0,0:0:0:0:
118,20,22511,2,0,P|95:85|95:124,1,105.000004005432,4|2,0:2|0:0,0:0:0:0:
195,95,23037,1,0,0:0:0:0:
20,171,23213,2,0,P|20:239|33:276,1,105.000004005432,8|2,0:0|0:0,0:0:0:0:
122,211,23739,1,0,0:0:0:0:
0,364,23915,5,12,2:0:0:0:
193,279,24090,1,0,0:0:0:0:
120,375,24266,1,2,0:0:0:0:
251,167,24441,5,12,0:2:0:0:
323,357,24616,1,0,0:0:0:0:
361,234,24792,1,2,0:0:0:0:
222,376,24967,5,12,0:2:0:0:
323,357,25143,1,0,0:0:0:0:
509,247,25318,5,10,0:3:0:0:
361,234,25494,1,4,3:3:0:0:
384,257,25581,1,4,3:3:0:0:
407,293,25669,1,4,3:3:0:0:
463,140,25844,5,8,0:0:0:0:
281,263,26195,5,2,0:3:0:0:
424,46,26546,6,0,P|338:42|247:81,1,157.500006008148,4|0,0:1|0:0,0:0:0:0:
237,103,26897,2,0,P|151:107|60:68,1,157.500006008148,2|0,0:0|0:0,0:0:0:0:
49,57,27248,1,2,0:0:0:0:
201,15,27423,1,2,0:0:0:0:
39,180,27599,1,2,0:0:0:0:
49,57,27774,1,8,0:0:0:0:
202,196,27950,6,0,P|226:270|221:348,1,157.500006008148,2|0,0:0|0:0,0:0:0:0:
197,384,28301,2,0,P|103:338|-1:338,1,210.000008010865,2|6,0:0|0:0,0:0:0:0:
303,200,29002,5,2,0:0:0:0:
320,359,29178,1,10,0:0:0:0:
303,200,29353,2,0,L|294:90,1,105.000004005432,6|0,0:0|0:0,0:0:0:0:
408,211,29704,5,2,0:0:0:0:
202,196,29880,1,10,0:0:0:0:
408,211,30055,2,0,L|512:219,1,105.000004005432,6|0,0:0|0:0,0:0:0:0:
294,95,30405,6,0,P|368:110|421:146,1,105.000004005432,2|10,0:0|0:2,0:0:0:0:
275,0,30756,2,0,P|198:45|105:60,1,157.500006008148,6|0,0:2|0:0,0:0:0:0:
85,51,31108,2,0,P|46:131|39:183,1,105.000004005432,2|0,0:3|0:0,0:0:0:0:
61,350,31458,5,4,0:3:0:0:
209,204,31634,1,0,0:0:0:0:
50,234,31809,1,2,0:3:0:0:
50,234,31985,1,2,0:3:0:0:
253,353,32160,6,0,P|338:342|421:287,1,157.500006008148,6|0,0:0|0:0,0:0:0:0:
435,275,32511,2,0,P|410:201|416:134,1,105.000004005432,2|8,0:0|0:0,0:0:0:0:
416,50,32861,1,2,0:0:0:0:
317,114,33037,2,0,P|264:117|213:106,2,105.000004005432,2|0|8,0:0|0:0|0:0,0:0:0:0:
75,49,33564,6,0,P|71:135|110:226,1,157.500006008148,2|0,0:0|0:0,0:0:0:0:
124,246,33915,2,0,P|49:270|-17:265,1,105.000004005432,2|0,0:0|0:0,0:0:0:0:
335,212,34266,6,0,P|322:297|294:250,1,210.000008010865,6|2,0:0|0:0,0:0:0:0:
394,141,34792,1,10,0:0:0:0:
465,238,34967,2,0,P|464:292|431:347,1,105.000004005432,6|0,0:0|0:0,0:0:0:0:
272,375,35318,5,2,0:0:0:0:
272,375,35494,1,10,0:0:0:0:
210,274,35669,2,0,P|210:219|244:165,1,105.000004005432,6|0,0:0|0:0,0:0:0:0:
394,141,36020,5,2,0:0:0:0:
300,89,36195,1,10,0:0:0:0:
490,98,36371,2,0,B|501:157|478:200|478:200|455:246|459:304,1,210.000008010865,6|8,0:0|0:3,0:0:0:0:
498,378,36897,5,10,0:3:0:0:
376,307,37073,1,8,0:3:0:0:
357,333,37160,1,8,0:3:0:0:
340,373,37248,1,12,0:3:0:0:
260,233,37423,1,12,3:3:0:0:
182,378,37599,1,2,3:0:0:0:
105,159,37774,6,0,P|47:201|60:361,1,210.000008010865,2|2,0:0|0:0,0:0:0:0:
143,275,38301,1,10,0:0:0:0:
259,77,38476,2,0,B|211:100|159:75|159:75|111:49|57:72,1,210.000008010865,6|2,0:0|0:0,0:0:0:0:
105,159,39002,1,10,0:0:0:0:
359,86,39178,6,0,P|331:154|193:161,1,210.000008010865,2|0,0:0|0:0,0:0:0:0:
259,77,39704,1,8,0:0:0:0:
448,124,39880,2,0,L|441:241,1,105.000004005432,0|0,0:0|0:0,0:0:0:0:
334,365,40230,2,0,L|327:248,1,105.000004005432,0|8,0:0|0:0,0:0:0:0:
312,0,40581,1,4,0:1:0:0:
