osu file format v14

[General]
AudioFilename: audio.mp3
AudioLeadIn: 0
PreviewTime: 25844
Countdown: 0
SampleSet: Soft
StackLeniency: 0.2
Mode: 0
LetterboxInBreaks: 0
WidescreenStoryboard: 0

[Editor]
Bookmarks: 23915
DistanceSpacing: 1.3
BeatDivisor: 4
GridSize: 32
TimelineZoom: 2.899999

[Metadata]
Title:Just a fool loves you
TitleUnicode:Just a fool loves you
Artist:C.I.L. Cafe
ArtistUnicode:C.I.L. Café
Creator:DigiDrake
Version:Bariton's Insane
Source:バカ部
Tags:Club Of By For The Baka Natsunosuke Yamato Ryoka Amada Sho Uraki Mizuki Yui KENN Skyjunction ポン吉 はち ねこすけ、ハウる visual novel furry yaoi Bakabu Takiken まずらぼ[muzzle-lab] Mazurabo Opening Version op ver video game japanese Squilly gokugohan12468 Bariton Mykaterasu SkinnyJommy KittyAdventure Mindmaster107
BeatmapID:1494431
BeatmapSetID:511326

[Difficulty]
HPDrainRate:6.5
CircleSize:4.1
OverallDifficulty:8
ApproachRate:9
SliderMultiplier:1.84
SliderTickRate:1

[Events]
//Background and Video events
0,0,"Oh Yes.jpg",0,0
Video,0,"vid.flv"
//Break Periods
//Storyboard Layer 0 (Background)
//Storyboard Layer 1 (Fail)
//Storyboard Layer 2 (Pass)
//Storyboard Layer 3 (Foreground)
//Storyboard Sound Samples

[TimingPoints]
1459,350.877192982456,4,2,1,25,1,0
1459,-133.333333333333,4,2,1,25,0,0
1809,-100,4,2,1,25,0,0
2160,-133.333333333333,4,2,1,30,0,0
2687,-133.333333333333,4,2,1,30,0,0
3213,-133.333333333333,4,2,1,30,0,0
3388,-100,4,2,1,40,0,0
4266,-100,4,2,1,50,0,0
4529,-100,4,2,1,5,0,0
4616,-100,4,2,1,50,0,0
5494,-83.3333333333333,4,2,1,50,0,0
6195,-100,4,2,1,50,0,0
7336,-100,4,2,1,5,0,0
7423,-100,4,2,1,50,0,0
9529,-100,4,2,1,55,0,0
9880,-117.647058823529,4,2,1,40,0,0
10230,-117.647058823529,4,2,1,50,0,0
12687,-117.647058823529,4,2,69,50,0,0
13037,-117.647058823529,4,2,1,50,0,0
13915,-117.647058823529,4,2,69,50,0,0
14090,-117.647058823529,4,2,1,50,0,0
14967,-117.647058823529,4,2,1,50,0,0
15143,-58.8235294117647,4,2,1,50,0,0
15494,-100,4,2,1,50,0,0
18301,-100,4,2,69,50,0,0
18476,-100,4,2,1,50,0,0
20581,-100,4,2,1,50,0,0
21108,-100,4,2,1,60,0,0
22774,-100,4,2,1,5,0,0
22862,-100,4,2,1,60,0,0
24266,-66.6666666666667,4,2,1,60,0,0
26108,-66.6666666666667,4,2,1,5,0,0
26195,-133.333333333333,4,2,1,60,0,0
26458,-133.333333333333,4,2,1,5,0,0
26546,350.877192982456,4,2,1,75,1,1
26546,-83.3333333333333,4,2,1,75,0,1
26809,-83.3333333333333,4,2,1,5,0,1
26896,-83.3333333333333,4,2,1,75,0,1
26897,-83.3333333333333,4,2,1,75,0,1
28914,-83.3333333333333,4,2,1,5,0,1
29002,-83.3333333333333,4,2,1,75,0,1
30669,-83.3333333333333,4,2,1,5,0,1
30756,-100,4,2,1,70,0,0
31108,-100,4,2,1,70,0,0
32160,-83.3333333333333,4,2,1,75,0,1
32423,-83.3333333333333,4,2,1,5,0,1
32510,-83.3333333333333,4,2,1,75,0,1
33826,-83.3333333333333,4,2,1,5,0,1
33914,-83.3333333333333,4,2,1,75,0,1
34528,-83.3333333333333,4,2,1,5,0,1
34616,-83.3333333333333,4,2,1,75,0,1
37774,-100,4,2,1,75,0,1
40581,-100,4,2,1,75,0,0

[Colours]
Combo1 : 167,218,233
Combo2 : 94,174,255
Combo3 : 255,128,0
Combo4 : 174,171,186
Combo5 : 252,226,167
Combo6 : 156,167,209

[HitObjects]
82,184,1459,38,0,P|149:198|203:150,1,138.000005264282,0|2,0:0|0:0,0:0:0:0:
199,157,2073,1,0,0:0:0:0:
196,165,2160,2,0,L|207:238,1,69.0000026321412,0|0,0:0|0:0,0:0:0:0:
257,307,2511,1,2,0:0:0:0:
347,222,2687,22,0,B|318:155|368:155|345:87,1,138.000005264282,2|0,0:3|0:0,0:0:0:0:
345,87,3213,1,2,0:3:0:0:
417,184,3388,22,0,P|439:183|466:171,1,46,8|8,0:3|0:3,0:0:0:0:
347,222,3564,6,0,P|302:204|253:213,1,92,8|8,0:3|0:3,0:0:0:0:
191,240,3827,1,8,0:3:0:0:
185,243,3915,2,0,P|136:241|94:214,1,92,8|8,0:3|0:3,0:0:0:0:
108,103,4266,22,0,P|135:161|93:223,1,138,4|0,0:0|0:0,0:0:0:0:
38,67,4616,2,0,P|69:34|122:27,1,92,8|0,0:0|0:0,0:0:0:0:
182,63,4880,1,0,0:0:0:0:
187,67,4967,2,0,P|228:82|279:65,1,92
113,26,5318,1,8,0:0:0:0:
273,69,5494,6,0,B|321:32|372:52|372:52|401:120|340:166,1,220.799993261719,2|0,0:0|0:0,0:0:0:0:
228,172,6020,1,8,0:0:0:0:
372,52,6195,54,0,B|398:113|351:157|351:157|352:191|389:219,1,184,6|0,0:0|0:0,0:0:0:0:
452,249,6634,1,0,0:0:0:0:
461,246,6722,1,10,0:0:0:0:
495,174,6897,1,2,0:0:0:0:
308,304,7073,6,0,P|241:321|185:279,1,138,6|0,0:0|0:0,0:0:0:0:
125,328,7423,2,0,B|70:331|70:331|37:347,1,92,8|0,0:0|0:0,0:0:0:0:
188,284,7774,2,0,B|212:220|212:220|210:189,2,92,0|0|8,0:0|0:0|0:0,0:0:0:0:
127,136,8301,21,0,0:0:0:0:
127,136,8388,1,0,0:0:0:0:
127,136,8476,2,0,P|211:171|281:114,1,184,0|8,0:0|0:0,0:0:0:0:
385,175,9002,1,0,0:0:0:0:
295,323,9178,2,0,L|309:221,1,92,0|0,0:0|0:0,0:0:0:0:
449,353,9529,1,8,0:0:0:0:
385,175,9704,1,8,0:3:0:0:
497,24,9880,37,4,0:0:0:0:
497,24,10230,1,8,0:0:0:0:
417,76,10406,2,0,P|378:84|326:62,1,78.2000014915467,0|0,0:0|0:0,0:0:0:0:
251,26,10757,2,0,P|212:18|160:40,1,78.2000014915467,0|8,0:0|0:0,0:0:0:0:
174,142,11108,6,0,P|108:160|41:97,1,156.400002983093,2|0,0:0|0:0,0:0:0:0:
44,108,11634,1,8,0:0:0:0:
108,257,11809,2,0,P|118:218|98:165,1,78.2000014915467,2|0,0:0|0:0,0:0:0:0:
30,315,12160,1,0,0:0:0:0:
30,315,12248,1,0,0:0:0:0:
30,315,12336,1,8,0:0:0:0:
199,240,12511,1,0,0:0:0:0:
330,317,12687,6,0,B|439:327|439:327|412:321|393:296,1,156.400002983093,2|8,2:0|0:0,0:0:0:0:
428,176,13213,2,0,P|381:222|406:309,1,156.400002983093,0|0,0:0|0:0,0:0:0:0:
399,303,13739,1,8,0:0:0:0:
301,214,13915,1,2,2:0:0:0:
428,176,14090,6,0,P|466:106|426:42,1,156.400002983093,0|8,0:0|0:0,0:0:0:0:
238,107,14616,2,0,B|314:137|314:80|390:108,1,156.400002983093,2|0,0:1|0:3,0:0:0:0:
223,147,15143,6,0,P|196:88|231:141,1,156.400002983093,12|0,0:3|0:3,0:0:0:0:
298,237,15494,5,4,0:0:0:0:
183,319,15669,1,0,0:0:0:0:
177,321,15757,1,0,0:0:0:0:
171,323,15844,2,0,P|115:329|76:302,1,92,8|0,0:0|0:0,0:0:0:0:
116,131,16195,2,0,P|154:181|133:253,1,138,0|0,0:0|0:0,0:0:0:0:
85,312,16546,2,0,P|59:268|68:218,1,92,8|0,0:0|0:0,0:0:0:0:
116,131,16897,5,0,0:0:0:0:
116,131,17073,2,0,P|133:87|119:40,1,92,0|8,0:0|0:0,0:0:0:0:
204,185,17423,2,0,P|285:218|361:162,1,184,0|0,0:0|0:0,0:0:0:0:
271,49,17950,2,0,P|262:96|280:140,1,92,8|0,0:0|0:0,0:0:0:0:
392,246,18301,6,0,P|434:186|381:89,1,184,2|8,2:0|0:0,0:0:0:0:
306,249,18827,2,0,P|353:261|408:233,1,92,0|0,0:0|0:0,0:0:0:0:
392,95,19178,1,0,0:0:0:0:
392,95,19353,2,0,P|345:83|290:111,1,92,8|4,0:0|0:0,0:0:0:0:
180,216,19704,5,0,0:0:0:0:
349,159,19880,1,8,0:3:0:0:
238,56,20055,2,0,P|224:100|238:145,1,92,12|0,0:3|0:0,0:0:0:0:
280,204,20318,1,0,0:0:0:0:
287,204,20406,1,0,0:0:0:0:
238,56,20581,1,0,0:0:0:0:
113,147,20757,5,4,0:3:0:0:
305,97,20932,1,2,0:3:0:0:
81,155,21108,5,4,0:0:0:0:
49,163,21458,1,2,0:0:0:0:
139,153,21634,1,0,0:0:0:0:
210,214,21809,2,0,P|226:254|205:314,1,92,8|0,0:0|0:0,0:0:0:0:
216,301,22160,1,2,0:0:0:0:
139,153,22336,1,0,0:0:0:0:
301,260,22511,6,0,P|365:271|423:206,1,138,4|0,0:2|0:0,0:0:0:0:
421,212,22862,1,2,0:0:0:0:
339,103,23037,2,0,P|325:148|344:192,1,92,0|8,0:0|0:0,0:0:0:0:
410,47,23388,1,0,0:0:0:0:
250,84,23564,1,2,0:0:0:0:
418,127,23739,1,0,0:0:0:0:
232,81,23915,5,12,2:0:0:0:
303,260,24090,1,0,0:0:0:0:
161,193,24266,1,2,0:0:0:0:
325,272,24441,5,12,0:2:0:0:
232,81,24616,1,0,0:0:0:0:
198,320,24792,1,2,0:0:0:0:
232,81,24967,5,12,0:2:0:0:
303,260,25143,1,0,0:0:0:0:
293,25,25318,5,10,0:3:0:0:
220,215,25494,1,4,3:3:0:0:
224,205,25581,1,4,3:3:0:0:
228,195,25669,1,4,3:3:0:0:
373,331,25844,2,0,P|433:349|379:286,1,207.000007896424,8|0,0:0|0:0,0:0:0:0:
373,331,26195,6,0,B|322:347|322:312|273:332,1,103.500003948212,2|0,0:3|0:0,0:0:0:0:
201,291,26546,6,0,P|126:327|53:282,1,165.599994946289,4|0,0:1|0:0,0:0:0:0:
85,193,26896,2,0,B|71:233|86:260|86:260|56:293,1,110.399996630859,2|8,0:0|0:0,0:0:0:0:
28,105,27247,1,2,0:0:0:0:
189,186,27423,1,2,0:0:0:0:
148,32,27598,1,2,0:0:0:0:
85,193,27774,1,8,0:0:0:0:
242,65,27949,2,0,P|321:115|267:128,1,220.799993261719,2|2,0:0|0:0,0:0:0:0:
148,32,28475,1,10,0:0:0:0:
332,83,28651,6,0,B|414:112|414:56|495:82|495:82|475:115|467:101,1,165.599994946289,6|0,0:0|0:0,0:0:0:0:
481,97,29002,1,2,0:0:0:0:
267,128,29177,1,10,0:0:0:0:
124,92,29353,2,0,P|100:140|109:195,1,110.399996630859,6|0,0:0|0:0,0:0:0:0:
452,179,29703,5,2,0:0:0:0:
268,147,29879,1,10,0:0:0:0:
108,194,30054,2,0,P|93:245|112:297,1,110.399996630859,6|0,0:0|0:0,0:0:0:0:
318,272,30405,2,0,P|235:222|158:267,1,165.599994946289,2|0,0:0|0:0,0:0:0:0:
318,272,30756,6,0,B|335:231|311:195|311:195|322:166|322:166|299:131|321:86,1,184,6|2,0:2|0:3,0:0:0:0:
316,96,31282,1,4,0:3:0:0:
394,318,31458,2,0,P|438:331|489:313,1,92,4|4,0:3|0:3,0:0:0:0:
311,194,31809,1,2,0:3:0:0:
222,349,31984,1,2,0:3:0:0:
384,234,32160,6,0,B|416:208|422:162|422:162|406:102|340:84|330:99,1,165.599994946289,6|0,0:0|0:0,0:0:0:0:
316,96,32510,1,2,0:0:0:0:
212,222,32686,1,8,0:0:0:0:
384,234,32861,1,2,0:0:0:0:
213,108,33037,1,2,0:0:0:0:
340,305,33212,2,0,P|395:316|448:289,1,110.399996630859,2|8,0:0|0:0,0:0:0:0:
212,222,33563,6,0,B|121:182|121:253|26:219|26:219|46:212,1,165.599994946289,2|2,0:0|0:0,0:0:0:0:
55,204,33914,1,2,0:0:0:0:
160,292,34089,1,10,0:0:0:0:
291,183,34265,2,0,P|317:94|232:36,1,165.599994946289,6|0,0:0|0:0,0:0:0:0:
250,35,34616,1,2,0:0:0:0:
171,138,34791,1,10,0:0:0:0:
291,183,34967,2,0,P|345:195|393:169,1,110.399996630859,6|0,0:0|0:0,0:0:0:0:
250,35,35317,5,2,0:0:0:0:
147,147,35493,1,10,0:0:0:0:
321,195,35668,2,0,P|375:184|409:142,1,110.399996630859,6|0,0:0|0:0,0:0:0:0:
250,35,36019,1,2,0:0:0:0:
214,263,36195,1,10,0:0:0:0:
408,142,36370,6,0,P|360:94|338:203,1,220.799993261719,6|8,0:0|0:3,0:0:0:0:
465,58,36896,1,10,0:3:0:0:
320,194,37072,1,8,0:3:0:0:
304,198,37160,1,8,0:3:0:0:
288,194,37247,1,12,0:3:0:0:
356,18,37423,1,12,3:3:0:0:
412,252,37598,1,2,3:0:0:0:
227,108,37774,6,0,P|169:174|219:262,1,184,2|2,0:0|0:0,0:0:0:0:
203,253,38300,1,10,0:0:0:0:
227,108,38475,6,0,B|138:136|140:72|48:105,1,184,6|2,0:0|0:0,0:0:0:0:
47,105,39002,1,10,0:0:0:0:
268,187,39177,6,0,P|305:145|262:29,1,184,2|0,0:0|0:0,0:0:0:0:
185,195,39703,2,0,B|226:216|268:187|268:187|322:178|357:221,1,184,8|0,0:0|0:0,0:0:0:0:
442,335,40230,1,0,0:0:0:0:
290,265,40405,1,8,0:0:0:0:
455,76,40581,5,4,0:1:0:0:
