osu file format v14

[General]
AudioFilename: audio.mp3
AudioLeadIn: 0
PreviewTime: 8911
Countdown: 0
SampleSet: None
StackLeniency: 0.7
Mode: 0
LetterboxInBreaks: 0
SkinPreference:- elohere x Seouless
WidescreenStoryboard: 1

[Editor]
DistanceSpacing: 1.6
BeatDivisor: 4
GridSize: 4
TimelineZoom: 3.599998

[Metadata]
Title:Trickl4sh 220
TitleUnicode:Trickl4sh 220
Artist:C.H.S
ArtistUnicode:C.H.S
Creator:lucasheler
Version:ExaltaSamba's Genial
Source:
Tags:
BeatmapID:1892081
BeatmapSetID:906695

[Difficulty]
HPDrainRate:5.5
CircleSize:3.7
OverallDifficulty:7
ApproachRate:9.7
SliderMultiplier:3.09999990463257
SliderTickRate:1

[Events]
//Background and Video events
0,0,"59641_halloween_anime.jpg",0,0
//Break Periods
//Storyboard Layer 0 (Background)
//Storyboard Layer 1 (Fail)
//Storyboard Layer 2 (Pass)
//Storyboard Layer 3 (Foreground)
//Storyboard Sound Samples

[TimingPoints]
184,272.727272727273,4,1,0,100,1,0
184,-100,4,1,0,100,0,0
8897,-100,4,1,0,100,0,0
8955,-100,4,1,0,100,0,0
9296,-100,4,1,0,100,0,0
10533,-100,4,1,0,100,0,0
11079,-100,4,1,0,100,0,0
17351,-66.6666666666667,4,1,0,100,0,0
17624,-100,4,1,0,100,0,0
19942,-133.333333333333,4,1,0,100,0,0
25260,-100,4,1,0,100,0,0
25806,-86.9565217391304,4,1,0,100,0,0
30442,-50,4,1,0,100,0,0
30715,-133.333333333333,4,1,0,100,0,0
33033,-66.6666666666667,4,1,0,100,0,0
34864,-66.6666666666667,4,1,0,5,0,0
35093,-400,4,1,0,100,0,0
45456,-66.6666666666667,4,1,0,100,0,0
48170,-133.333333333333,4,1,0,100,0,0
50351,-66.6666666666667,4,1,0,100,0,0
50760,-133.333333333333,4,1,0,100,0,0
51228,-80,4,1,0,100,0,0
54184,-133.333333333333,4,1,0,100,0,0
54729,-100,4,2,0,100,0,0
54873,-100,4,2,0,100,0,0
60456,-66.6666666666667,4,2,0,100,0,0
60865,-100,4,2,0,100,0,0
61046,-80,4,1,0,100,0,0
61274,-100,4,1,0,100,0,0
62273,-100,4,1,0,100,0,0
62682,-125,4,1,0,100,0,0
63456,-133.333333333333,4,1,0,100,0,0
71093,-200,4,1,0,100,0,0
72184,-100,4,1,0,100,0,0
78729,-66.6666666666667,4,1,0,100,0,0
83093,-100,4,1,0,100,0,0
84184,-1000,4,1,0,100,0,0
85411,-66.6666666666667,4,1,0,100,0,0
85820,-133.333333333333,4,1,0,100,0,0
86093,-66.6666666666667,4,1,0,100,0,0
90047,-133.333333333333,4,1,0,100,0,0
90729,-100,4,1,0,100,0,0
94002,-100,4,2,0,50,0,1
98093,-100,4,2,0,50,0,1
101911,-133.333333333333,4,2,0,50,0,1
102729,-100,4,2,0,50,0,0
110638,-200,4,2,0,50,0,0

[HitObjects]
51,287,184,6,8,P|121:323|239:298,1,154.999995231629
339,260,456,1,0,0:0:0:0:
378,240,524,1,0,0:0:0:0:
397,193,593,1,0,0:0:0:0:
332,63,729,1,2,0:0:0:0:
179,80,865,1,0,0:0:0:0:
140,113,934,1,0,0:0:0:0:
129,158,1002,1,0,0:0:0:0:
93,310,1138,6,4,B|211:310|211:310|179:226|179:226|299:254|299:254|273:271,1,309.999990463257
288,329,1547,2,4,B|373:296|383:328|383:328|441:261,1,154.999995231629
383,122,1820,5,0,0:0:0:0:
383,156,1888,1,0,0:0:0:0:
394,136,1956,1,0,0:0:0:0:
368,135,2024,1,0,0:0:0:0:
376,122,2093,2,4,L|297:66,4,77.4999976158143
251,292,2502,5,0,0:0:0:0:
117,162,2638,1,0,0:0:0:0:
312,77,2774,5,4,0:0:0:0:
347,101,2843,1,4,0:0:0:0:
376,122,2911,1,4,0:0:0:0:
398,146,2979,1,4,0:0:0:0:
412,173,3047,2,0,B|453:237|453:237|395:306,1,154.999995231629
175,346,3320,5,0,0:0:0:0:
108,204,3456,1,0,0:0:0:0:
256,159,3593,2,4,L|216:75,2,77.4999976158143
287,68,3865,2,4,L|324:139,2,77.4999976158143
405,145,4138,5,0,0:0:0:0:
418,193,4206,1,0,0:0:0:0:
417,237,4274,5,0,0:0:0:0:
403,273,4343,1,0,0:0:0:0:
378,292,4411,5,0,0:0:0:0:
343,311,4479,1,0,0:0:0:0:
309,319,4547,2,0,P|190:316|142:269,1,154.999995231629
103,344,4820,1,0,0:0:0:0:
60,248,4956,2,0,P|54:154|110:115,1,154.999995231629
370,50,5229,5,0,0:0:0:0:
181,255,5365,1,0,0:0:0:0:
275,50,5502,2,2,B|212:142|212:142|313:239|313:239|260:291|260:291|220:315,1,309.999990463257
216,346,5911,5,0,0:0:0:0:
330,345,6047,1,0,0:0:0:0:
256,193,6184,1,0,0:0:0:0:
256,44,6320,2,0,L|255:128,3,77.4999976158143
255,182,6593,5,8,0:0:0:0:
257,236,6661,1,8,0:0:0:0:
256,290,6729,6,8,P|353:263|408:197,1,154.999995231629
408,152,7002,2,8,P|285:95|243:95,1,154.999995231629
183,87,7274,2,8,P|110:146|52:211,1,154.999995231629
123,278,7547,2,8,L|328:280,1,154.999995231629
174,189,7820,5,0,0:0:0:0:
256,61,7956,1,0,0:0:0:0:
343,195,8093,1,0,0:0:0:0:
174,189,8229,1,0,0:0:0:0:
287,52,8502,5,0,0:0:0:0:
331,66,8570,1,0,0:0:0:0:
371,105,8638,1,0,0:0:0:0:
386,161,8706,1,0,0:0:0:0:
380,221,8774,1,0,0:0:0:0:
350,267,8843,1,0,0:0:0:0:
303,286,8911,6,0,P|172:287|40:154,1,309.999990463257
83,65,9320,2,0,P|316:105|409:177,1,309.999990463257
410,299,9729,2,0,P|205:306|92:233,1,309.999990463257
54,144,10138,6,6,L|129:89,1,77.4999976158143
176,163,10274,2,6,L|253:107,1,77.4999976158143
291,39,10411,5,0,0:0:0:0:
342,41,10479,1,0,0:0:0:0:
392,53,10547,1,0,0:0:0:0:
434,83,10615,1,0,0:0:0:0:
451,130,10684,1,0,0:0:0:0:
442,181,10752,1,0,0:0:0:0:
416,228,10820,1,0,0:0:0:0:
386,265,10888,1,0,0:0:0:0:
352,299,10956,1,0,0:0:0:0:
320,323,11024,1,0,0:0:0:0:
291,351,11093,6,2,L|27:184,1,309.999990463257
61,121,11502,2,2,P|223:89|396:113,1,309.999990463257
403,191,11911,2,2,P|279:291|106:314,1,309.999990463257
96,208,12320,2,2,P|230:197|402:108,1,309.999990463257
328,52,12729,2,2,P|203:53|146:124,1,154.999995231629
108,185,13002,6,6,L|164:270,1,77.4999976158143
195,327,13138,2,6,L|291:306,1,77.4999976158143
376,278,13274,6,2,P|392:197|237:60,1,309.999990463257
188,152,13684,2,2,P|286:144|225:289,1,309.999990463257
244,208,14093,2,2,P|136:215|235:88,1,309.999990463257
190,153,14502,6,6,L|83:141,1,77.4999976158143
28,178,14638,2,6,L|33:279,1,77.4999976158143
115,312,14774,2,6,L|199:331,1,77.4999976158143
327,348,14911,5,0,0:0:0:0:
348,327,14979,1,0,0:0:0:0:
357,296,15047,1,0,0:0:0:0:
366,268,15115,1,0,0:0:0:0:
367,237,15184,1,0,0:0:0:0:
365,206,15252,1,0,0:0:0:0:
359,175,15320,1,0,0:0:0:0:
349,146,15388,1,0,0:0:0:0:
338,112,15456,6,2,B|210:69|99:45|70:163,1,309.999990463257
78,229,15865,6,2,P|231:209|384:234,1,309.999990463257
369,124,16274,2,2,P|215:109|64:140,1,309.999990463257
95,277,16684,2,2,P|222:352|347:273,1,309.999990463257
290,190,17093,6,2,P|176:177|132:131,1,154.999995231629
156,45,17365,2,2,P|219:42|360:132,1,232.500001716614
302,167,17638,6,0,P|187:179|116:221,1,154.999995231629
183,299,17911,2,0,P|260:297|332:270,1,154.999995231629
79,160,18184,5,0,0:0:0:0:
256,40,18320,1,0,0:0:0:0:
402,183,18456,2,0,P|339:251|260:289,1,154.999995231629
106,310,18729,5,0,0:0:0:0:
250,45,18865,1,0,0:0:0:0:
366,308,19002,1,0,0:0:0:0:
119,160,19138,1,0,0:0:0:0:
395,119,19274,1,0,0:0:0:0:
131,309,19411,1,0,0:0:0:0:
232,92,19547,2,0,P|333:92|377:152,1,154.999995231629
419,184,19820,5,8,0:0:0:0:
300,345,19956,2,4,L|224:315,2,58.1250004291535
225,316,20161,1,2,0:0:0:0:
206,310,20229,1,2,0:0:0:0:
188,302,20297,1,2,0:0:0:0:
171,293,20365,5,2,0:0:0:0:
156,281,20434,1,2,0:0:0:0:
143,267,20502,1,2,0:0:0:0:
131,252,20570,1,2,0:0:0:0:
121,235,20638,1,2,0:0:0:0:
113,217,20706,1,2,0:0:0:0:
104,188,20774,6,4,P|125:124|148:114,1,58.1250004291535
152,83,20911,2,4,P|213:109|213:126,1,58.1250004291535
234,142,21047,2,0,P|229:207|203:233,1,58.1250004291535
186,237,21184,2,0,P|150:235|124:209,1,58.1250004291535
66,104,21320,6,0,P|106:76|152:83,1,58.1250004291535
328,70,21456,2,0,P|357:106|337:152,1,58.1250004291535
342,298,21593,2,0,P|307:317|254:304,1,58.1250004291535
154,273,21729,6,4,P|131:227|202:241,1,116.250000858307
343,283,22002,6,4,P|438:291|492:275,1,116.250000858307
461,184,22274,2,4,P|379:180|344:152,1,116.250000858307
114,59,22547,1,2,0:0:0:0:
113,296,22684,1,2,0:0:0:0:
342,347,22820,2,0,P|429:264|413:220,1,174.37500128746
310,150,23093,5,2,0:0:0:0:
94,75,23229,1,2,0:0:0:0:
32,258,23365,1,2,0:0:0:0:
243,333,23502,1,2,0:0:0:0:
297,139,23638,1,2,0:0:0:0:
32,258,23774,1,2,0:0:0:0:
135,98,23911,6,0,P|73:129|54:190,1,116.250000858307
67,345,24184,5,8,0:0:0:0:
215,344,24320,2,4,L|291:314,2,58.1250004291535
287,316,24524,1,2,0:0:0:0:
306,310,24593,1,2,0:0:0:0:
324,302,24661,1,2,0:0:0:0:
341,293,24729,1,2,0:0:0:0:
356,281,24797,5,2,0:0:0:0:
369,267,24865,1,2,0:0:0:0:
381,252,24934,1,2,0:0:0:0:
391,235,25002,1,2,0:0:0:0:
399,217,25070,1,2,0:0:0:0:
410,189,25138,1,2,0:0:0:0:
373,92,25274,6,2,B|339:130|339:130|291:92|291:92|259:90|259:90|283:122|283:122|256:158|256:158|231:123|231:123|252:90|252:90|223:90|223:90|149:129|149:129|132:87,1,464.999985694885
259,163,25820,6,2,B|340:268|340:268|294:291|294:291|259:299|259:299|327:272|327:272|258:299|258:299|218:295|218:295|173:269|173:269|248:298,1,534.749993748665
433,257,26365,1,0,0:0:0:0:
258,80,26502,1,0,0:0:0:0:
103,255,26638,1,0,0:0:0:0:
433,257,26774,1,0,0:0:0:0:
258,80,26911,1,0,0:0:0:0:
256,326,27047,1,0,0:0:0:0:
437,186,27184,2,0,P|414:141|297:195,1,178.249997916222
254,294,27456,6,8,P|187:218|93:208,1,178.249997916222
114,204,27661,6,8,P|181:128|275:118,1,178.249997916222
253,113,27865,6,2,L|253:203,1,89.1249989581108
254,196,28002,1,2,0:0:0:0:
255,183,28070,1,2,0:0:0:0:
255,168,28138,1,2,0:0:0:0:
256,159,28206,1,2,0:0:0:0:
255,148,28274,1,2,0:0:0:0:
256,133,28343,1,2,0:0:0:0:
257,120,28411,1,0,0:0:0:0:
71,193,28547,5,4,0:0:0:0:
182,316,28684,1,4,0:0:0:0:
256,191,28820,1,4,0:0:0:0:
331,322,28956,1,4,0:0:0:0:
440,192,29093,1,4,0:0:0:0:
258,342,29229,1,0,0:0:0:0:
256,193,29365,2,0,L|255:4,1,178.249997916222
203,147,29638,6,8,P|193:204|214:256,1,89.1249989581108
297,150,29774,2,8,P|312:198|297:253,1,89.1249989581108
255,325,29979,2,0,L|256:110,1,178.249997916222
360,130,30252,5,8,0:0:0:0:
337,105,30320,1,8,0:0:0:0:
210,81,30456,2,8,P|128:73|48:121,1,154.999995231629
53,205,30593,2,8,P|156:247|230:237,1,154.999995231629
285,139,30729,2,0,P|330:88|410:38,1,116.250000858307
429,115,31002,2,0,P|381:171|299:214,1,116.250000858307
451,250,31274,1,0,0:0:0:0:
256,337,31411,5,0,0:0:0:0:
256,83,31547,2,0,L|256:246,1,116.250000858307
256,337,31820,1,0,0:0:0:0:
97,193,31956,1,0,0:0:0:0:
401,192,32093,2,0,L|247:193,1,116.250000858307
53,49,32365,5,0,0:0:0:0:
254,192,32502,1,0,0:0:0:0:
53,342,32638,2,0,P|147:313|150:248,1,174.37500128746
91,84,32911,5,8,0:0:0:0:
409,78,33047,2,4,L|239:123,1,116.250000858307
91,300,33184,5,8,0:0:0:0:
416,335,33320,2,4,L|303:305,1,116.250000858307
80,156,33456,5,8,0:0:0:0:
391,155,33593,2,4,L|221:200,1,116.250000858307
83,239,33729,5,8,0:0:0:0:
389,258,33865,2,4,L|219:213,1,116.250000858307
256,192,34002,12,0,34820,0:0:0:0:
76,339,35093,6,0,B|89:290|128:240|128:240|182:321|225:243,1,232.499992847443
257,190,36047,1,0,0:0:0:0:
306,116,36184,1,0,0:0:0:0:
461,47,36729,1,0,0:0:0:0:
360,47,37274,1,0,0:0:0:0:
417,133,37684,1,0,0:0:0:0:
418,295,38093,5,0,0:0:0:0:
418,295,38365,1,0,0:0:0:0:
330,296,38774,1,0,0:0:0:0:
257,294,38843,1,0,0:0:0:0:
185,293,38911,1,0,0:0:0:0:
418,296,39184,1,0,0:0:0:0:
350,347,39456,6,0,B|414:334|414:334|399:276|399:276|342:267|354:224|354:224,1,193.749994039536
247,192,40274,1,0,0:0:0:0:
194,113,40411,1,0,0:0:0:0:
145,190,40547,1,0,0:0:0:0:
107,117,40820,2,0,L|126:94,1,19.3749994039536
48,47,41093,1,0,0:0:0:0:
186,158,41365,1,0,0:0:0:0:
61,205,41638,5,0,0:0:0:0:
145,126,41911,1,0,0:0:0:0:
234,211,42047,1,0,0:0:0:0:
141,305,42184,1,0,0:0:0:0:
291,314,42456,5,0,0:0:0:0:
430,318,42729,1,0,0:0:0:0:
428,67,43002,1,0,0:0:0:0:
428,67,43138,1,0,0:0:0:0:
315,66,43274,1,0,0:0:0:0:
77,55,43547,5,0,0:0:0:0:
256,192,43820,1,0,0:0:0:0:
256,192,43888,12,0,45320,0:0:0:0:
95,324,45456,6,0,L|178:83,1,232.500001716614
415,325,45729,2,0,L|335:74,1,232.500001716614
255,193,46002,1,4,0:0:0:0:
97,92,46138,1,4,0:0:0:0:
116,295,46274,1,4,0:0:0:0:
60,172,46411,2,8,P|37:106|61:56,2,116.250000858307
355,92,46684,5,8,0:0:0:0:
310,307,46820,1,8,0:0:0:0:
192,88,46956,1,8,0:0:0:0:
138,294,47093,2,2,P|64:192|179:113,1,232.500001716614
147,206,47365,2,2,B|239:126|239:126|313:246|475:157,1,348.750002574921
456,160,47638,5,0,0:0:0:0:
238,127,47774,1,0,0:0:0:0:
449,297,47911,1,0,0:0:0:0:
237,254,48047,1,0,0:0:0:0:
404,67,48184,5,0,0:0:0:0:
296,141,48320,1,0,0:0:0:0:
449,200,48456,1,0,0:0:0:0:
404,67,48593,1,0,0:0:0:0:
296,141,48729,1,0,0:0:0:0:
162,194,48865,5,0,0:0:0:0:
292,290,49002,1,0,0:0:0:0:
296,141,49138,1,0,0:0:0:0:
156,196,49274,1,0,0:0:0:0:
292,290,49411,1,0,0:0:0:0:
420,214,49547,1,0,0:0:0:0:
314,142,49684,1,0,0:0:0:0:
192,312,49820,5,0,0:0:0:0:
248,297,49888,1,0,0:0:0:0:
297,267,49956,1,0,0:0:0:0:
335,224,50024,1,0,0:0:0:0:
360,187,50093,2,2,P|349:110|282:86,1,116.250000858307
106,145,50365,5,0,0:0:0:0:
200,355,50502,1,0,0:0:0:0:
298,215,50638,1,0,0:0:0:0:
164,219,50774,2,0,P|79:173|41:133,2,116.250000858307
388,230,51184,5,4,0:0:0:0:
263,95,51320,1,4,0:0:0:0:
225,348,51456,2,8,P|151:246|198:184,1,193.749994039536
253,132,51729,2,8,B|358:56|358:56|408:103,1,193.749994039536
466,190,52002,5,0,0:0:0:0:
186,275,52138,1,0,0:0:0:0:
431,307,52274,1,0,0:0:0:0:
277,120,52411,1,0,0:0:0:0:
467,207,52547,2,2,P|387:304|141:209,1,387.499988079071
120,121,52956,6,2,P|271:102|306:157,1,193.749994039536
329,211,53229,2,2,P|208:253|90:207,1,193.749994039536
51,193,53502,2,4,P|204:93|284:105,1,193.749994039536
425,98,53774,5,0,0:0:0:0:
420,323,53911,1,0,0:0:0:0:
241,58,54047,1,0,0:0:0:0:
91,158,54184,2,0,B|79:262|77:288|183:256|183:256|228:333|277:325|277:325|324:276,1,348.750002574921
346,173,54729,6,0,P|396:131|474:62,2,154.999995231629
299,336,55138,1,0,0:0:0:0:
137,260,55274,1,0,0:0:0:0:
121,248,55342,1,0,0:0:0:0:
107,235,55410,1,0,0:0:0:0:
95,219,55478,1,0,0:0:0:0:
85,203,55546,1,0,0:0:0:0:
150,61,55684,5,0,0:0:0:0:
335,74,55820,1,0,0:0:0:0:
406,196,55956,1,0,0:0:0:0:
167,205,56093,2,0,P|141:307|190:337,1,154.999995231629
328,331,56365,1,0,0:0:0:0:
353,231,56502,5,0,0:0:0:0:
360,217,56570,1,0,0:0:0:0:
363,201,56638,1,0,0:0:0:0:
366,187,56706,2,0,P|328:99|308:79,1,77.4999976158143
203,49,56911,5,0,0:0:0:0:
142,133,57047,1,0,0:0:0:0:
217,230,57183,1,0,0:0:0:0:
142,133,57320,1,0,0:0:0:0:
203,49,57456,1,0,0:0:0:0:
423,115,57592,5,0,0:0:0:0:
466,227,57729,1,0,0:0:0:0:
417,320,57865,1,0,0:0:0:0:
466,227,58001,1,0,0:0:0:0:
423,115,58138,1,0,0:0:0:0:
286,42,58274,1,0,0:0:0:0:
177,134,58411,1,0,0:0:0:0:
159,250,58547,5,0,0:0:0:0:
193,289,58615,1,0,0:0:0:0:
238,320,58683,1,0,0:0:0:0:
285,335,58751,1,0,0:0:0:0:
329,346,58820,2,2,P|394:304|389:220,1,154.999995231629
319,104,59093,5,0,0:0:0:0:
125,70,59229,1,0,0:0:0:0:
61,209,59365,1,0,0:0:0:0:
148,319,59502,2,0,P|257:316|292:277,2,154.999995231629
87,181,59911,5,0,0:0:0:0:
211,92,60047,1,0,0:0:0:0:
327,148,60184,2,0,P|370:226|402:313,1,154.999995231629
312,305,60456,2,0,P|165:260|75:194,1,232.500001716614
91,85,60729,5,0,0:0:0:0:
243,62,60865,1,0,0:0:0:0:
309,180,61002,2,0,P|278:264|214:303,1,154.999995231629
128,330,61274,6,2,P|81:213|231:59,1,309.999990463257
84,186,61683,2,2,P|132:101|195:65,1,154.999995231629
178,70,61956,2,2,P|283:97|339:161,1,154.999995231629
316,126,62229,2,4,P|334:166|305:284,1,154.999995231629
241,341,62501,5,0,0:0:0:0:
49,281,62638,1,0,0:0:0:0:
80,134,62774,1,0,0:0:0:0:
336,167,62911,2,0,B|439:162|472:51|370:116|323:224|328:116|311:-11|266:97|337:169,1,309.999990463257
438,245,63456,6,0,P|336:287|292:283,1,116.250000858307
240,249,63729,2,0,P|312:213|377:208,1,116.250000858307
125,80,64002,1,0,0:0:0:0:
256,195,64138,1,0,0:0:0:0:
385,306,64274,2,0,P|468:288|472:226,1,116.250000858307
452,64,64547,5,0,0:0:0:0:
407,258,64684,1,0,0:0:0:0:
261,64,64820,1,0,0:0:0:0:
242,285,64956,5,0,0:0:0:0:
105,77,65093,1,0,0:0:0:0:
62,327,65229,1,0,0:0:0:0:
105,77,65365,6,0,P|163:46|223:53,1,116.250000858307
349,166,65638,5,0,0:0:0:0:
344,291,65774,2,0,P|318:315|269:319,2,58.1250004291535
154,267,66047,1,0,0:0:0:0:
126,146,66184,2,0,P|189:82|250:75,1,116.250000858307
363,112,66456,5,0,0:0:0:0:
398,269,66593,1,0,0:0:0:0:
286,327,66729,2,0,P|166:328|140:320,1,116.250000858307
51,318,67002,2,0,P|50:263|82:181,1,116.250000858307
72,58,67274,5,0,0:0:0:0:
477,328,67547,1,0,0:0:0:0:
215,45,67820,6,0,L|62:84,1,116.250000858307
186,330,68093,2,0,L|323:289,1,116.250000858307
122,152,68366,1,0,0:0:0:0:
259,232,68502,1,0,0:0:0:0:
139,239,68638,2,0,L|226:159,1,116.250000858307
397,75,68911,5,0,0:0:0:0:
403,274,69048,1,0,0:0:0:0:
230,173,69184,1,0,0:0:0:0:
397,75,69320,5,0,0:0:0:0:
230,173,69457,1,0,0:0:0:0:
397,75,69593,1,0,0:0:0:0:
230,173,69729,6,0,P|183:204|171:279,1,116.250000858307
321,335,70002,5,0,0:0:0:0:
383,206,70138,1,0,0:0:0:0:
388,198,70206,1,0,0:0:0:0:
392,191,70274,1,0,0:0:0:0:
318,57,70411,1,0,0:0:0:0:
207,102,70548,2,0,P|154:126|121:172,1,116.250000858307
219,182,70820,5,0,0:0:0:0:
298,246,70957,1,0,0:0:0:0:
470,75,71093,6,0,B|413:110|413:110|403:45|403:45|413:110|413:110|395:150|395:150,1,232.499992847443
429,244,71638,2,0,B|413:305|413:305|431:345|452:342|463:328|459:318|451:305|424:283|424:283|467:276|492:260|425:243,1,271.24999165535
287,163,72184,6,0,P|222:119|210:185,1,154.999995231629
209,237,72457,2,0,P|269:284|292:233,1,154.999995231629
96,212,72730,5,0,0:0:0:0:
433,207,72866,1,0,0:0:0:0:
256,57,73002,2,0,L|256:237,1,154.999995231629
155,65,73274,5,0,0:0:0:0:
53,279,73411,1,0,0:0:0:0:
259,271,73547,1,0,0:0:0:0:
378,68,73684,5,0,0:0:0:0:
488,274,73820,1,0,0:0:0:0:
259,271,73956,1,0,0:0:0:0:
72,283,74093,6,0,P|142:200|197:155,1,154.999995231629
341,42,74366,5,8,0:0:0:0:
447,152,74502,2,4,P|438:193|408:256,2,77.4999976158143
415,244,74707,1,2,0:0:0:0:
405,265,74775,1,2,0:0:0:0:
391,284,74843,1,2,0:0:0:0:
378,302,74911,5,2,0:0:0:0:
360,318,74980,1,2,0:0:0:0:
341,330,75048,1,2,0:0:0:0:
321,341,75116,1,2,0:0:0:0:
298,349,75184,1,2,0:0:0:0:
276,355,75252,1,2,0:0:0:0:
240,359,75320,6,4,P|169:321|162:292,1,77.4999976158143
90,149,75456,1,0,0:0:0:0:
336,229,75593,1,0,0:0:0:0:
72,292,75729,1,0,0:0:0:0:
97,72,75865,1,0,0:0:0:0:
382,219,76002,1,0,0:0:0:0:
204,344,76138,1,0,0:0:0:0:
56,186,76275,6,4,P|66:137|152:89,1,154.999995231629
292,146,76548,6,4,P|398:172|437:219,1,154.999995231629
492,251,76820,2,4,P|402:277|346:232,1,154.999995231629
207,89,77093,1,2,0:0:0:0:
66,258,77230,1,2,0:0:0:0:
259,344,77366,2,0,P|357:299|373:257,1,154.999995231629
417,134,77639,5,2,0:0:0:0:
256,34,77775,1,2,0:0:0:0:
131,141,77911,1,2,0:0:0:0:
191,308,78048,1,2,0:0:0:0:
345,309,78184,1,2,0:0:0:0:
253,154,78320,1,2,0:0:0:0:
86,190,78457,6,0,P|38:239|78:348,1,154.999995231629
256,348,78729,2,4,L|358:270,1,116.250000858307
476,184,78866,5,8,0:0:0:0:
251,268,79002,2,4,L|152:171,1,116.250000858307
67,80,79138,5,8,0:0:0:0:
274,193,79275,2,4,L|368:106,1,116.250000858307
464,36,79411,5,8,0:0:0:0:
247,122,79547,2,4,L|145:23,1,116.250000858307
36,46,79684,5,0,0:0:0:0:
256,192,79820,12,0,80638,0:0:0:0:
256,192,80911,5,0,0:0:0:0:
132,298,81047,1,0,0:0:0:0:
256,194,81184,1,0,0:0:0:0:
365,303,81320,1,0,0:0:0:0:
173,247,81456,5,0,0:0:0:0:
167,234,81524,1,0,0:0:0:0:
161,222,81593,1,0,0:0:0:0:
156,213,81661,1,0,0:0:0:0:
154,206,81729,2,0,B|210:89|210:89|309:146,1,232.500001716614
381,216,82002,5,0,0:0:0:0:
345,280,82138,1,0,0:0:0:0:
278,285,82274,1,0,0:0:0:0:
221,248,82411,1,0,0:0:0:0:
157,202,82547,5,0,0:0:0:0:
157,202,82615,1,0,0:0:0:0:
157,202,82684,1,0,0:0:0:0:
157,202,82752,1,0,0:0:0:0:
157,202,82820,2,0,B|236:91|236:91|386:101,1,232.500001716614
412,211,83093,6,0,P|319:315|280:335,1,154.999995231629
184,298,83365,1,0,0:0:0:0:
181,186,83502,2,0,P|307:111|345:104,1,154.999995231629
395,181,83774,2,0,P|325:243|239:278,1,154.999995231629
129,233,84047,1,0,0:0:0:0:
160,83,84184,6,0,L|272:110,1,108.49999666214
358,131,85274,5,0,0:0:0:0:
461,283,85410,1,4,0:0:0:0:
290,333,85546,1,4,0:0:0:0:
214,184,85684,1,0,0:0:0:0:
132,135,85820,2,8,P|86:73|77:66,3,58.1250004291535
61,149,86092,5,8,0:0:0:0:
143,295,86228,1,8,0:0:0:0:
255,290,86365,2,2,P|365:281|433:138,1,232.500001716614
452,97,86637,2,2,B|331:76|331:76|322:186|238:167,1,232.500001716614
145,260,86910,5,0,0:0:0:0:
179,97,87046,1,0,0:0:0:0:
285,316,87183,1,0,0:0:0:0:
368,164,87319,1,0,0:0:0:0:
285,57,87456,5,0,0:0:0:0:
156,198,87592,1,0,0:0:0:0:
113,98,87728,1,0,0:0:0:0:
274,167,87865,1,0,0:0:0:0:
197,54,88001,1,0,0:0:0:0:
223,187,88137,5,0,0:0:0:0:
115,90,88274,1,0,0:0:0:0:
132,227,88410,1,0,0:0:0:0:
115,90,88546,1,0,0:0:0:0:
41,196,88683,1,0,0:0:0:0:
17,93,88819,1,0,0:0:0:0:
140,184,88956,1,0,0:0:0:0:
264,275,89092,5,0,0:0:0:0:
300,297,89160,1,0,0:0:0:0:
342,307,89228,1,0,0:0:0:0:
384,305,89296,1,0,0:0:0:0:
417,299,89365,2,2,P|452:253|393:92,1,232.500001716614
277,83,89637,5,0,0:0:0:0:
100,285,89774,1,0,0:0:0:0:
374,201,89910,1,0,0:0:0:0:
185,225,90047,2,0,P|92:158|76:131,2,116.250000858307
325,260,90456,5,4,0:0:0:0:
200,69,90592,1,4,0:0:0:0:
393,327,90728,2,8,P|443:230|437:196,1,116.250000858307
404,99,91001,2,8,B|358:56|358:56|191:56,1,154.999995231629
118,72,91274,5,0,0:0:0:0:
229,348,91410,1,0,0:0:0:0:
56,268,91546,1,0,0:0:0:0:
288,99,91683,1,0,0:0:0:0:
467,207,91819,6,2,P|387:304|196:247,1,309.999990463257
120,121,92228,6,2,P|271:102|293:129,1,154.999995231629
329,211,92501,6,2,P|208:253|136:227,1,154.999995231629
51,193,92774,6,4,P|204:93|231:101,1,154.999995231629
198,343,93046,5,0,0:0:0:0:
470,196,93183,1,0,0:0:0:0:
255,55,93319,1,0,0:0:0:0:
73,242,93456,2,0,B|2:52|291:4|275:338|244:409|79:402|288:224,1,581.249982118607
432,148,94002,5,8,0:0:0:0:
215,298,94138,1,8,0:0:0:0:
368,45,94274,5,8,0:0:0:0:
215,298,94411,1,8,0:0:0:0:
251,27,94547,5,8,0:0:0:0:
215,298,94684,1,8,0:0:0:0:
127,44,94820,5,8,0:0:0:0:
215,298,94956,1,8,0:0:0:0:
127,44,95093,5,8,0:0:0:0:
328,325,95229,1,8,0:0:0:0:
127,44,95365,5,8,0:0:0:0:
403,240,95502,1,2,0:0:0:0:
405,228,95570,1,2,0:0:0:0:
392,232,95638,1,2,0:0:0:0:
267,24,95774,5,8,0:0:0:0:
189,314,95911,1,8,0:0:0:0:
261,25,96047,1,8,0:0:0:0:
311,308,96184,1,8,0:0:0:0:
79,103,96320,1,2,0:0:0:0:
95,105,96388,1,2,0:0:0:0:
88,115,96456,1,2,0:0:0:0:
103,321,96593,5,8,0:0:0:0:
318,50,96729,1,8,0:0:0:0:
350,253,96865,1,0,0:0:0:0:
352,240,96934,1,2,0:0:0:0:
364,250,97002,1,2,0:0:0:0:
203,49,97138,1,8,0:0:0:0:
32,241,97274,1,8,0:0:0:0:
310,256,97411,5,8,0:0:0:0:
96,50,97547,1,8,0:0:0:0:
236,347,97684,1,8,0:0:0:0:
35,260,97820,5,8,0:0:0:0:
315,40,97956,1,8,0:0:0:0:
152,98,98093,2,2,P|211:217|291:267,1,154.999995231629
436,315,98365,5,8,0:0:0:0:
102,287,98502,1,8,0:0:0:0:
451,238,98638,5,8,0:0:0:0:
77,199,98774,1,8,0:0:0:0:
435,140,98911,5,8,0:0:0:0:
183,349,99047,1,8,0:0:0:0:
377,61,99184,5,8,0:0:0:0:
275,352,99320,1,8,0:0:0:0:
285,29,99456,5,8,0:0:0:0:
369,343,99593,1,8,0:0:0:0:
198,38,99729,5,8,0:0:0:0:
461,311,99865,1,4,0:0:0:0:
474,307,99934,1,4,0:0:0:0:
460,302,100002,1,4,0:0:0:0:
463,36,100138,1,8,0:0:0:0:
232,224,100274,6,8,L|48:331,1,154.999995231629
114,190,100547,2,8,L|308:80,1,154.999995231629
336,56,100820,5,0,0:0:0:0:
397,167,100956,2,8,P|337:241|242:273,1,154.999995231629
280,164,101229,2,8,P|170:199|125:297,1,154.999995231629
319,202,101502,2,8,P|426:134|475:63,1,154.999995231629
255,225,101774,1,0,0:0:0:0:
86,257,101911,2,4,B|116:325|116:325|172:169|250:342|249:341|249:339|249:339|285:242|374:237|398:339|398:339|432:232,1,581.250004291535
447,169,102729,6,8,P|201:114|57:83,1,387.499988079071
67,172,103138,2,8,P|225:137|456:48,1,387.499988079071
443,140,103547,2,8,P|249:195|30:260,1,387.499988079071
257,148,103956,5,4,0:0:0:0:
254,324,104093,1,4,0:0:0:0:
145,230,104229,1,0,0:0:0:0:
143,168,104297,1,0,0:0:0:0:
174,115,104365,1,0,0:0:0:0:
211,87,104434,1,0,0:0:0:0:
259,80,104502,1,0,0:0:0:0:
304,95,104570,5,0,0:0:0:0:
365,123,104638,1,0,0:0:0:0:
426,140,104706,1,0,0:0:0:0:
465,121,104774,1,0,0:0:0:0:
481,91,104843,1,0,0:0:0:0:
467,59,104911,6,8,B|244:99|244:99|96:182,1,387.499988079071
68,237,105320,2,8,P|198:214|457:96,1,387.499988079071
472,186,105729,2,8,P|333:265|98:325,1,387.499988079071
31,86,106138,2,8,P|165:75|425:151,1,387.499988079071
413,212,106547,2,8,P|356:304|237:352,1,232.499992847443
121,343,106820,5,14,0:0:0:0:
392,181,106956,1,14,0:0:0:0:
288,39,107093,2,8,P|203:58|138:266,1,232.500001716614
246,274,107502,2,8,P|197:183|362:180,1,232.500001716614
274,204,107911,2,8,P|320:292|176:256,1,232.500001716614
246,272,108320,5,14,0:0:0:0:
430,344,108456,1,14,0:0:0:0:
411,172,108593,1,14,0:0:0:0:
383,72,108729,5,0,0:0:0:0:
332,55,108797,1,0,0:0:0:0:
281,81,108865,1,0,0:0:0:0:
249,130,108934,1,0,0:0:0:0:
227,166,109002,1,0,0:0:0:0:
192,185,109070,1,0,0:0:0:0:
149,190,109138,1,0,0:0:0:0:
101,176,109206,1,0,0:0:0:0:
62,160,109274,6,8,B|72:276|92:372|196:353,1,232.500001716614
256,192,109684,2,8,P|373:117|495:144,1,232.500001716614
470,208,109956,2,8,P|358:276|217:328,1,232.500001716614
65,208,110229,1,0,0:0:0:0:
266,130,110365,2,8,P|366:227|305:307,1,232.500001716614,0|0,0:0|0:0,0:0:0:0:
281,211,110638,6,8,L|192:252,1,77.4999976158143
210,243,110911,2,8,L|305:201,1,77.4999976158143
