osu file format v14

[General]
AudioFilename: audio.mp3
AudioLeadIn: 0
PreviewTime: 289
Countdown: 0
SampleSet: Soft
StackLeniency: 0.7
Mode: 3
LetterboxInBreaks: 0
SpecialStyle: 0
WidescreenStoryboard: 0

[Editor]
DistanceSpacing: 1.2
BeatDivisor: 4
GridSize: 4
TimelineZoom: 1

[Metadata]
Title:Interlude - teatime
TitleUnicode:Interlude - teatime
Artist:C.H.S
ArtistUnicode:C.H.S
Creator:Weber
Version:EZ
Source:東方紅魔郷 ~ the Embodiment of Scarlet Devil
Tags:リズナ Rizna t+pazolite 東方project Cheesecake honey scream C.H.S C78 2010 touhou 東方紅魔郷 the embodiment of scarlet devil 上海紅茶館 chinese tea shanghai teahouse 紅 美鈴 hong meiling 東方ヴォーカルアレンジ Ayyri Magic Bomb Chara
BeatmapID:1077305
BeatmapSetID:505458

[Difficulty]
HPDrainRate:6
CircleSize:4
OverallDifficulty:7
ApproachRate:3
SliderMultiplier:0.8
SliderTickRate:1

[Events]
//Background and Video events
0,0,"__flandre_scarlet_hakurei_reimu_hong_meiling_izayoi_sakuya_kirisame_marisa_and_others_touhou_drawn_by_chamaji__3d01d40617780c7836dc9d1a8207b320.jpg",0,0
//Break Periods
//Storyboard Layer 0 (Background)
//Storyboard Layer 1 (Fail)
//Storyboard Layer 2 (Pass)
//Storyboard Layer 3 (Foreground)
//Storyboard Sound Samples

[TimingPoints]
289,600,4,2,0,30,1,0

[HitObjects]
64,192,289,128,0,1189:0:0:0:0:
320,192,1189,1,0,0:0:0:0:
192,192,1489,1,0,0:0:0:0:
448,192,1939,1,0,0:0:0:0:
320,192,2389,1,0,0:0:0:0:
64,192,2689,1,0,0:0:0:0:
192,192,2989,1,0,0:0:0:0:
320,192,3289,1,0,0:0:0:0:
448,192,3589,1,0,0:0:0:0:
64,192,5089,128,0,5989:0:0:0:0:
320,192,5989,1,0,0:0:0:0:
192,192,6289,1,0,0:0:0:0:
320,192,6739,1,0,0:0:0:0:
448,192,7189,1,0,0:0:0:0:
192,192,7489,128,0,9889:0:0:0:0:
64,192,9889,128,0,10789:0:0:0:0:
320,192,10789,1,0,0:0:0:0:
192,192,11089,1,0,0:0:0:0:
448,192,11539,1,0,0:0:0:0:
320,192,11989,1,0,0:0:0:0:
448,192,12289,1,0,0:0:0:0:
320,192,12589,1,0,0:0:0:0:
448,192,12889,1,0,0:0:0:0:
320,192,13189,1,0,0:0:0:0:
448,192,13489,128,0,13939:0:0:0:0:
64,192,13939,1,0,0:0:0:0:
320,192,14389,1,0,0:0:0:0:
448,192,14689,1,0,0:0:0:0:
192,192,14989,1,0,0:0:0:0:
448,192,15589,1,0,0:0:0:0:
320,192,15739,1,0,0:0:0:0:
192,192,15889,128,0,16339:0:0:0:0:
64,192,16339,1,0,0:0:0:0:
64,192,16789,1,0,0:0:0:0:
192,192,17089,1,0,0:0:0:0:
64,192,17389,1,0,0:0:0:0:
192,192,17689,1,0,0:0:0:0:
320,192,17989,128,0,19489:0:0:0:0:
192,192,19489,128,0,20389:0:0:0:0:
320,192,20389,1,0,0:0:0:0:
64,192,20689,1,0,0:0:0:0:
448,192,21139,128,0,21589:0:0:0:0:
320,192,21589,1,0,0:0:0:0:
192,192,21889,1,0,0:0:0:0:
64,192,22189,1,0,0:0:0:0:
320,192,22489,1,0,0:0:0:0:
448,192,22789,128,0,24289:0:0:0:0:
64,192,24289,128,0,25189:0:0:0:0:
320,192,25189,1,0,0:0:0:0:
192,192,25489,1,0,0:0:0:0:
320,192,25939,1,0,0:0:0:0:
448,192,26389,1,0,0:0:0:0:
192,192,26689,128,0,29089:0:0:0:0:
64,192,29089,128,0,29989:0:0:0:0:
448,192,29989,1,0,0:0:0:0:
192,192,30289,1,0,0:0:0:0:
320,192,30739,1,0,0:0:0:0:
320,192,31189,1,0,0:0:0:0:
448,192,31489,1,0,0:0:0:0:
192,192,31789,1,0,0:0:0:0:
448,192,32089,1,0,0:0:0:0:
192,192,32389,1,0,0:0:0:0:
320,192,32689,1,0,0:0:0:0:
448,192,33139,128,0,33589:0:0:0:0:
192,192,33589,1,0,0:0:0:0:
320,192,33889,1,0,0:0:0:0:
64,192,34189,1,0,0:0:0:0:
192,192,34789,1,0,0:0:0:0:
448,192,34939,1,0,0:0:0:0:
320,192,35089,128,0,35539:0:0:0:0:
192,192,35539,1,0,0:0:0:0:
64,192,35989,1,0,0:0:0:0:
192,192,36289,1,0,0:0:0:0:
64,192,36589,1,0,0:0:0:0:
192,192,36889,1,0,0:0:0:0:
320,192,37189,128,0,38689:0:0:0:0:
64,192,38689,128,0,39589:0:0:0:0:
320,192,39589,1,0,0:0:0:0:
192,192,39889,1,0,0:0:0:0:
448,192,40339,1,0,0:0:0:0:
320,192,40789,1,0,0:0:0:0:
192,192,41089,1,0,0:0:0:0:
64,192,41389,1,0,0:0:0:0:
192,192,41689,1,0,0:0:0:0:
448,192,41989,1,0,0:0:0:0:
64,192,43489,128,0,44389:0:0:0:0:
320,192,44389,1,0,0:0:0:0:
192,192,44689,1,0,0:0:0:0:
448,192,45139,1,0,0:0:0:0:
320,192,45589,1,0,0:0:0:0:
64,192,45889,1,0,0:0:0:0:
64,192,48289,128,0,49189:0:0:0:0:
320,192,49189,1,0,0:0:0:0:
192,192,49489,1,0,0:0:0:0:
320,192,49939,1,0,0:0:0:0:
192,192,50389,1,0,0:0:0:0:
448,192,50689,1,0,0:0:0:0:
64,192,50989,1,0,0:0:0:0:
448,192,51289,1,0,0:0:0:0:
64,192,51589,1,0,0:0:0:0:
192,192,51889,128,0,52339:0:0:0:0:
320,192,52339,1,0,0:0:0:0:
320,192,52789,1,0,0:0:0:0:
448,192,53089,1,0,0:0:0:0:
320,192,53389,1,0,0:0:0:0:
448,192,53989,1,0,0:0:0:0:
320,192,54139,1,0,0:0:0:0:
192,192,54289,1,0,0:0:0:0:
192,192,54739,1,0,0:0:0:0:
64,192,55189,1,0,0:0:0:0:
192,192,55489,1,0,0:0:0:0:
64,192,55789,1,0,0:0:0:0:
192,192,56089,1,0,0:0:0:0:
448,192,56389,1,0,0:0:0:0:
