osu file format v14

[General]
AudioFilename: audio.mp3
AudioLeadIn: 0
PreviewTime: 289
Countdown: 0
SampleSet: Soft
StackLeniency: 0.7
Mode: 2
LetterboxInBreaks: 0
WidescreenStoryboard: 0

[Editor]
DistanceSpacing: 1.4
BeatDivisor: 4
GridSize: 16
TimelineZoom: 1

[Metadata]
Title:Interlude - teatime
TitleUnicode:Interlude - teatime
Artist:C.H.S
ArtistUnicode:C.H.S
Creator:Weber
Version:Cup
Source:東方紅魔郷 ~ the Embodiment of Scarlet Devil
Tags:リズナ Rizna t+pazolite 東方project Cheesecake honey scream C.H.S C78 2010 touhou 東方紅魔郷 the embodiment of scarlet devil 上海紅茶館 chinese tea shanghai teahouse 紅 美鈴 hong meiling 東方ヴォーカルアレンジ Ayyri Magic Bomb Chara
BeatmapID:1077936
BeatmapSetID:505458

[Difficulty]
HPDrainRate:3
CircleSize:2
OverallDifficulty:6
ApproachRate:6
SliderMultiplier:1.4
SliderTickRate:1

[Events]
//Background and Video events
0,0,"__flandre_scarlet_hakurei_reimu_hong_meiling_izayoi_sakuya_kirisame_marisa_and_others_touhou_drawn_by_chamaji__3d01d40617780c7836dc9d1a8207b320.jpg",0,0
//Break Periods
//Storyboard Layer 0 (Background)
//Storyboard Layer 1 (Fail)
//Storyboard Layer 2 (Pass)
//Storyboard Layer 3 (Foreground)
//Storyboard Sound Samples

[TimingPoints]
289,600,4,2,0,100,1,0

[HitObjects]
120,192,289,5,0,0:0:0:0:
412,192,1189,2,0,L|332:192,1,70
512,192,1939,1,0,0:0:0:0:
352,192,2389,1,0,0:0:0:0:
244,192,2689,6,0,L|172:192,1,70
272,192,3289,2,0,L|348:192,1,70
120,192,5089,5,0,0:0:0:0:
416,192,5989,2,0,L|336:192,1,70
200,192,6739,1,0,0:0:0:0:
346,192,7189,2,0,L|424:192,1,70
120,192,9889,5,0,0:0:0:0:
412,192,10789,2,0,L|336:192,1,70
488,192,11539,1,0,0:0:0:0:
342,192,11989,1,0,0:0:0:0:
440,192,12289,5,0,0:0:0:0:
342,192,12589,1,0,0:0:0:0:
440,192,12889,1,0,0:0:0:0:
342,192,13189,1,0,0:0:0:0:
440,192,13489,2,0,L|488:96,1,105
512,192,14389,5,0,0:0:0:0:
384,192,14689,2,0,L|312:192,1,70
112,192,15589,2,0,L|48:192,2,35
276,192,16339,2,0,L|276:88,1,105
384,192,17089,5,0,0:0:0:0:
276,192,17389,1,0,0:0:0:0:
384,192,17689,1,0,0:0:0:0:
512,192,17989,1,0,0:0:0:0:
252,192,19489,5,0,0:0:0:0:
4,192,20389,2,0,L|80:192,1,70
240,192,21139,1,0,0:0:0:0:
400,192,21589,1,0,0:0:0:0:
272,192,21889,6,0,L|200:192,1,70
104,192,22489,2,0,L|180:192,1,70
440,192,24289,5,0,0:0:0:0:
144,192,25189,2,0,L|60:192,1,70
220,192,25939,1,0,0:0:0:0:
384,192,26389,2,0,L|308:192,1,70
28,192,29089,5,0,0:0:0:0:
320,192,29989,2,0,L|228:192,1,70
104,192,30739,1,0,0:0:0:0:
252,192,31189,1,0,0:0:0:0:
368,192,31489,5,0,0:0:0:0:
252,192,31789,1,0,0:0:0:0:
144,192,32089,1,0,0:0:0:0:
252,192,32389,1,0,0:0:0:0:
368,192,32689,6,0,L|252:192,1,105
96,192,33589,1,0,0:0:0:0:
208,192,33889,2,0,B|136:192,1,70
320,192,34789,2,0,B|368:172,2,35
168,192,35539,1,0,0:0:0:0:
16,192,35989,1,0,0:0:0:0:
128,192,36289,2,0,L|224:192,1,70
288,192,36889,2,0,L|192:192,1,70
480,192,38689,5,0,0:0:0:0:
188,192,39589,1,0,0:0:0:0:
80,192,39889,1,0,0:0:0:0:
256,192,40339,1,0,0:0:0:0:
400,192,40789,1,0,0:0:0:0:
272,192,41089,2,0,L|176:192,3,70
72,192,43489,5,0,0:0:0:0:
268,192,44389,1,0,0:0:0:0:
163,192,44689,2,0,L|291:192,1,105
424,192,45589,2,0,L|340:192,1,70
84,192,48289,5,0,0:0:0:0:
376,192,49189,2,0,L|288:192,1,70
160,192,49939,2,0,L|24:192,1,105
160,192,50689,2,0,L|64:192,1,70
192,192,51289,2,0,L|288:192,1,70
160,192,51889,1,0,0:0:0:0:
300,192,52339,2,0,B|300:72,1,105
256,192,53089,1,0,0:0:0:0:
160,192,53389,1,0,0:0:0:0:
256,192,53689,12,0,56389,0:0:0:0:
