osu file format v14

[General]
AudioFilename: audio.mp3
AudioLeadIn: 0
PreviewTime: 289
Countdown: 0
SampleSet: Normal
StackLeniency: 0.7
Mode: 1
LetterboxInBreaks: 0
WidescreenStoryboard: 1

[Editor]
DistanceSpacing: 1.4
BeatDivisor: 4
GridSize: 32
TimelineZoom: 1

[Metadata]
Title:Interlude - teatime
TitleUnicode:Interlude - teatime
Artist:C.H.S
ArtistUnicode:C.H.S
Creator:Gabe
Version:futsuu
Source:東方紅魔郷 ~ the Embodiment of Scarlet Devil.
Tags:Honey I Scream 上海紅茶館 Chinese Tea Shanghai Teahouse Hong Meiling リズナ Rizna t+pazolite touhou 東方project veus
BeatmapID:1226793
BeatmapSetID:579359

[Difficulty]
HPDrainRate:8
CircleSize:2
OverallDifficulty:4
ApproachRate:5
SliderMultiplier:1.6
SliderTickRate:1

[Events]
//Background and Video events
0,0,"day.jpg",0,60
//Break Periods
//Storyboard Layer 0 (Background)
//Storyboard Layer 1 (Fail)
//Storyboard Layer 2 (Pass)
//Storyboard Layer 3 (Foreground)
//Storyboard Sound Samples

[TimingPoints]
289,600,4,1,0,40,1,0
49489,-100,4,1,0,35,0,0
50089,-100,4,1,0,32,0,0
50689,-100,4,1,0,30,0,0
51289,-100,4,1,0,28,0,0
51889,-100,4,1,0,25,0,0
52489,-100,4,1,0,22,0,0
53089,-100,4,1,0,20,0,0
54289,-100,4,1,0,14,0,0
54889,-100,4,1,0,11,0,0
55489,-100,4,1,0,5,0,0

[Colours]
Combo1 : 255,255,255
Combo2 : 255,255,255

[HitObjects]
192,192,289,5,0,0:0:0:0:
320,192,1489,1,8,0:0:0:0:
320,192,2389,1,8,0:0:0:0:
192,192,2689,1,0,0:0:0:0:
192,192,3289,1,0,0:0:0:0:
320,192,3589,1,8,0:0:0:0:
192,192,5089,1,0,0:0:0:0:
320,192,6289,1,8,0:0:0:0:
192,192,7189,1,0,0:0:0:0:
192,192,7489,1,0,0:0:0:0:
192,192,9889,1,0,0:0:0:0:
320,192,10789,1,8,0:0:0:0:
320,192,11089,1,8,0:2:0:0:
320,192,11689,1,8,0:2:0:0:
192,192,12289,1,0,0:2:0:0:
192,192,12889,1,0,0:2:0:0:
192,192,13189,1,0,0:2:0:0:
320,192,13489,1,8,0:2:0:0:
320,192,14089,1,8,0:2:0:0:
320,192,14689,1,8,0:2:0:0:
192,192,14989,1,0,0:2:0:0:
192,192,15889,1,0,0:2:0:0:
320,192,16789,1,8,0:2:0:0:
320,192,17089,1,8,0:2:0:0:
192,192,17689,1,0,0:2:0:0:
192,192,17989,1,0,0:2:0:0:
192,192,19489,1,0,0:0:0:0:
320,192,20689,1,8,0:0:0:0:
320,192,21589,1,8,0:0:0:0:
192,192,21889,1,0,0:0:0:0:
192,192,22489,1,0,0:0:0:0:
320,192,22789,1,8,0:0:0:0:
192,192,24289,1,0,0:0:0:0:
320,192,25489,1,8,0:0:0:0:
192,192,26389,1,0,0:0:0:0:
192,192,26689,1,0,0:0:0:0:
192,192,29089,1,0,0:0:0:0:
320,192,29989,1,8,0:0:0:0:
320,192,30289,1,8,0:2:0:0:
320,192,30889,1,8,0:2:0:0:
192,192,31489,1,0,0:2:0:0:
192,192,32089,1,0,0:2:0:0:
192,192,32389,1,0,0:2:0:0:
320,192,32689,1,8,0:2:0:0:
320,192,33289,1,8,0:2:0:0:
320,192,33889,1,8,0:2:0:0:
192,192,34189,1,0,0:2:0:0:
192,192,35089,1,0,0:2:0:0:
320,192,35989,1,8,0:2:0:0:
320,192,36289,1,8,0:2:0:0:
192,192,36889,1,0,0:2:0:0:
192,192,37189,1,0,0:2:0:0:
192,192,38689,1,0,0:0:0:0:
320,192,39889,1,8,0:0:0:0:
320,192,40789,1,8,0:0:0:0:
192,192,41089,1,0,0:0:0:0:
192,192,41689,1,0,0:0:0:0:
320,192,41989,1,8,0:0:0:0:
192,192,43489,1,0,0:0:0:0:
320,192,44689,1,8,0:0:0:0:
192,192,45589,1,0,0:0:0:0:
192,192,45889,1,0,0:0:0:0:
192,192,48289,1,0,0:0:0:0:
320,192,49189,1,8,0:0:0:0:
320,192,49489,1,8,0:2:0:0:
320,192,50089,1,8,0:2:0:0:
192,192,50689,1,0,0:2:0:0:
192,192,51289,1,0,0:2:0:0:
192,192,51589,1,0,0:2:0:0:
320,192,51889,1,8,0:2:0:0:
320,192,52489,1,8,0:2:0:0:
320,192,53089,1,8,0:2:0:0:
192,192,53389,1,0,0:2:0:0:
192,192,54289,1,0,0:2:0:0:
320,192,55189,1,8,0:2:0:0:
320,192,55489,1,8,0:2:0:0:
192,192,56389,1,0,0:2:0:0:
