osu file format v14

[General]
AudioFilename: audio.mp3
AudioLeadIn: 0
PreviewTime: 2265
Countdown: 0
SampleSet: Normal
StackLeniency: 0.7
Mode: 1
LetterboxInBreaks: 0
WidescreenStoryboard: 0

[Editor]
DistanceSpacing: 0.8
BeatDivisor: 4
GridSize: 32
TimelineZoom: 1

[Metadata]
Title:Interlude - teatime
TitleUnicode:Interlude - teatime
Artist:C.H.S
ArtistUnicode:C.H.S
Creator:Ascendance
Version:Muzukashii
Source:東方紅魔郷 ~ the Embodiment of Scarlet Devil.
Tags:Honey I Scream 上海紅茶館 Chinese Tea Shanghai Teahouse Hong Meiling hikikochan energeh リズナ Rizna t+pazolite 東方project
BeatmapID:1178643
BeatmapSetID:556969

[Difficulty]
HPDrainRate:7
CircleSize:7
OverallDifficulty:4.5
ApproachRate:10
SliderMultiplier:1.4
SliderTickRate:1

[Events]
//Background and Video events
0,0,"cropped-1920-1080-552127.jpg",0,0
//Break Periods
//Storyboard Layer 0 (Background)
//Storyboard Layer 1 (Fail)
//Storyboard Layer 2 (Pass)
//Storyboard Layer 3 (Foreground)
//Storyboard Sound Samples

[TimingPoints]
2415.74775182892,600,4,1,0,20,1,0
50415,-100,4,1,0,15,0,0
55215,-100,4,1,0,10,0,0

[HitObjects]
256,192,2415,5,0,0:0:0:0:
256,96,3315,1,8,0:0:0:0:
256,160,3615,1,0,0:0:0:0:
256,32,4065,1,8,0:0:0:0:
256,96,4515,1,0,0:0:0:0:
256,160,4815,1,0,0:0:0:0:
256,160,5115,1,0,0:0:0:0:
256,160,5415,1,0,0:0:0:0:
256,160,5715,1,8,0:0:0:0:
256,256,7215,1,0,0:0:0:0:
256,64,8115,1,8,0:0:0:0:
256,128,8415,1,0,0:0:0:0:
256,128,8865,1,0,0:0:0:0:
256,32,9315,1,8,0:0:0:0:
256,192,9615,1,0,0:0:0:0:
256,192,12015,1,0,0:0:0:0:
256,64,12915,1,8,0:0:0:0:
256,128,13215,1,0,0:0:0:0:
256,224,13665,1,0,0:0:0:0:
256,160,14115,1,0,0:0:0:0:
256,96,14415,1,8,0:0:0:0:
256,160,14715,1,0,0:0:0:0:
256,96,15015,1,8,0:0:0:0:
256,96,15315,1,0,0:0:0:0:
256,96,15615,1,8,0:0:0:0:
256,32,16065,1,8,0:0:0:0:
256,32,16515,1,0,0:0:0:0:
256,128,16815,1,12,0:0:0:0:
256,192,17115,1,0,0:0:0:0:
256,192,17715,1,0,0:0:0:0:
256,128,17865,1,8,0:0:0:0:
256,192,18015,1,0,0:0:0:0:
256,256,18465,1,0,0:0:0:0:
320,256,18915,1,0,0:0:0:0:
320,192,19215,1,8,0:0:0:0:
384,192,19515,1,0,0:0:0:0:
320,192,19815,1,0,0:0:0:0:
384,192,20115,1,8,0:0:0:0:
256,192,21615,5,0,0:0:0:0:
256,96,22515,1,8,0:0:0:0:
256,160,22815,1,0,0:0:0:0:
256,32,23265,1,8,0:0:0:0:
256,96,23715,1,0,0:0:0:0:
256,160,24015,1,8,0:0:0:0:
256,160,24315,1,0,0:0:0:0:
256,160,24615,1,0,0:0:0:0:
256,160,24915,1,8,0:0:0:0:
256,256,26415,1,0,0:0:0:0:
256,64,27315,1,8,0:0:0:0:
256,128,27615,1,0,0:0:0:0:
256,128,28065,1,8,0:0:0:0:
256,32,28515,1,8,0:0:0:0:
256,192,28815,1,0,0:0:0:0:
256,192,31215,1,0,0:0:0:0:
256,64,32115,1,8,0:0:0:0:
256,128,32415,1,0,0:0:0:0:
256,224,32865,1,0,0:0:0:0:
256,160,33315,1,0,0:0:0:0:
256,96,33615,1,8,0:0:0:0:
256,160,33915,1,0,0:0:0:0:
256,96,34215,1,8,0:0:0:0:
256,96,34515,1,0,0:0:0:0:
256,96,34815,1,8,0:0:0:0:
256,32,35265,1,8,0:0:0:0:
256,32,35715,1,0,0:0:0:0:
256,128,36015,1,12,0:0:0:0:
256,192,36315,1,0,0:0:0:0:
256,192,36915,1,0,0:0:0:0:
256,128,37065,1,8,0:0:0:0:
256,192,37215,1,0,0:0:0:0:
256,256,37665,1,8,0:0:0:0:
320,256,38115,1,0,0:0:0:0:
320,192,38415,1,8,0:0:0:0:
384,192,38715,1,0,0:0:0:0:
320,192,39015,1,8,0:0:0:0:
384,192,39315,1,8,0:0:0:0:
256,192,40815,5,0,0:0:0:0:
256,96,41715,1,8,0:0:0:0:
256,160,42015,1,0,0:0:0:0:
256,32,42465,1,8,0:0:0:0:
256,96,42915,1,8,0:0:0:0:
256,160,43215,1,8,0:0:0:0:
256,160,43515,1,0,0:0:0:0:
256,160,43815,1,0,0:0:0:0:
256,160,44115,1,8,0:0:0:0:
256,256,45615,1,0,0:0:0:0:
256,64,46515,1,0,0:0:0:0:
256,128,46815,1,0,0:0:0:0:
256,128,47265,1,2,0:0:0:0:
256,32,47715,1,8,0:0:0:0:
256,192,48015,1,0,0:0:0:0:
256,192,50415,1,0,0:0:0:0:
256,64,51315,1,8,0:0:0:0:
256,128,51615,1,0,0:0:0:0:
256,224,52065,1,2,0:0:0:0:
256,160,52515,1,0,0:0:0:0:
256,96,52815,1,8,0:0:0:0:
256,160,53115,1,0,0:0:0:0:
256,96,53415,1,8,0:0:0:0:
256,96,53715,1,0,0:0:0:0:
256,96,54015,1,8,0:0:0:0:
256,32,54465,1,0,0:0:0:0:
256,32,54915,1,0,0:0:0:0:
256,128,55215,1,12,0:0:0:0:
256,192,55515,1,0,0:0:0:0:
256,192,56115,1,0,0:0:0:0:
256,128,56265,1,8,0:0:0:0:
256,192,56415,1,0,0:0:0:0:
256,256,56865,1,0,0:0:0:0:
320,256,57315,1,8,0:0:0:0:
320,192,57615,1,8,0:0:0:0:
384,192,57915,1,0,0:0:0:0:
320,192,58215,1,8,0:0:0:0:
384,192,58515,1,8,0:0:0:0:
