osu file format v14

[General]
AudioFilename: C.H.S - Grimed Grim Grimoire.mp3
AudioLeadIn: 0
PreviewTime: -1
Countdown: 1
SampleSet: Soft
StackLeniency: 0.7
Mode: 2
LetterboxInBreaks: 1
WidescreenStoryboard: 1

[Editor]
Bookmarks: 18951,40024,58756,96219,114951,133683,173488,192219
DistanceSpacing: 0.8
BeatDivisor: 4
GridSize: 8
TimelineZoom: 3.499999

[Metadata]
Title:Grimed Grim Grimoire
TitleUnicode:Grimed Grim Grimoire
Artist:C.H.S
ArtistUnicode:C.H.S
Creator:Leherketa
Version:Wonderland
Source:
Tags:
BeatmapID:1718707
BeatmapSetID:819776

[Difficulty]
HPDrainRate:5
CircleSize:4
OverallDifficulty:9.3
ApproachRate:9.6
SliderMultiplier:1.8
SliderTickRate:3

[Events]
//Background and Video events
0,0,"387819.jpg",0,0
//Break Periods
//Storyboard Layer 0 (Background)
//Storyboard Layer 1 (Fail)
//Storyboard Layer 2 (Pass)
//Storyboard Layer 3 (Foreground)
//Storyboard Sound Samples

[TimingPoints]
219.842029022657,292.682926829268,4,2,0,100,1,0

[HitObjects]
198,188,219,6,0,L|26:126,1,180
187,124,805,2,0,L|352:123,1,135
477,217,1244,2,0,L|356:217,1,90
228,220,1536,6,0,L|228:116,1,90
311,131,1829,1,0,0:0:0:0:
90,128,1975,2,0,P|36:161|67:250,1,135
354,255,2414,2,0,L|474:253,1,90
260,249,2853,1,0,0:0:0:0:
155,179,3146,6,0,L|3:175,2,135
459,186,3732,1,0,0:0:0:0:
459,186,4171,1,0,0:0:0:0:
52,182,4317,1,0,0:0:0:0:
179,188,4902,6,0,L|343:188,1,135
460,269,5341,2,0,L|356:273,1,90
109,266,5780,1,0,0:0:0:0:
295,135,6073,6,0,L|437:140,1,135
295,135,6512,2,0,L|393:139,1,90
88,142,6951,1,0,0:0:0:0:
213,208,7244,6,0,L|356:216,1,135
213,208,7683,1,0,0:0:0:0:
348,217,7829,1,0,0:0:0:0:
85,214,8414,1,0,0:0:0:0:
197,219,8707,5,0,0:0:0:0:
286,219,8853,1,0,0:0:0:0:
376,220,9000,2,0,L|203:222,1,135
335,220,9439,1,0,0:0:0:0:
60,219,9585,1,0,0:0:0:0:
124,219,9878,5,0,0:0:0:0:
263,219,10024,1,0,0:0:0:0:
124,219,10171,1,0,0:0:0:0:
335,220,10390,6,0,L|458:123,1,135
109,99,10756,1,0,0:0:0:0:
25,102,11049,1,0,0:0:0:0:
109,99,11195,1,0,0:0:0:0:
193,97,11341,2,0,L|359:94,2,135
484,100,11927,1,0,0:0:0:0:
402,145,12219,6,0,L|290:146,2,90
402,145,12658,1,0,0:0:0:0:
312,145,12951,1,0,0:0:0:0:
39,153,13097,1,0,0:0:0:0:
39,153,13536,1,0,0:0:0:0:
465,161,13683,1,0,0:0:0:0:
370,184,13975,5,0,0:0:0:0:
275,184,14121,1,0,0:0:0:0:
48,186,14267,1,0,0:0:0:0:
403,180,14488,1,0,0:0:0:0:
299,238,14707,2,0,L|185:236,1,90
457,240,15146,1,0,0:0:0:0:
326,165,15439,6,0,L|185:175,1,135
292,226,15878,2,0,L|401:236,1,90
163,229,16317,1,0,0:0:0:0:
301,119,16610,2,0,L|440:114,1,135
301,119,17049,2,0,L|207:122,1,90
117,125,17390,5,0,0:0:0:0:
428,124,17585,1,0,0:0:0:0:
117,125,17780,1,0,0:0:0:0:
428,124,18366,1,0,0:0:0:0:
251,200,18951,5,0,0:0:0:0:
143,206,19097,1,0,0:0:0:0:
86,205,19170,1,0,0:0:0:0:
143,206,19243,1,0,0:0:0:0:
402,204,19390,1,0,0:0:0:0:
143,206,19536,1,0,0:0:0:0:
86,205,19609,1,0,0:0:0:0:
143,206,19682,1,0,0:0:0:0:
402,204,19829,1,0,0:0:0:0:
454,205,19976,5,0,0:0:0:0:
402,204,20049,1,0,0:0:0:0:
119,283,20122,1,0,0:0:0:0:
190,79,20268,2,0,L|281:78,1,90
365,79,20561,1,0,0:0:0:0:
387,78,20597,1,0,0:0:0:0:
409,78,20634,1,0,0:0:0:0:
432,78,20670,1,0,0:0:0:0:
453,80,20707,1,0,0:0:0:0:
365,264,20853,5,0,0:0:0:0:
103,261,20927,1,0,0:0:0:0:
365,264,21000,1,0,0:0:0:0:
512,265,21146,1,0,0:0:0:0:
512,265,21183,1,0,0:0:0:0:
512,265,21219,1,0,0:0:0:0:
512,265,21256,1,0,0:0:0:0:
512,265,21293,1,0,0:0:0:0:
406,182,21439,5,0,0:0:0:0:
336,182,21512,1,0,0:0:0:0:
265,181,21585,1,0,0:0:0:0:
112,176,21732,1,0,0:0:0:0:
192,102,21878,2,0,L|248:102,2,45
102,107,22171,1,0,0:0:0:0:
192,102,22317,2,0,L|253:107,1,45
103,179,22463,5,0,0:0:0:0:
181,178,22610,5,0,0:0:0:0:
226,178,22683,1,0,0:0:0:0:
270,179,22756,2,0,L|324:180,1,45
344,179,22902,1,0,0:0:0:0:
408,263,23049,5,0,0:0:0:0:
240,265,23122,1,0,0:0:0:0:
75,267,23195,1,0,0:0:0:0:
240,265,23268,1,0,0:0:0:0:
408,263,23341,1,0,0:0:0:0:
408,263,23488,5,0,0:0:0:0:
402,103,23634,1,0,0:0:0:0:
352,103,23707,1,0,0:0:0:0:
402,103,23780,1,0,0:0:0:0:
352,103,23853,1,0,0:0:0:0:
111,104,23927,5,0,0:0:0:0:
111,104,23963,1,0,0:0:0:0:
111,104,24000,1,0,0:0:0:0:
433,102,24073,2,0,L|489:101,2,45
366,106,24293,1,0,0:0:0:0:
297,106,24366,1,0,0:0:0:0:
86,110,24512,5,0,0:0:0:0:
208,194,24658,2,0,L|159:193,1,45
271,257,24878,2,0,L|218:258,1,45
366,317,25097,2,0,L|309:318,1,45
266,313,25244,1,0,0:0:0:0:
243,316,25280,1,0,0:0:0:0:
221,314,25317,1,0,0:0:0:0:
199,309,25353,1,0,0:0:0:0:
441,313,25390,1,0,0:0:0:0:
459,223,25536,5,0,0:0:0:0:
512,221,25610,1,0,0:0:0:0:
459,223,25683,1,0,0:0:0:0:
360,224,25829,1,0,0:0:0:0:
256,224,25975,1,0,0:0:0:0:
280,144,26122,2,0,L|325:148,2,45
152,147,26414,5,0,0:0:0:0:
222,146,26561,1,0,0:0:0:0:
161,194,26634,2,0,L|107:195,1,45
229,200,26780,2,0,L|279:199,1,45
345,240,27000,2,0,L|401:237,1,45
450,240,27146,2,0,L|484:239,6,22.5
129,239,27439,5,0,0:0:0:0:
25,241,27585,1,0,0:0:0:0:
129,239,27732,1,0,0:0:0:0:
78,133,27878,5,0,0:0:0:0:
266,132,27951,1,0,0:0:0:0:
442,135,28024,2,0,L|491:139,1,45
404,216,28171,2,0,L|314:212,1,90
205,208,28463,2,0,L|142:207,2,45
315,212,28756,1,0,0:0:0:0:
205,208,28902,1,0,0:0:0:0:
90,200,29049,5,0,0:0:0:0:
90,200,29122,1,0,0:0:0:0:
441,201,29195,1,0,0:0:0:0:
357,200,29341,2,0,L|301:201,1,45
106,151,29488,2,0,L|37:151,1,45
407,96,29634,2,0,L|451:91,1,45
113,239,29780,2,0,L|55:237,1,45
296,290,29927,2,0,L|366:291,1,45
411,287,30073,5,0,0:0:0:0:
433,287,30109,1,0,0:0:0:0:
455,282,30146,1,0,0:0:0:0:
475,271,30182,1,0,0:0:0:0:
492,257,30219,1,0,0:0:0:0:
505,239,30255,1,0,0:0:0:0:
512,218,30292,1,0,0:0:0:0:
512,196,30329,1,0,0:0:0:0:
512,173,30365,1,0,0:0:0:0:
265,116,30439,5,0,0:0:0:0:
70,118,30512,1,0,0:0:0:0:
164,119,30658,1,0,0:0:0:0:
269,199,30805,6,0,L|328:198,2,45
161,200,31097,1,0,0:0:0:0:
269,199,31244,2,0,L|322:199,2,45
269,199,31536,1,0,0:0:0:0:
353,260,31683,6,0,L|423:261,1,45
240,264,31829,1,0,0:0:0:0:
397,260,32049,1,0,0:0:0:0:
450,260,32122,2,0,L|494:229,1,45
392,128,32268,1,0,0:0:0:0:
248,112,32414,5,0,0:0:0:0:
184,112,32488,1,0,0:0:0:0:
120,112,32561,1,0,0:0:0:0:
184,112,32634,1,0,0:0:0:0:
200,192,32707,1,0,0:0:0:0:
152,266,32853,5,0,0:0:0:0:
259,257,33000,2,0,L|321:257,3,45
389,259,33293,1,0,0:0:0:0:
301,201,33439,1,0,0:0:0:0:
209,178,33585,2,0,L|136:176,1,45
209,178,33732,1,0,0:0:0:0:
80,72,33878,1,0,0:0:0:0:
124,226,34024,6,0,L|168:225,1,45
430,224,34171,1,0,0:0:0:0:
333,262,34317,2,0,L|283:260,1,45
95,276,34536,2,0,L|156:277,1,45
175,275,34647,1,0,0:0:0:0:
197,275,34683,1,0,0:0:0:0:
220,275,34720,1,0,0:0:0:0:
456,275,34756,1,0,0:0:0:0:
409,164,34902,5,0,0:0:0:0:
227,157,34975,1,0,0:0:0:0:
43,155,35049,1,0,0:0:0:0:
123,106,35195,1,0,0:0:0:0:
145,105,35231,1,0,0:0:0:0:
167,105,35268,1,0,0:0:0:0:
190,104,35304,1,0,0:0:0:0:
212,104,35341,1,0,0:0:0:0:
325,101,35488,6,0,L|380:102,2,45
190,186,35780,1,0,0:0:0:0:
306,185,35927,1,0,0:0:0:0:
184,256,36073,2,0,L|126:257,1,45
95,260,36219,1,0,0:0:0:0:
73,264,36255,1,0,0:0:0:0:
51,260,36292,1,0,0:0:0:0:
31,249,36328,1,0,0:0:0:0:
17,231,36365,1,0,0:0:0:0:
48,168,36439,5,0,0:0:0:0:
192,160,36512,1,0,0:0:0:0:
214,160,36548,1,0,0:0:0:0:
236,160,36585,1,0,0:0:0:0:
259,161,36621,1,0,0:0:0:0:
281,162,36658,1,0,0:0:0:0:
304,163,36694,1,0,0:0:0:0:
326,164,36731,1,0,0:0:0:0:
368,160,36805,5,0,0:0:0:0:
408,96,36951,1,0,0:0:0:0:
352,48,37024,2,0,L|414:48,1,45
441,49,37171,2,0,L|380:47,1,45
350,48,37317,2,0,L|283:46,1,45
416,88,37463,1,0,0:0:0:0:
455,155,37536,2,0,L|457:253,1,90
362,283,37829,6,0,L|292:281,2,45
444,293,38122,1,0,0:0:0:0:
137,291,38268,1,0,0:0:0:0:
53,229,38414,2,0,L|0:228,1,45
200,226,38561,1,0,0:0:0:0:
316,167,38707,6,0,L|375:171,1,45
219,164,38853,1,0,0:0:0:0:
121,162,38927,2,0,L|68:166,1,45
219,164,39073,2,0,L|296:164,1,45
32,167,39293,1,0,0:0:0:0:
124,95,39439,6,0,L|166:99,3,22.5
171,95,39585,2,0,L|194:95,3,22.5
235,94,39732,2,0,L|289:95,1,45
321,95,39878,1,0,0:0:0:0:
248,192,40024,6,0,L|144:192,2,90
344,192,40463,1,0,0:0:0:0:
432,192,40610,2,0,L|496:192,2,45
344,192,40902,1,0,0:0:0:0:
344,272,41049,5,0,0:0:0:0:
304,272,41122,1,0,0:0:0:0:
264,272,41195,1,0,0:0:0:0:
128,224,41341,2,0,L|64:224,2,45
176,184,41561,2,0,L|224:184,1,45
288,120,41780,6,0,L|344:120,1,45
384,120,41927,2,0,L|328:120,1,45
64,80,42073,2,0,P|32:184|96:224,1,180
112,224,42439,2,0,L|196:228,2,45
264,232,42658,6,0,L|376:216,1,90
456,200,42951,1,0,0:0:0:0:
168,128,43097,2,0,L|64:128,1,90
8,208,43390,1,0,0:0:0:0:
72,208,43463,1,0,0:0:0:0:
136,208,43536,1,0,0:0:0:0:
304,208,43683,6,0,L|352:208,1,45
272,208,43829,2,0,L|224:208,1,45
320,152,43975,2,0,L|424:152,1,90
464,104,44268,2,0,L|512:104,2,45
336,72,44561,6,0,L|224:72,1,90
176,152,44853,2,0,L|120:152,2,45
272,152,45146,1,0,0:0:0:0:
416,152,45293,1,0,0:0:0:0:
472,192,45366,2,0,L|536:192,1,45
368,200,45512,5,0,0:0:0:0:
312,200,45585,1,0,0:0:0:0:
289,200,45621,1,0,0:0:0:0:
267,200,45658,1,0,0:0:0:0:
244,200,45694,1,0,0:0:0:0:
152,264,45805,5,0,0:0:0:0:
240,272,45878,1,0,0:0:0:0:
262,273,45914,1,0,0:0:0:0:
284,274,45951,1,0,0:0:0:0:
307,275,45987,1,0,0:0:0:0:
329,276,46024,1,0,0:0:0:0:
352,277,46060,1,0,0:0:0:0:
374,278,46097,1,0,0:0:0:0:
48,272,46171,1,0,0:0:0:0:
48,272,46317,5,0,0:0:0:0:
104,272,46390,1,0,0:0:0:0:
160,272,46463,1,0,0:0:0:0:
232,208,46610,2,0,L|280:208,1,45
328,208,46756,2,0,L|272:208,1,45
