osu file format v14

[General]
AudioFilename: [SDVX II __] Mother Ship (C-YA MIX) [EXH] New.mp3
AudioLeadIn: 0
PreviewTime: 283
Countdown: 0
SampleSet: Soft
StackLeniency: 0.7
Mode: 3
LetterboxInBreaks: 0
EpilepsyWarning: 1
SpecialStyle: 1
WidescreenStoryboard: 1

[Editor]
DistanceSpacing: 0.9
BeatDivisor: 8
GridSize: 32
TimelineZoom: 1.7

[Metadata]
Title:Mother Ship (C-YA Mix)
TitleUnicode:Mother Ship (C-YA Mix)
Artist:C-YA
ArtistUnicode:C-YA
Creator:rhalp10
Version:Julie's 7K ADVANCED
Source:SOUND VOLTEX II -infinite infection-
Tags:Sota Fujimori Konami Song Remixes Zenx [Shana Lesus] Rivals_7 SDVX bemani
BeatmapID:724051
BeatmapSetID:177421

[Difficulty]
HPDrainRate:7
CircleSize:7
OverallDifficulty:7
ApproachRate:5
SliderMultiplier:1.4
SliderTickRate:1

[Events]
//Background and Video events
0,0,"BG.jpg",0,0
//Break Periods
//Storyboard Layer 0 (Background)
//Storyboard Layer 1 (Fail)
//Storyboard Layer 2 (Pass)
//Storyboard Layer 3 (Foreground)
//Storyboard Sound Samples

[TimingPoints]
283,333.333333333333,4,2,1,25,1,0
15616,-133.333333333333,4,2,1,25,0,0
15949,-100,4,2,1,25,0,0
20280,-133.333333333333,4,2,1,25,0,0
20949,-100,4,2,1,25,0,0
21782,-100,4,2,1,25,0,0
32282,-100,4,2,1,25,0,1
42949,-100,4,2,1,25,0,0
51949,-133.333333333333,4,2,1,25,0,0
52032,-117.647058823529,4,2,1,25,0,0
52116,-105.263157894737,4,2,1,25,0,0
52199,-100,4,2,1,25,0,0
52280,-66.6666666666667,4,2,1,25,0,0
52282,-66.6666666666667,4,2,1,25,0,0
52366,-133.333333333333,4,2,1,25,0,0
52532,-66.6666666666667,4,2,1,25,0,0
52616,-133.333333333333,4,2,1,25,0,0
52782,-66.6666666666667,4,2,1,25,0,0
52866,-133.333333333333,4,2,1,25,0,0
53032,-66.6666666666667,4,2,1,25,0,0
53116,-133.333333333333,4,2,1,25,0,0
53282,-100,4,2,1,25,0,0
53449,-100,4,2,1,25,0,0
53616,-100,4,2,1,25,0,0
88282,-100,4,2,1,25,0,1
99032,-100,4,2,1,25,0,0

[HitObjects]
182,192,283,5,0,0:0:0:70:soft-hitnormal2.wav
329,192,283,1,0,0:0:0:70:soft-hitnormal2.wav
475,192,283,128,0,1616:0:0:0:70:soft-hitclap2.wav
36,192,283,128,0,1616:0:0:0:70:soft-hitclap2.wav
182,192,1782,1,0,0:0:0:70:soft-hitnormal.wav
402,192,1949,1,0,0:0:0:70:soft-hitnormal.wav
182,192,2282,1,0,0:0:0:70:soft-hitnormal.wav
402,192,2449,1,0,0:0:0:70:soft-hitnormal.wav
256,192,2782,1,0,0:0:0:70:soft-hitnormal.wav
109,192,2949,1,0,0:0:0:70:soft-hitnormal.wav
402,192,3116,1,0,0:0:0:70:soft-hitnormal.wav
182,192,3449,1,0,0:0:0:70:soft-hitnormal.wav
402,192,3616,1,0,0:0:0:70:soft-hitnormal.wav
182,192,3949,1,0,0:0:0:70:soft-hitnormal.wav
402,192,4116,1,0,0:0:0:70:soft-hitnormal.wav
182,192,4449,1,0,0:0:0:70:soft-hitnormal.wav
402,192,4616,1,0,0:0:0:70:soft-hitnormal.wav
182,192,4949,1,0,0:0:0:70:soft-hitnormal.wav
402,192,5116,1,0,0:0:0:70:soft-hitnormal.wav
36,192,5282,1,0,0:0:0:70:soft-hitnormal.wav
329,192,5449,1,0,0:0:0:70:soft-hitnormal.wav
182,192,5616,1,0,0:0:0:70:soft-hitnormal.wav
402,192,5782,1,0,0:0:0:70:soft-hitnormal.wav
182,192,6116,1,0,0:0:0:70:soft-hitnormal.wav
402,192,6282,1,0,0:0:0:70:soft-hitnormal.wav
36,192,6616,1,0,0:0:0:70:soft-hitnormal.wav
256,192,6782,1,0,0:0:0:70:soft-hitnormal.wav
475,192,6949,1,0,0:0:0:70:soft-hitnormal.wav
36,192,7116,1,0,0:0:0:70:soft-hitnormal.wav
402,192,7282,1,0,0:0:0:70:soft-hitnormal.wav
256,192,7449,1,0,0:0:0:70:soft-hitnormal.wav
109,192,7616,1,0,0:0:0:70:soft-hitnormal.wav
475,192,7782,1,0,0:0:0:70:soft-hitnormal.wav
36,192,7949,1,0,0:0:0:70:soft-hitnormal.wav
182,192,8116,1,0,0:0:0:70:soft-hitnormal.wav
329,192,8282,1,0,0:0:0:70:soft-hitnormal.wav
475,192,8449,1,0,0:0:0:70:soft-hitnormal.wav
329,192,8616,1,0,0:0:0:70:soft-hitnormal.wav
182,192,8782,1,0,0:0:0:70:soft-hitnormal.wav
36,192,8949,1,0,0:0:0:70:soft-hitnormal.wav
182,192,9116,1,0,0:0:0:70:soft-hitnormal.wav
329,192,9282,1,0,0:0:0:70:soft-hitnormal.wav
475,192,9449,1,0,0:0:0:70:soft-hitnormal.wav
182,192,9616,5,0,0:0:0:0:
402,192,9699,1,0,0:0:0:0:
475,192,9699,1,0,0:0:0:0:
109,192,9782,5,0,0:0:0:0:
256,192,9866,1,0,0:0:0:0:
402,192,9949,1,0,0:0:0:0:
475,192,9949,1,0,0:0:0:0:
36,192,10032,1,0,0:0:0:0:
182,192,10116,1,0,0:0:0:0:
329,192,10199,1,0,0:0:0:0:
475,192,10282,128,0,10616:0:0:0:70:soft-hitnormal.wav
36,192,10616,128,0,10949:0:0:0:70:soft-hitnormal.wav
475,192,10949,128,0,11282:0:0:0:70:soft-hitclap2.wav
109,192,10949,1,0,0:0:0:70:soft-hitnormal2.wav
402,192,10949,1,0,0:0:0:70:soft-hitnormal2.wav
329,192,11282,1,0,0:0:0:70:soft-hitnormal.wav
109,192,11616,1,0,0:0:0:70:soft-hitnormal.wav
402,192,11949,1,0,0:0:0:70:soft-hitnormal.wav
182,192,12282,1,0,0:0:0:70:soft-hitnormal.wav
475,192,12616,1,0,0:0:0:70:soft-hitnormal.wav
256,192,12949,1,0,0:0:0:70:soft-hitnormal.wav
36,192,13282,1,0,0:0:0:70:soft-hitnormal.wav
329,192,13616,1,0,0:0:0:70:soft-hitnormal.wav
256,192,13949,1,0,0:0:0:70:soft-hitnormal.wav
475,192,13949,1,0,0:0:0:70:soft-hitnormal2.wav
329,192,14282,1,0,0:0:0:70:soft-hitnormal2.wav
109,192,14282,1,0,0:0:0:70:soft-hitnormal.wav
402,192,14616,1,0,0:0:0:70:soft-hitnormal2.wav
182,192,14616,1,0,0:0:0:70:soft-hitnormal.wav
256,192,14949,1,0,0:0:0:70:soft-hitnormal2.wav
36,192,14949,1,0,0:0:0:70:soft-hitnormal.wav
402,192,15282,1,0,0:0:0:70:soft-hitnormal2.wav
109,192,15282,1,0,0:0:0:70:soft-hitnormal.wav
36,192,15616,128,0,15949:0:0:0:70:soft-hitnormal.wav
182,192,15616,1,0,0:0:0:70:soft-hitnormal.wav
329,192,15616,1,0,0:0:0:70:soft-hitnormal2.wav
109,192,15949,1,0,0:0:0:70:soft-hitnormal.wav
402,192,15949,1,0,0:0:0:70:soft-hitnormal2.wav
36,192,16282,1,4,0:0:0:0:
256,192,16282,1,0,0:0:0:70:soft-hitnormal2.wav
475,192,16282,128,0,17616:0:0:0:70:soft-hitnormal.wav
182,192,16449,1,0,0:0:0:70:soft-hitnormal2.wav
329,192,16616,1,0,0:0:0:70:soft-hitnormal2.wav
182,192,16782,1,0,0:0:0:70:soft-hitnormal2.wav
329,192,16949,1,0,0:0:0:70:soft-hitnormal2.wav
182,192,17116,1,0,0:0:0:70:soft-hitnormal2.wav
329,192,17282,1,0,0:0:0:70:soft-hitnormal2.wav
182,192,17449,1,0,0:0:0:70:soft-hitnormal2.wav
329,192,17616,1,0,0:0:0:70:soft-hitnormal2.wav
36,192,17616,128,0,18616:0:0:0:70:soft-hitnormal.wav
109,192,17616,1,4,0:0:0:70:soft-hitnormal.wav
182,192,17782,1,0,0:0:0:70:soft-hitnormal2.wav
329,192,17949,1,0,0:0:0:70:soft-hitnormal2.wav
182,192,18116,1,0,0:0:0:70:soft-hitnormal2.wav
329,192,18282,1,0,0:0:0:70:soft-hitnormal2.wav
182,192,18449,1,0,0:0:0:70:soft-hitnormal2.wav
402,192,18616,1,0,0:0:0:70:soft-hitnormal2.wav
329,192,18616,1,0,0:0:0:70:soft-hitnormal2.wav
109,192,18699,1,0,0:0:0:70:soft-hitnormal2.wav
182,192,18699,1,0,0:0:0:70:soft-hitnormal2.wav
329,192,18782,1,0,0:0:0:70:soft-hitnormal2.wav
402,192,18782,1,0,0:0:0:70:soft-hitnormal2.wav
182,192,18866,1,0,0:0:0:70:soft-hitnormal2.wav
109,192,18866,1,0,0:0:0:70:soft-hitnormal2.wav
329,192,18949,1,0,0:0:0:70:soft-hitnormal2.wav
256,192,18949,1,0,0:0:0:70:soft-hitnormal.wav
402,192,19032,1,0,0:0:0:70:soft-hitnormal2.wav
475,192,19116,1,0,0:0:0:70:soft-hitnormal2.wav
182,192,19199,1,0,0:0:0:70:soft-hitnormal2.wav
256,192,19282,1,0,0:0:0:70:soft-hitnormal2.wav
329,192,19366,1,0,0:0:0:70:soft-hitnormal2.wav
402,192,19449,1,0,0:0:0:70:soft-hitnormal2.wav
256,192,19532,1,0,0:0:0:70:soft-hitnormal2.wav
182,192,19616,1,0,0:0:0:70:soft-hitnormal2.wav
109,192,19699,1,0,0:0:0:70:soft-hitnormal2.wav
36,192,19782,1,0,0:0:0:70:soft-hitnormal2.wav
402,192,19866,1,0,0:0:0:70:soft-hitnormal2.wav
329,192,19949,1,0,0:0:0:70:soft-hitnormal2.wav
256,192,20032,1,0,0:0:0:70:soft-hitnormal2.wav
182,192,20116,1,0,0:0:0:70:soft-hitnormal2.wav
109,192,20199,1,0,0:0:0:70:soft-hitnormal2.wav
36,192,20282,128,0,21282:0:0:0:70:soft-hitnormal2.wav
329,192,21282,1,0,0:0:0:70:soft-hitnormal2.wav
402,192,21282,1,0,0:0:0:70:soft-hitnormal2.wav
256,192,21449,1,0,0:0:0:0:
182,192,21449,1,0,0:0:0:0:
109,192,21449,1,0,0:0:0:0:
475,192,21616,1,0,0:0:0:70:soft-hitclap2.wav
402,192,21616,1,0,0:0:0:0:
329,192,21616,1,0,0:0:0:0:
36,192,21616,1,4,0:0:0:0:
182,192,21949,1,0,0:0:0:70:soft-hitclap2.wav
329,192,21949,1,0,0:0:0:70:soft-hitnormal2.wav
402,192,22116,1,0,0:0:0:0:
109,192,22282,1,0,0:0:0:70:soft-hitnormal2.wav
256,192,22449,1,0,0:0:0:0:
182,192,22616,1,0,0:0:0:70:soft-hitnormal2.wav
109,192,22616,1,0,0:0:0:0:
402,192,22699,1,0,0:0:0:0:
475,192,22699,1,0,0:0:0:0:
109,192,22866,1,0,0:0:0:0:
36,192,22866,1,0,0:0:0:0:
329,192,23282,1,0,0:0:0:70:soft-hitnormal2.wav
182,192,23282,1,0,0:0:0:70:soft-hitclap2.wav
402,192,23449,1,0,0:0:0:70:soft-hitnormal.wav
109,192,23616,1,0,0:0:0:70:soft-hitnormal2.wav
256,192,23782,1,0,0:0:0:70:soft-hitnormal.wav
182,192,23949,1,0,0:0:0:70:soft-hitclap2.wav
329,192,23949,1,0,0:0:0:70:soft-hitnormal2.wav
402,192,24116,1,0,0:0:0:0:
109,192,24282,1,0,0:0:0:70:soft-hitnormal2.wav
256,192,24449,1,0,0:0:0:0:
182,192,24616,1,0,0:0:0:70:soft-hitclap2.wav
329,192,24616,1,0,0:0:0:70:soft-hitnormal2.wav
475,192,24782,1,0,0:0:0:0:
36,192,24949,1,0,0:0:0:70:soft-hitnormal2.wav
329,192,25032,1,0,0:0:0:0:
402,192,25032,1,0,0:0:0:0:
109,192,25116,1,0,0:0:0:0:
182,192,25116,1,0,0:0:0:0:
329,192,25199,1,0,0:0:0:0:
402,192,25199,1,0,0:0:0:0:
182,192,25282,1,0,0:0:0:70:soft-hitnormal2.wav
109,192,25282,1,0,0:0:0:0:
402,192,25366,1,0,0:0:0:0:
475,192,25366,1,0,0:0:0:0:
109,192,25532,1,0,0:0:0:0:
36,192,25532,1,0,0:0:0:0:
256,192,25949,1,0,0:0:0:70:soft-hitclap2.wav
402,192,25949,1,0,0:0:0:70:soft-hitnormal.wav
109,192,26116,1,0,0:0:0:0:
256,192,26282,1,0,0:0:0:0:
402,192,26282,1,0,0:0:0:70:soft-hitnormal.wav
109,192,26366,1,0,0:0:0:0:
256,192,26449,1,0,0:0:0:0:
402,192,26449,1,0,0:0:0:70:soft-hitnormal.wav
109,192,26532,1,0,0:0:0:0:
256,192,26616,1,0,0:0:0:70:soft-hitclap2.wav
402,192,26616,1,0,0:0:0:70:soft-hitnormal.wav
109,192,26699,1,0,0:0:0:0:
402,192,26782,1,0,0:0:0:0:
475,192,26782,1,0,0:0:0:0:
109,192,26866,1,0,0:0:0:0:
36,192,26866,1,0,0:0:0:0:
256,192,27116,1,0,0:0:0:0:
182,192,27282,1,0,0:0:0:70:soft-hitclap2.wav
329,192,27282,1,0,0:0:0:70:soft-hitnormal2.wav
402,192,27449,1,0,0:0:0:0:
109,192,27616,1,0,0:0:0:0:
256,192,27782,1,0,0:0:0:0:
109,192,27949,1,0,0:0:0:0:
182,192,27949,1,0,0:0:0:0:
475,192,28032,1,0,0:0:0:0:
402,192,28032,1,0,0:0:0:0:
36,192,28199,1,0,0:0:0:0:
109,192,28199,1,0,0:0:0:0:
329,192,28616,1,0,0:0:0:0:
182,192,28616,1,0,0:0:0:0:
256,192,28782,1,0,0:0:0:0:
329,192,28949,1,0,0:0:0:0:
402,192,28949,1,0,0:0:0:0:
182,192,29032,1,0,0:0:0:0:
109,192,29032,1,0,0:0:0:0:
329,192,29116,1,0,0:0:0:0:
402,192,29116,1,0,0:0:0:0:
182,192,29199,1,0,0:0:0:0:
109,192,29199,1,0,0:0:0:0:
329,192,29282,1,0,0:0:0:0:
402,192,29282,1,0,0:0:0:0:
36,192,29366,1,0,0:0:0:0:
109,192,29366,1,0,0:0:0:0:
475,192,29449,1,0,0:0:0:0:
402,192,29449,1,0,0:0:0:0:
256,192,29532,1,0,0:0:0:0:
182,192,29532,1,0,0:0:0:0:
36,192,29616,1,0,0:0:0:0:
256,192,29782,1,0,0:0:0:0:
182,192,29949,1,0,0:0:0:0:
329,192,29949,1,0,0:0:0:0:
475,192,30116,1,0,0:0:0:0:
36,192,30282,1,0,0:0:0:0:
329,192,30366,1,0,0:0:0:0:
402,192,30366,1,0,0:0:0:0:
182,192,30449,1,0,0:0:0:0:
109,192,30449,1,0,0:0:0:0:
329,192,30532,1,0,0:0:0:0:
402,192,30532,1,0,0:0:0:0:
182,192,30616,1,0,0:0:0:0:
109,192,30616,1,0,0:0:0:0:
402,192,30699,1,0,0:0:0:0:
475,192,30699,1,0,0:0:0:0:
109,192,30866,1,0,0:0:0:0:
36,192,30866,1,0,0:0:0:0:
182,192,31116,1,0,0:0:0:0:
475,192,31282,1,0,0:0:0:0:
329,192,31282,1,0,0:0:0:0:
109,192,31449,1,0,0:0:0:0:
329,192,31616,1,0,0:0:0:0:
475,192,31616,1,0,0:0:0:0:
256,192,31782,1,0,0:0:0:0:
402,192,31949,1,0,0:0:0:70:soft-hitclap2.wav
109,192,31949,1,0,0:0:0:0:
475,192,32282,1,0,0:0:0:0:
36,192,32282,1,0,0:0:0:0:
256,192,32282,1,0,0:0:0:0:
402,192,32449,1,0,0:0:0:0:
182,192,32616,1,0,0:0:0:0:
109,192,32616,1,0,0:0:0:0:
329,192,32782,1,0,0:0:0:0:
109,192,32949,1,0,0:0:0:0:
36,192,32949,1,0,0:0:0:0:
256,192,33116,1,0,0:0:0:0:
402,192,33282,1,0,0:0:0:0:
475,192,33282,1,0,0:0:0:0:
182,192,33449,1,0,0:0:0:0:
329,192,33616,1,0,0:0:0:0:
256,192,33616,1,0,0:0:0:0:
109,192,33782,1,0,0:0:0:0:
475,192,33949,1,0,0:0:0:0:
402,192,33949,1,0,0:0:0:0:
256,192,34116,1,0,0:0:0:0:
36,192,34282,1,0,0:0:0:0:
109,192,34282,1,0,0:0:0:0:
402,192,34449,1,0,0:0:0:0:
182,192,34616,1,0,0:0:0:0:
109,192,34616,1,0,0:0:0:0:
256,192,34782,1,0,0:0:0:0:
329,192,34949,1,0,0:0:0:0:
402,192,34949,1,0,0:0:0:0:
109,192,35116,1,0,0:0:0:0:
475,192,35282,1,0,0:0:0:0:
402,192,35282,1,0,0:0:0:0:
256,192,35449,1,0,0:0:0:0:
109,192,35616,1,0,0:0:0:0:
36,192,35616,1,0,0:0:0:0:
402,192,35782,1,0,0:0:0:0:
109,192,35949,1,0,0:0:0:0:
182,192,35949,1,0,0:0:0:0:
256,192,36116,1,0,0:0:0:0:
475,192,36282,1,0,0:0:0:0:
402,192,36282,1,0,0:0:0:0:
256,192,36449,1,0,0:0:0:0:
475,192,36616,1,0,0:0:0:0:
402,192,36782,1,0,0:0:0:0:
329,192,36949,1,0,0:0:0:0:
256,192,37116,1,0,0:0:0:0:
182,192,37282,1,0,0:0:0:0:
109,192,37449,1,0,0:0:0:0:
36,192,37616,5,0,0:0:0:0:
256,192,37616,1,0,0:0:0:0:
475,192,37616,1,0,0:0:0:0:
329,192,37782,1,0,0:0:0:0:
182,192,37949,1,0,0:0:0:0:
36,192,37949,1,0,0:0:0:0:
329,192,38116,1,0,0:0:0:0:
182,192,38282,1,0,0:0:0:0:
329,192,38449,1,0,0:0:0:0:
36,192,38616,1,0,0:0:0:0:
182,192,38616,1,0,0:0:0:0:
329,192,38782,1,0,0:0:0:0:
36,192,38949,1,0,0:0:0:0:
475,192,38949,1,0,0:0:0:0:
256,192,38949,1,0,0:0:0:0:
109,192,39116,1,0,0:0:0:0:
402,192,39282,1,0,0:0:0:0:
109,192,39449,1,0,0:0:0:0:
182,192,39616,1,0,0:0:0:0:
329,192,39616,1,0,0:0:0:0:
182,192,39782,1,0,0:0:0:0:
329,192,39782,1,0,0:0:0:0:
182,192,39949,1,0,0:0:0:0:
329,192,39949,1,0,0:0:0:0:
182,192,40116,1,0,0:0:0:0:
329,192,40116,1,0,0:0:0:0:
36,192,40282,1,0,0:0:0:0:
475,192,40282,1,0,0:0:0:0:
256,192,40282,1,0,0:0:0:0:
109,192,40449,1,0,0:0:0:0:
329,192,40616,1,0,0:0:0:0:
475,192,40616,1,0,0:0:0:0:
109,192,40782,1,0,0:0:0:0:
36,192,40949,1,0,0:0:0:0:
475,192,40949,1,0,0:0:0:0:
329,192,40949,1,0,0:0:0:0:
109,192,41116,1,0,0:0:0:0:
329,192,41282,1,0,0:0:0:0:
475,192,41282,1,0,0:0:0:0:
109,192,41449,1,0,0:0:0:0:
36,192,41616,1,0,0:0:0:0:
182,192,41616,1,0,0:0:0:0:
329,192,41616,1,0,0:0:0:0:
329,192,41949,1,0,0:0:0:0:
182,192,41949,1,0,0:0:0:0:
475,192,41949,1,0,0:0:0:0:
329,192,42282,1,0,0:0:0:0:
182,192,42282,1,0,0:0:0:0:
329,192,42449,1,0,0:0:0:0:
182,192,42449,1,0,0:0:0:0:
182,192,42616,1,0,0:0:0:0:
329,192,42616,1,0,0:0:0:0:
329,192,42782,1,0,0:0:0:0:
182,192,42782,1,0,0:0:0:0:
36,192,42949,128,0,43616:0:0:0:0:
475,192,42949,1,0,0:0:0:0:
109,192,42949,1,0,0:0:0:0:
402,192,43449,1,0,0:0:0:0:
256,192,43616,1,0,0:0:0:0:
182,192,43949,1,0,0:0:0:0:
475,192,44282,128,0,45616:0:0:0:0:
329,192,44282,1,0,0:0:0:0:
109,192,44616,1,0,0:0:0:0:
109,192,44949,1,0,0:0:0:0:
109,192,45282,1,0,0:0:0:0:
36,192,45616,128,0,46282:0:0:0:0:
109,192,45616,1,0,0:0:0:0:
256,192,46116,1,0,0:0:0:0:
329,192,46282,1,0,0:0:0:0:
182,192,46616,1,0,0:0:0:0:
329,192,46782,1,0,0:0:0:0:
475,192,46949,1,0,0:0:0:0:
402,192,47032,1,0,0:0:0:0:
329,192,47116,1,0,0:0:0:0:
256,192,47199,1,0,0:0:0:0:
182,192,47282,1,0,0:0:0:0:
109,192,47366,1,0,0:0:0:0:
256,192,47532,1,0,0:0:0:0:
475,192,47782,128,0,48282:0:0:0:0:
36,192,48282,128,0,49616:0:0:0:0:
109,192,48282,1,0,0:0:0:0:
256,192,48782,1,0,0:0:0:0:
329,192,48949,1,0,0:0:0:0:
182,192,49282,1,0,0:0:0:0:
475,192,49616,128,0,50282:0:0:0:0:
402,192,49616,1,0,0:0:0:0:
109,192,49949,1,0,0:0:0:0:
256,192,50282,128,0,50449:0:0:0:0:
329,192,50282,1,0,0:0:0:0:
36,192,50616,1,0,0:0:0:0:
182,192,50782,1,0,0:0:0:0:
329,192,50949,1,0,0:0:0:0:
475,192,50949,1,0,0:0:0:0:
475,192,51282,1,0,0:0:0:0:
402,192,51366,1,0,0:0:0:0:
329,192,51449,1,0,0:0:0:0:
256,192,51532,1,0,0:0:0:0:
182,192,51616,1,0,0:0:0:0:
109,192,51699,1,0,0:0:0:0:
36,192,51782,1,0,0:0:0:0:
256,192,51949,1,0,0:0:0:0:
182,192,52032,1,0,0:0:0:0:
109,192,52032,1,0,0:0:0:0:
329,192,52116,1,0,0:0:0:0:
402,192,52116,1,0,0:0:0:0:
182,192,52199,1,0,0:0:0:0:
109,192,52199,1,0,0:0:0:0:
329,192,52282,1,0,0:0:0:0:
402,192,52282,1,0,0:0:0:0:
475,192,52282,1,0,0:0:0:0:
182,192,52532,1,0,0:0:0:0:
109,192,52532,1,0,0:0:0:0:
36,192,52532,1,0,0:0:0:0:
329,192,52782,1,0,0:0:0:0:
402,192,52782,1,0,0:0:0:0:
475,192,52782,1,0,0:0:0:0:
182,192,53032,1,0,0:0:0:0:
109,192,53032,1,0,0:0:0:0:
36,192,53032,1,0,0:0:0:0:
329,192,53282,1,0,0:0:0:0:
402,192,53282,1,0,0:0:0:0:
475,192,53282,1,0,0:0:0:0:
256,192,53449,1,0,0:0:0:0:
109,192,53449,1,0,0:0:0:0:
36,192,53616,1,0,0:0:0:0:
182,192,53616,1,0,0:0:0:0:
329,192,53616,1,0,0:0:0:0:
475,192,53616,1,0,0:0:0:0:
256,192,53949,1,0,0:0:0:0:
329,192,54282,1,0,0:0:0:0:
475,192,54282,1,0,0:0:0:0:
475,192,54532,1,0,0:0:0:0:
329,192,54532,1,0,0:0:0:0:
36,192,54949,1,0,0:0:0:0:
182,192,54949,1,0,0:0:0:0:
182,192,55199,1,0,0:0:0:0:
36,192,55199,1,0,0:0:0:0:
329,192,55616,1,0,0:0:0:0:
402,192,55616,1,0,0:0:0:0:
182,192,55782,1,0,0:0:0:0:
109,192,55782,1,0,0:0:0:0:
256,192,55949,1,0,0:0:0:0:
475,192,55949,1,0,0:0:0:0:
329,192,56282,1,0,0:0:0:0:
475,192,56282,1,0,0:0:0:0:
475,192,56532,1,0,0:0:0:0:
329,192,56532,1,0,0:0:0:0:
329,192,56949,1,0,0:0:0:0:
182,192,56949,1,0,0:0:0:0:
329,192,57199,1,0,0:0:0:0:
182,192,57199,1,0,0:0:0:0:
182,192,57616,1,0,0:0:0:0:
36,192,57616,1,0,0:0:0:0:
182,192,57866,1,0,0:0:0:0:
36,192,57866,1,0,0:0:0:0:
109,192,58116,1,0,0:0:0:0:
36,192,58116,1,0,0:0:0:0:
402,192,58199,1,0,0:0:0:0:
475,192,58199,1,0,0:0:0:0:
182,192,58282,1,0,0:0:0:0:
329,192,58366,1,0,0:0:0:0:
182,192,58449,1,0,0:0:0:0:
329,192,58532,1,0,0:0:0:0:
36,192,58616,1,0,0:0:0:0:
109,192,58699,1,0,0:0:0:0:
182,192,58782,5,0,0:0:0:0:
256,192,58866,1,0,0:0:0:0:
329,192,58949,1,0,0:0:0:0:
36,192,58949,1,0,0:0:0:0:
329,192,59032,1,0,0:0:0:0:
36,192,59032,1,0,0:0:0:0:
402,192,59116,1,0,0:0:0:0:
182,192,59116,1,0,0:0:0:0:
402,192,59199,1,0,0:0:0:0:
182,192,59199,1,0,0:0:0:0:
475,192,59282,1,0,0:0:0:0:
36,192,59282,1,0,0:0:0:0:
109,192,59449,1,0,0:0:0:0:
256,192,59449,1,0,0:0:0:0:
109,192,59532,1,0,0:0:0:0:
256,192,59532,1,0,0:0:0:0:
329,192,59616,1,0,0:0:0:0:
402,192,59616,1,0,0:0:0:0:
329,192,59699,1,0,0:0:0:0:
402,192,59699,1,0,0:0:0:0:
182,192,59782,1,0,0:0:0:0:
256,192,59782,1,0,0:0:0:0:
182,192,59866,1,0,0:0:0:0:
256,192,59866,1,0,0:0:0:0:
36,192,59949,128,0,60282:0:0:0:0:
109,192,59949,1,0,0:0:0:0:
182,192,60282,1,0,0:0:0:0:
256,192,60449,1,0,0:0:0:0:
329,192,60532,1,0,0:0:0:0:
402,192,60616,1,0,0:0:0:0:
475,192,60699,1,0,0:0:0:0:
402,192,60782,1,0,0:0:0:0:
475,192,60866,1,0,0:0:0:0:
329,192,60949,1,0,0:0:0:0:
329,192,61032,1,0,0:0:0:0:
182,192,61116,1,0,0:0:0:0:
182,192,61199,1,0,0:0:0:0:
36,192,61282,128,0,61616:0:0:0:0:
329,192,61616,1,0,0:0:0:0:
109,192,61616,1,0,0:0:0:0:
329,192,61699,1,0,0:0:0:0:
109,192,61699,1,0,0:0:0:0:
402,192,61782,1,0,0:0:0:0:
182,192,61782,1,0,0:0:0:0:
402,192,61866,1,0,0:0:0:0:
182,192,61866,1,0,0:0:0:0:
475,192,61949,1,0,0:0:0:0:
36,192,61949,1,0,0:0:0:0:
182,192,62116,1,0,0:0:0:0:
109,192,62116,1,0,0:0:0:0:
182,192,62199,1,0,0:0:0:0:
109,192,62199,1,0,0:0:0:0:
475,192,62282,1,0,0:0:0:0:
402,192,62282,1,0,0:0:0:0:
475,192,62366,1,0,0:0:0:0:
402,192,62366,1,0,0:0:0:0:
256,192,62449,1,0,0:0:0:0:
329,192,62449,1,0,0:0:0:0:
256,192,62532,1,0,0:0:0:0:
329,192,62532,1,0,0:0:0:0:
36,192,62616,128,0,63449:0:0:0:0:
109,192,62616,1,0,0:0:0:0:
182,192,62616,1,0,0:0:0:0:
329,192,62949,1,0,0:0:0:0:
182,192,63032,1,0,0:0:0:0:
329,192,63116,1,0,0:0:0:0:
182,192,63199,1,0,0:0:0:0:
329,192,63282,1,0,0:0:0:0:
182,192,63366,1,0,0:0:0:0:
475,192,63449,1,0,0:0:0:0:
402,192,63449,1,0,0:0:0:0:
329,192,63616,128,0,63949:0:0:0:0:
182,192,63949,128,0,64282:0:0:0:0:
36,192,64282,128,0,64949:0:0:0:0:
475,192,64282,1,0,0:0:0:0:
256,192,64282,1,0,0:0:0:0:
109,192,64282,1,0,0:0:0:0:
475,192,64949,128,0,65616:0:0:0:0:
36,192,65616,1,0,0:0:0:0:
329,192,65782,1,0,0:0:0:0:
182,192,65866,1,0,0:0:0:0:
475,192,65949,1,0,0:0:0:0:
402,192,66032,1,0,0:0:0:0:
329,192,66116,1,0,0:0:0:0:
256,192,66199,1,0,0:0:0:0:
36,192,66282,128,0,66616:0:0:0:0:
109,192,66282,1,0,0:0:0:0:
182,192,66282,1,0,0:0:0:0:
475,192,66616,128,0,66949:0:0:0:0:
402,192,66616,1,0,0:0:0:0:
329,192,66616,1,0,0:0:0:0:
36,192,66949,128,0,67449:0:0:0:0:
109,192,66949,1,0,0:0:0:0:
182,192,66949,1,0,0:0:0:0:
256,192,66949,1,0,0:0:0:0:
109,192,67449,1,0,0:0:0:0:
182,192,67532,1,0,0:0:0:0:
256,192,67616,1,0,0:0:0:0:
475,192,67782,1,0,0:0:0:0:
182,192,67949,1,0,0:0:0:0:
109,192,67949,1,0,0:0:0:0:
329,192,68116,1,0,0:0:0:0:
402,192,68116,1,0,0:0:0:0:
36,192,68282,1,0,0:0:0:0:
182,192,68449,1,0,0:0:0:0:
329,192,68616,1,0,0:0:0:0:
182,192,68782,1,0,0:0:0:0:
109,192,68866,1,0,0:0:0:0:
36,192,68949,1,0,0:0:0:0:
256,192,69116,1,0,0:0:0:0:
402,192,69282,1,0,0:0:0:0:
329,192,69282,1,0,0:0:0:0:
182,192,69366,1,0,0:0:0:0:
109,192,69366,1,0,0:0:0:0:
256,192,69449,1,0,0:0:0:0:
329,192,69532,1,0,0:0:0:0:
402,192,69616,1,0,0:0:0:0:
256,192,69782,1,0,0:0:0:0:
109,192,69949,1,0,0:0:0:0:
329,192,70116,1,0,0:0:0:0:
402,192,70199,1,0,0:0:0:0:
475,192,70282,1,0,0:0:0:0:
256,192,70449,1,0,0:0:0:0:
182,192,70616,1,0,0:0:0:0:
109,192,70616,1,0,0:0:0:0:
329,192,70782,1,0,0:0:0:0:
402,192,70782,1,0,0:0:0:0:
36,192,70949,1,0,0:0:0:0:
182,192,71116,1,0,0:0:0:0:
329,192,71282,1,0,0:0:0:0:
182,192,71449,1,0,0:0:0:0:
109,192,71532,1,0,0:0:0:0:
36,192,71616,1,0,0:0:0:0:
256,192,71782,1,0,0:0:0:0:
402,192,71949,1,0,0:0:0:0:
329,192,71949,1,0,0:0:0:0:
182,192,72032,1,0,0:0:0:0:
109,192,72032,1,0,0:0:0:0:
402,192,72116,1,0,0:0:0:0:
329,192,72116,1,0,0:0:0:0:
182,192,72199,1,0,0:0:0:0:
109,192,72199,1,0,0:0:0:0:
329,192,72282,1,0,0:0:0:0:
36,192,72449,1,0,0:0:0:0:
182,192,72616,1,0,0:0:0:0:
329,192,72782,1,0,0:0:0:0:
402,192,72866,1,0,0:0:0:0:
475,192,72949,1,0,0:0:0:0:
256,192,73116,1,0,0:0:0:0:
182,192,73282,1,0,0:0:0:0:
109,192,73282,1,0,0:0:0:0:
329,192,73366,1,0,0:0:0:0:
402,192,73366,1,0,0:0:0:0:
182,192,73449,1,0,0:0:0:0:
109,192,73532,1,0,0:0:0:0:
36,192,73616,1,0,0:0:0:0:
329,192,73782,1,0,0:0:0:0:
182,192,73949,1,0,0:0:0:0:
329,192,74116,1,0,0:0:0:0:
402,192,74199,1,0,0:0:0:0:
475,192,74282,1,0,0:0:0:0:
256,192,74449,1,0,0:0:0:0:
182,192,74616,1,0,0:0:0:0:
109,192,74616,1,0,0:0:0:0:
329,192,74782,1,0,0:0:0:0:
402,192,74782,1,0,0:0:0:0:
36,192,74949,1,0,0:0:0:0:
256,192,75116,1,0,0:0:0:0:
475,192,75282,1,0,0:0:0:0:
182,192,75449,1,0,0:0:0:0:
109,192,75532,1,0,0:0:0:0:
36,192,75616,1,0,0:0:0:0:
256,192,75782,1,0,0:0:0:0:
475,192,75949,1,0,0:0:0:0:
402,192,75991,1,0,0:0:0:0:
329,192,76032,1,0,0:0:0:0:
256,192,76074,1,0,0:0:0:0:
182,192,76116,1,0,0:0:0:0:
109,192,76116,1,0,0:0:0:0:
402,192,76199,1,0,0:0:0:0:
329,192,76199,1,0,0:0:0:0:
182,192,76282,1,0,0:0:0:0:
109,192,76282,1,0,0:0:0:0:
475,192,76449,1,0,0:0:0:0:
256,192,76616,1,0,0:0:0:0:
36,192,76782,1,0,0:0:0:0:
182,192,76949,1,0,0:0:0:0:
109,192,76949,1,0,0:0:0:0:
402,192,77032,1,0,0:0:0:0:
329,192,77032,1,0,0:0:0:0:
109,192,77116,1,0,0:0:0:0:
36,192,77116,1,0,0:0:0:0:
402,192,77282,1,0,0:0:0:0:
329,192,77324,1,0,0:0:0:0:
256,192,77366,1,0,0:0:0:0:
182,192,77407,1,0,0:0:0:0:
109,192,77449,1,0,0:0:0:0:
182,192,77491,1,0,0:0:0:0:
256,192,77532,1,0,0:0:0:0:
329,192,77574,1,0,0:0:0:0:
36,192,77616,1,0,0:0:0:0:
475,192,77616,1,0,0:0:0:0:
402,192,77616,1,0,0:0:0:0:
256,192,77782,1,0,0:0:0:0:
402,192,77949,1,0,0:0:0:0:
109,192,78116,1,0,0:0:0:0:
329,192,78282,1,0,0:0:0:0:
182,192,78366,1,0,0:0:0:0:
329,192,78449,1,0,0:0:0:0:
182,192,78616,1,0,0:0:0:0:
329,192,78699,1,0,0:0:0:0:
182,192,78782,1,0,0:0:0:0:
36,192,78949,1,0,0:0:0:0:
329,192,79116,1,0,0:0:0:0:
402,192,79199,1,0,0:0:0:0:
475,192,79282,1,0,0:0:0:0:
182,192,79449,1,0,0:0:0:0:
256,192,79616,1,0,0:0:0:0:
109,192,79782,1,0,0:0:0:0:
329,192,79949,1,0,0:0:0:0:
402,192,80032,1,0,0:0:0:0:
475,192,80116,1,0,0:0:0:0:
256,192,80282,1,0,0:0:0:0:
182,192,80449,1,0,0:0:0:0:
109,192,80532,1,0,0:0:0:0:
36,192,80616,1,0,0:0:0:0:
475,192,80782,1,0,0:0:0:0:
182,192,80949,1,0,0:0:0:0:
329,192,81032,1,0,0:0:0:0:
182,192,81116,1,0,0:0:0:0:
329,192,81282,1,0,0:0:0:0:
182,192,81366,1,0,0:0:0:0:
329,192,81449,1,0,0:0:0:0:
36,192,81616,1,0,0:0:0:0:
329,192,81782,1,0,0:0:0:0:
402,192,81866,1,0,0:0:0:0:
475,192,81949,1,0,0:0:0:0:
109,192,82116,1,0,0:0:0:0:
329,192,82282,1,0,0:0:0:0:
109,192,82449,1,0,0:0:0:0:
475,192,82616,1,0,0:0:0:0:
402,192,82657,1,0,0:0:0:0:
329,192,82699,1,0,0:0:0:0:
256,192,82741,1,0,0:0:0:0:
182,192,82782,1,0,0:0:0:0:
109,192,82782,1,0,0:0:0:0:
402,192,82866,1,0,0:0:0:0:
329,192,82866,1,0,0:0:0:0:
36,192,82949,1,0,0:0:0:0:
256,192,83116,1,0,0:0:0:0:
475,192,83282,1,0,0:0:0:0:
256,192,83449,1,0,0:0:0:0:
182,192,83616,1,0,0:0:0:0:
329,192,83699,1,0,0:0:0:0:
182,192,83782,1,0,0:0:0:0:
329,192,83949,1,0,0:0:0:0:
182,192,84032,1,0,0:0:0:0:
329,192,84116,1,0,0:0:0:0:
109,192,84282,1,0,0:0:0:0:
36,192,84282,1,0,0:0:0:0:
109,192,84449,1,0,0:0:0:0:
36,192,84449,1,0,0:0:0:0:
36,192,84616,1,0,0:0:0:0:
109,192,84616,1,0,0:0:0:0:
256,192,84782,1,0,0:0:0:0:
475,192,84949,1,0,0:0:0:0:
402,192,84949,1,0,0:0:0:0:
475,192,85116,1,0,0:0:0:0:
402,192,85116,1,0,0:0:0:0:
475,192,85282,1,0,0:0:0:0:
402,192,85282,1,0,0:0:0:0:
36,192,85449,1,0,0:0:0:0:
182,192,85616,1,0,0:0:0:0:
329,192,85782,1,0,0:0:0:0:
402,192,85866,1,0,0:0:0:0:
475,192,85949,1,0,0:0:0:0:
256,192,86116,1,0,0:0:0:0:
182,192,86282,1,0,0:0:0:0:
329,192,86366,1,0,0:0:0:0:
182,192,86449,1,0,0:0:0:0:
329,192,86532,1,0,0:0:0:0:
475,192,86616,1,0,0:0:0:0:
402,192,86657,1,0,0:0:0:0:
329,192,86699,1,0,0:0:0:0:
256,192,86741,1,0,0:0:0:0:
182,192,86782,1,0,0:0:0:0:
109,192,86824,1,0,0:0:0:0:
36,192,86866,1,0,0:0:0:0:
329,192,86949,1,0,0:0:0:0:
402,192,86949,1,0,0:0:0:0:
475,192,86949,128,0,87949:0:0:0:0:
182,192,87282,1,0,0:0:0:0:
36,192,87282,1,0,0:0:0:0:
256,192,87616,1,0,0:0:0:0:
36,192,87949,1,0,0:0:0:0:
402,192,87949,1,0,0:0:0:0:
36,192,88282,1,0,0:0:0:0:
256,192,88282,1,0,0:0:0:0:
475,192,88282,1,0,0:0:0:0:
182,192,88449,5,0,0:0:0:0:
329,192,88616,1,0,0:0:0:0:
182,192,88782,1,0,0:0:0:0:
329,192,88866,1,0,0:0:0:0:
182,192,89032,1,0,0:0:0:0:
329,192,89116,1,0,0:0:0:0:
182,192,89199,1,0,0:0:0:0:
329,192,89282,1,0,0:0:0:0:
182,192,89449,1,0,0:0:0:0:
402,192,89616,1,0,0:0:0:0:
109,192,89699,1,0,0:0:0:0:
402,192,89866,1,0,0:0:0:0:
109,192,89949,1,0,0:0:0:0:
402,192,90032,1,0,0:0:0:0:
109,192,90116,1,0,0:0:0:0:
402,192,90199,1,0,0:0:0:0:
182,192,90366,1,0,0:0:0:0:
329,192,90449,1,0,0:0:0:0:
182,192,90532,1,0,0:0:0:0:
329,192,90616,1,0,0:0:0:0:
182,192,90699,1,0,0:0:0:0:
329,192,90782,1,0,0:0:0:0:
182,192,90866,1,0,0:0:0:0:
475,192,90949,1,0,0:0:0:0:
36,192,91116,1,0,0:0:0:0:
475,192,91199,1,0,0:0:0:0:
36,192,91282,1,0,0:0:0:0:
475,192,91366,1,0,0:0:0:0:
36,192,91449,1,0,0:0:0:0:
475,192,91532,1,0,0:0:0:0:
36,192,91699,1,0,0:0:0:0:
475,192,91782,1,0,0:0:0:0:
36,192,91949,1,0,0:0:0:0:
329,192,92116,1,0,0:0:0:0:
109,192,92282,1,0,0:0:0:0:
256,192,92366,1,0,0:0:0:0:
402,192,92449,1,0,0:0:0:0:
475,192,92616,1,0,0:0:0:0:
329,192,92699,1,0,0:0:0:0:
182,192,92782,1,0,0:0:0:0:
475,192,92949,1,0,0:0:0:0:
402,192,92949,1,0,0:0:0:0:
329,192,92949,1,0,0:0:0:0:
36,192,93116,1,0,0:0:0:0:
109,192,93116,1,0,0:0:0:0:
182,192,93116,1,0,0:0:0:0:
475,192,93282,128,0,93616:0:0:0:0:
402,192,93282,1,0,0:0:0:0:
329,192,93282,1,0,0:0:0:0:
36,192,93449,128,0,93616:0:0:0:0:
109,192,93616,1,0,0:0:0:0:
182,192,93616,1,0,0:0:0:0:
256,192,93616,1,0,0:0:0:0:
402,192,93699,1,0,0:0:0:0:
109,192,93782,1,0,0:0:0:0:
402,192,93866,1,0,0:0:0:0:
109,192,93949,1,0,0:0:0:0:
329,192,94116,1,0,0:0:0:0:
402,192,94116,1,0,0:0:0:0:
475,192,94116,1,0,0:0:0:0:
182,192,94282,1,0,0:0:0:0:
36,192,94282,1,0,0:0:0:0:
402,192,94449,1,0,0:0:0:0:
182,192,94616,1,0,0:0:0:0:
36,192,94616,1,0,0:0:0:0:
256,192,94782,1,0,0:0:0:0:
475,192,94949,128,0,95449:0:0:0:0:
402,192,94949,1,0,0:0:0:0:
329,192,94949,1,0,0:0:0:0:
36,192,95449,128,0,95949:0:0:0:0:
109,192,95449,1,0,0:0:0:0:
182,192,95449,1,0,0:0:0:0:
475,192,95949,128,0,96282:0:0:0:0:
329,192,95949,1,0,0:0:0:0:
402,192,95949,1,0,0:0:0:0:
36,192,96282,1,0,0:0:0:0:
182,192,96282,1,0,0:0:0:0:
402,192,96282,1,0,0:0:0:0:
329,192,96449,1,0,0:0:0:0:
475,192,96449,1,0,0:0:0:0:
182,192,96616,1,0,0:0:0:0:
36,192,96616,1,0,0:0:0:0:
329,192,96782,1,0,0:0:0:0:
475,192,96782,1,0,0:0:0:0:
182,192,96949,1,0,0:0:0:0:
36,192,96949,1,0,0:0:0:0:
329,192,97116,1,0,0:0:0:0:
475,192,97116,1,0,0:0:0:0:
182,192,97282,1,0,0:0:0:0:
36,192,97282,1,0,0:0:0:0:
329,192,97449,1,0,0:0:0:0:
475,192,97449,1,0,0:0:0:0:
36,192,97616,1,0,0:0:0:0:
182,192,97616,1,0,0:0:0:0:
256,192,97699,1,0,0:0:0:0:
329,192,97782,1,0,0:0:0:0:
402,192,97866,1,0,0:0:0:0:
475,192,97949,1,0,0:0:0:0:
402,192,98032,1,0,0:0:0:0:
329,192,98116,1,0,0:0:0:0:
256,192,98199,1,0,0:0:0:0:
329,192,98282,1,0,0:0:0:0:
256,192,98366,1,0,0:0:0:0:
182,192,98449,1,0,0:0:0:0:
109,192,98532,1,0,0:0:0:0:
256,192,98616,1,0,0:0:0:0:
182,192,98699,1,0,0:0:0:0:
256,192,98782,1,0,0:0:0:0:
329,192,98866,1,0,0:0:0:0:
475,192,98949,128,0,99616:0:0:0:0:
36,192,98949,128,0,99616:0:0:0:0:
402,192,98949,1,0,0:0:0:0:
109,192,98949,1,0,0:0:0:0:
402,192,99616,1,0,0:0:0:0:
256,192,99699,1,0,0:0:0:0:
182,192,99782,1,0,0:0:0:0:
109,192,99866,1,0,0:0:0:0:
475,192,99949,128,0,100282:0:0:0:0:
36,192,99949,1,0,0:0:0:0:
329,192,99949,1,0,0:0:0:0:
402,192,99949,1,0,0:0:0:0:
36,192,100282,128,0,102282:0:0:0:0:
