osu file format v14

[General]
AudioFilename: [SDVX II __] Mother Ship (C-YA MIX) [EXH] New.mp3
AudioLeadIn: 0
PreviewTime: 283
Countdown: 0
SampleSet: Soft
StackLeniency: 0.7
Mode: 3
LetterboxInBreaks: 0
EpilepsyWarning: 1
SpecialStyle: 1
WidescreenStoryboard: 1

[Editor]
Bookmarks: 48532,67116
DistanceSpacing: 0.9
BeatDivisor: 8
GridSize: 32
TimelineZoom: 1.7

[Metadata]
Title:Mother Ship (C-YA Mix)
TitleUnicode:Mother Ship (C-YA Mix)
Artist:C-YA
ArtistUnicode:C-YA
Creator:rhalp10
Version:7K EXHAUST
Source:SOUND VOLTEX II -infinite infection-
Tags:Sota Fujimori Konami Song Remixes Zenx [Shana Lesus] Rivals_7 SDVX bemani
BeatmapID:475108
BeatmapSetID:177421

[Difficulty]
HPDrainRate:8
CircleSize:7
OverallDifficulty:7
ApproachRate:5
SliderMultiplier:1.4
SliderTickRate:1

[Events]
//Background and Video events
0,0,"BG.jpg",0,0
//Break Periods
//Storyboard Layer 0 (Background)
//Storyboard Layer 1 (Fail)
//Storyboard Layer 2 (Pass)
//Storyboard Layer 3 (Foreground)
//Storyboard Sound Samples

[TimingPoints]
283,333.333333333333,4,2,1,5,1,0
15616,-133.333333333333,4,2,1,5,0,0
15949,-100,4,2,1,5,0,0
20280,-133.333333333333,4,2,1,5,0,0
20949,-100,4,2,1,5,0,0
21782,-100,4,2,1,5,0,0
32282,-100,4,2,1,5,0,1
42949,-100,4,2,1,5,0,0
51949,-133.333333333333,4,2,1,5,0,0
52032,-117.647058823529,4,2,1,5,0,0
52116,-105.263157894737,4,2,1,5,0,0
52199,-100,4,2,1,5,0,0
52280,-66.6666666666667,4,2,1,5,0,0
52282,-66.6666666666667,4,2,1,5,0,0
52366,-133.333333333333,4,2,1,5,0,0
52532,-66.6666666666667,4,2,1,5,0,0
52616,-133.333333333333,4,2,1,5,0,0
52782,-66.6666666666667,4,2,1,5,0,0
52866,-133.333333333333,4,2,1,5,0,0
53032,-66.6666666666667,4,2,1,5,0,0
53116,-133.333333333333,4,2,1,5,0,0
53282,-100,4,2,1,5,0,0
53449,-100,4,2,1,5,0,0
53616,-100,4,2,1,5,0,0
88282,-100,4,2,1,5,0,1
99032,-100,4,2,1,5,0,0

[HitObjects]
182,192,283,5,2,0:0:0:25:soft-hitnormal.wav
329,192,283,1,2,0:0:0:25:soft-hitnormal.wav
36,192,1282,1,0,0:0:0:0:
109,192,1366,1,0,0:0:0:0:
182,192,1449,1,0,0:0:0:0:
402,192,1782,1,0,0:0:0:0:
329,192,1866,1,0,0:0:0:0:
256,192,1949,1,0,0:0:0:8:soft-hitnormal.wav
109,192,1949,1,0,0:0:0:0:
402,192,2032,1,0,0:0:0:8:soft-hitnormal.wav
182,192,2116,1,0,0:0:0:8:soft-hitnormal.wav
109,192,2199,1,0,0:0:0:8:soft-hitnormal.wav
475,192,2282,1,0,0:0:0:8:soft-hitnormal.wav
36,192,2282,1,0,0:0:0:8:soft-hitnormal.wav
329,192,2366,1,0,0:0:0:8:soft-hitnormal.wav
402,192,2449,1,0,0:0:0:8:soft-hitnormal.wav
475,192,2532,1,0,0:0:0:8:soft-hitnormal.wav
109,192,2616,1,0,0:0:0:8:soft-hitnormal.wav
182,192,2699,1,0,0:0:0:8:soft-hitnormal.wav
329,192,2782,1,0,0:0:0:8:soft-hitnormal.wav
402,192,2866,1,0,0:0:0:8:soft-hitnormal.wav
182,192,2949,1,0,0:0:0:8:soft-hitnormal.wav
109,192,3032,1,0,0:0:0:8:soft-hitnormal.wav
182,192,3116,1,0,0:0:0:8:soft-hitnormal.wav
475,192,3199,1,0,0:0:0:8:soft-hitnormal.wav
402,192,3282,1,0,0:0:0:8:soft-hitnormal.wav
109,192,3366,1,0,0:0:0:8:soft-hitnormal.wav
182,192,3449,1,0,0:0:0:8:soft-hitnormal.wav
36,192,3532,1,0,0:0:0:8:soft-hitnormal.wav
256,192,3616,1,0,0:0:0:8:soft-hitnormal.wav
329,192,3699,1,0,0:0:0:8:soft-hitnormal.wav
402,192,3782,1,0,0:0:0:8:soft-hitnormal.wav
475,192,3866,1,0,0:0:0:8:soft-hitnormal.wav
36,192,3949,1,0,0:0:0:8:soft-hitnormal.wav
109,192,4032,1,0,0:0:0:8:soft-hitnormal.wav
182,192,4116,1,0,0:0:0:8:soft-hitnormal.wav
256,192,4199,1,0,0:0:0:8:soft-hitnormal.wav
329,192,4282,1,0,0:0:0:8:soft-hitnormal.wav
402,192,4366,1,0,0:0:0:8:soft-hitnormal.wav
475,192,4449,1,0,0:0:0:8:soft-hitnormal.wav
109,192,4532,1,0,0:0:0:8:soft-hitnormal.wav
475,192,4616,1,0,0:0:0:8:soft-hitnormal.wav
402,192,4699,1,0,0:0:0:8:soft-hitnormal.wav
329,192,4782,1,0,0:0:0:8:soft-hitnormal.wav
182,192,4866,1,0,0:0:0:8:soft-hitnormal.wav
36,192,4949,1,0,0:0:0:8:soft-hitnormal.wav
109,192,5032,1,0,0:0:0:8:soft-hitnormal.wav
182,192,5116,1,0,0:0:0:8:soft-hitnormal.wav
256,192,5199,1,0,0:0:0:8:soft-hitnormal.wav
109,192,5282,1,0,0:0:0:8:soft-hitnormal.wav
36,192,5366,1,0,0:0:0:8:soft-hitnormal.wav
182,192,5449,1,0,0:0:0:8:soft-hitnormal.wav
329,192,5532,1,0,0:0:0:8:soft-hitnormal.wav
256,192,5616,1,0,0:0:0:8:soft-hitnormal.wav
402,192,5699,1,0,0:0:0:8:soft-hitnormal.wav
475,192,5782,1,0,0:0:0:8:soft-hitnormal.wav
329,192,5866,1,0,0:0:0:8:soft-hitnormal.wav
182,192,5949,1,0,0:0:0:15:soft-hitnormal.wav
256,192,6032,1,0,0:0:0:15:soft-hitnormal.wav
329,192,6116,1,0,0:0:0:15:soft-hitnormal.wav
256,192,6199,1,0,0:0:0:15:soft-hitnormal.wav
182,192,6282,1,0,0:0:0:15:soft-hitnormal.wav
109,192,6366,1,0,0:0:0:15:soft-hitnormal.wav
36,192,6449,1,0,0:0:0:15:soft-hitnormal.wav
329,192,6532,1,0,0:0:0:15:soft-hitnormal.wav
36,192,6616,1,0,0:0:0:20:soft-hitnormal.wav
109,192,6699,1,0,0:0:0:20:soft-hitnormal.wav
182,192,6782,1,0,0:0:0:20:soft-hitnormal.wav
256,192,6866,1,0,0:0:0:20:soft-hitnormal.wav
329,192,6949,1,0,0:0:0:20:soft-hitnormal.wav
402,192,7032,1,0,0:0:0:20:soft-hitnormal.wav
36,192,7116,1,0,0:0:0:20:soft-hitnormal.wav
402,192,7199,1,0,0:0:0:20:soft-hitnormal.wav
109,192,7282,1,0,0:0:0:20:soft-hitnormal.wav
329,192,7366,1,0,0:0:0:20:soft-hitnormal.wav
182,192,7449,1,0,0:0:0:20:soft-hitnormal.wav
256,192,7532,1,0,0:0:0:25:soft-hitnormal.wav
36,192,7616,1,0,0:0:0:25:soft-hitnormal.wav
475,192,7699,1,0,0:0:0:25:soft-hitnormal.wav
182,192,7782,1,0,0:0:0:25:soft-hitnormal.wav
402,192,7866,1,0,0:0:0:25:soft-hitnormal.wav
329,192,7949,1,0,0:0:0:25:soft-hitnormal.wav
256,192,8032,1,0,0:0:0:25:soft-hitnormal.wav
402,192,8116,1,0,0:0:0:25:soft-hitnormal.wav
475,192,8199,1,0,0:0:0:25:soft-hitnormal.wav
402,192,8366,1,0,0:0:0:25:soft-hitnormal.wav
475,192,8449,1,0,0:0:0:25:soft-hitnormal.wav
182,192,8532,1,0,0:0:0:25:soft-hitnormal.wav
109,192,8616,1,0,0:0:0:25:soft-hitnormal.wav
36,192,8699,1,0,0:0:0:25:soft-hitnormal.wav
109,192,8782,1,0,0:0:0:25:soft-hitnormal.wav
182,192,8866,1,0,0:0:0:25:soft-hitnormal.wav
256,192,8949,1,0,0:0:0:25:soft-hitnormal.wav
475,192,9032,1,0,0:0:0:25:soft-hitnormal.wav
402,192,9116,1,0,0:0:0:25:soft-hitnormal.wav
329,192,9199,1,0,0:0:0:25:soft-hitnormal.wav
36,192,9282,1,0,0:0:0:25:soft-hitnormal.wav
109,192,9366,1,0,0:0:0:25:soft-hitnormal.wav
182,192,9449,1,0,0:0:0:25:soft-hitnormal.wav
256,192,9532,1,0,0:0:0:25:soft-hitnormal.wav
329,192,9616,1,0,0:0:0:25:soft-hitnormal.wav
402,192,9699,1,0,0:0:0:25:soft-hitnormal.wav
329,192,9782,1,0,0:0:0:25:soft-hitnormal.wav
402,192,9866,1,0,0:0:0:25:soft-hitnormal.wav
475,192,9949,1,0,0:0:0:25:soft-hitnormal.wav
402,192,10032,1,0,0:0:0:25:soft-hitnormal.wav
329,192,10116,1,0,0:0:0:25:soft-hitnormal.wav
256,192,10199,1,0,0:0:0:25:soft-hitnormal.wav
329,192,10282,1,0,0:0:0:25:soft-hitnormal.wav
36,192,10282,128,0,10616:0:0:0:0:
402,192,10366,1,0,0:0:0:25:soft-hitnormal.wav
329,192,10449,1,0,0:0:0:25:soft-hitnormal.wav
256,192,10532,1,0,0:0:0:0:
182,192,10616,128,0,10949:0:0:0:25:soft-hitnormal.wav
109,192,10949,5,0,0:0:0:25:soft-hitclap2.wav
329,192,10949,1,0,0:0:0:25:soft-hitclap2.wav
475,192,10949,128,0,11282:0:0:0:25:soft-hitclap2.wav
402,192,11282,128,0,11616:0:0:0:25:soft-hitnormal.wav
256,192,11282,1,0,0:0:0:0:
475,192,11616,128,0,11949:0:0:0:25:soft-hitnormal.wav
329,192,11616,1,0,0:0:0:25:soft-hitnormal2.wav
182,192,11949,128,0,12282:0:0:0:25:soft-hitnormal.wav
36,192,11949,1,0,0:0:0:25:soft-hitclap2.wav
402,192,12282,1,0,0:0:0:25:soft-hitnormal2.wav
256,192,12282,128,0,12616:0:0:0:25:soft-hitnormal.wav
182,192,12616,1,0,0:0:0:25:soft-hitnormal2.wav
475,192,12616,128,0,12949:0:0:0:25:soft-hitnormal.wav
329,192,12949,1,0,0:0:0:25:soft-hitclap2.wav
36,192,12949,128,0,13282:0:0:0:25:soft-hitnormal.wav
182,192,13282,1,0,0:0:0:25:soft-hitnormal2.wav
256,192,13282,128,0,13616:0:0:0:25:soft-hitnormal.wav
109,192,13616,1,0,0:0:0:25:soft-hitnormal.wav
36,192,13616,128,0,14032:0:0:0:25:soft-hitnormal.wav
402,192,13616,1,0,0:0:0:25:soft-hitclap2.wav
475,192,13616,128,0,14032:0:0:0:25:soft-hitnormal.wav
329,192,13949,1,0,0:0:0:25:soft-hitclap2.wav
182,192,14282,1,0,0:0:0:25:soft-hitnormal2.wav
329,192,14282,1,0,0:0:0:25:soft-hitnormal2.wav
329,192,14616,1,0,0:0:0:25:soft-hitnormal2.wav
182,192,14616,1,0,0:0:0:25:soft-hitnormal2.wav
329,192,14949,1,0,0:0:0:25:soft-hitnormal2.wav
182,192,14949,1,0,0:0:0:25:soft-hitnormal2.wav
182,192,15282,1,0,0:0:0:25:soft-hitnormal2.wav
329,192,15282,1,0,0:0:0:25:soft-hitnormal2.wav
109,192,15616,128,0,15949:0:0:0:25:soft-hitnormal.wav
402,192,15616,128,0,15949:0:0:0:25:soft-hitnormal.wav
256,192,15949,1,0,0:0:0:0:
256,192,16282,128,0,17616:0:0:0:25:soft-hitnormal.wav
329,192,16282,1,0,0:0:0:25:soft-hitnormal2.wav
36,192,16282,1,0,0:0:0:25:soft-hitnormal2.wav
475,192,16282,128,0,18616:0:0:0:25:soft-hitnormal.wav
329,192,16616,1,0,0:0:0:13:soft-hitnormal2.wav
36,192,16616,1,0,0:0:0:13:soft-hitnormal2.wav
329,192,16782,1,0,0:0:0:13:soft-hitnormal2.wav
36,192,16782,1,0,0:0:0:13:soft-hitnormal2.wav
36,192,16949,1,0,0:0:0:13:soft-hitnormal2.wav
329,192,16949,1,0,0:0:0:13:soft-hitnormal2.wav
329,192,17116,1,0,0:0:0:13:soft-hitnormal2.wav
36,192,17116,1,0,0:0:0:13:soft-hitnormal2.wav
329,192,17282,1,0,0:0:0:13:soft-hitnormal2.wav
36,192,17282,1,0,0:0:0:13:soft-hitnormal2.wav
329,192,17449,1,0,0:0:0:13:soft-hitnormal2.wav
36,192,17449,1,0,0:0:0:13:soft-hitnormal2.wav
182,192,17616,1,0,0:0:0:13:soft-hitnormal2.wav
402,192,17616,1,0,0:0:0:13:soft-hitnormal2.wav
182,192,17782,1,0,0:0:0:13:soft-hitnormal2.wav
402,192,17782,1,0,0:0:0:13:soft-hitnormal2.wav
182,192,17949,1,0,0:0:0:13:soft-hitnormal2.wav
402,192,17949,1,0,0:0:0:13:soft-hitnormal2.wav
182,192,18116,1,0,0:0:0:13:soft-hitnormal2.wav
402,192,18116,1,0,0:0:0:13:soft-hitnormal2.wav
182,192,18282,1,0,0:0:0:13:soft-hitnormal2.wav
402,192,18282,1,0,0:0:0:13:soft-hitnormal2.wav
109,192,18616,1,0,0:0:0:13:soft-hitnormal2.wav
36,192,18616,1,0,0:0:0:13:soft-hitnormal2.wav
329,192,18699,1,0,0:0:0:13:soft-hitnormal2.wav
402,192,18699,1,0,0:0:0:13:soft-hitnormal2.wav
182,192,18782,1,0,0:0:0:13:soft-hitnormal2.wav
256,192,18782,1,0,0:0:0:13:soft-hitnormal2.wav
402,192,18866,1,0,0:0:0:13:soft-hitnormal2.wav
475,192,18866,1,0,0:0:0:13:soft-hitnormal2.wav
329,192,18949,1,0,0:0:0:13:soft-hitnormal2.wav
182,192,18949,1,0,0:0:0:13:soft-hitnormal2.wav
109,192,19032,1,0,0:0:0:13:soft-hitnormal2.wav
402,192,19032,1,0,0:0:0:13:soft-hitnormal2.wav
182,192,19116,1,0,0:0:0:13:soft-hitnormal2.wav
329,192,19116,1,0,0:0:0:13:soft-hitnormal2.wav
109,192,19199,1,0,0:0:0:13:soft-hitnormal2.wav
402,192,19199,1,0,0:0:0:13:soft-hitnormal2.wav
329,192,19282,1,0,0:0:0:13:soft-hitnormal2.wav
182,192,19282,1,0,0:0:0:13:soft-hitnormal2.wav
402,192,19366,1,0,0:0:0:13:soft-hitnormal2.wav
109,192,19366,1,0,0:0:0:13:soft-hitnormal2.wav
329,192,19449,1,0,0:0:0:13:soft-hitnormal2.wav
182,192,19449,1,0,0:0:0:13:soft-hitnormal2.wav
402,192,19532,1,0,0:0:0:13:soft-hitnormal2.wav
109,192,19532,1,0,0:0:0:13:soft-hitnormal2.wav
329,192,19616,1,0,0:0:0:13:soft-hitnormal2.wav
182,192,19616,1,0,0:0:0:13:soft-hitnormal2.wav
402,192,19699,1,0,0:0:0:13:soft-hitnormal2.wav
109,192,19699,1,0,0:0:0:13:soft-hitnormal2.wav
329,192,19782,1,0,0:0:0:13:soft-hitnormal2.wav
182,192,19782,1,0,0:0:0:13:soft-hitnormal2.wav
402,192,19866,1,0,0:0:0:13:soft-hitnormal2.wav
109,192,19866,1,0,0:0:0:13:soft-hitnormal2.wav
36,192,19949,1,0,0:0:0:13:soft-hitnormal2.wav
475,192,19949,1,0,0:0:0:13:soft-hitnormal2.wav
329,192,20032,1,0,0:0:0:13:soft-hitnormal2.wav
182,192,20032,1,0,0:0:0:13:soft-hitnormal2.wav
475,192,20116,1,0,0:0:0:13:soft-hitnormal2.wav
36,192,20116,1,0,0:0:0:13:soft-hitnormal2.wav
329,192,20199,1,0,0:0:0:13:soft-hitnormal2.wav
182,192,20199,1,0,0:0:0:13:soft-hitnormal2.wav
36,192,20282,1,0,0:0:0:13:soft-hitnormal2.wav
475,192,20282,1,0,0:0:0:13:soft-hitnormal2.wav
256,192,20282,128,0,21282:0:0:0:25:soft-hitnormal.wav
329,192,21282,1,0,0:0:0:13:soft-hitnormal2.wav
182,192,21282,1,0,0:0:0:13:soft-hitnormal2.wav
402,192,21366,1,0,0:0:0:13:soft-hitnormal2.wav
109,192,21366,1,0,0:0:0:13:soft-hitnormal2.wav
475,192,21449,1,0,0:0:0:13:soft-hitnormal2.wav
36,192,21449,1,0,0:0:0:13:soft-hitnormal2.wav
402,192,21532,1,0,0:0:0:100:soft-hitnormal.wav
256,192,21532,1,0,0:0:0:100:soft-hitnormal.wav
109,192,21532,1,0,0:0:0:100:soft-hitnormal.wav
329,192,21616,1,0,0:0:0:25:soft-hitnormal.wav
182,192,21699,1,0,0:0:0:25:soft-hitnormal.wav
329,192,21782,1,0,0:0:0:25:soft-hitnormal.wav
475,192,21866,1,8,0:0:0:25:soft-hitclap2.wav
36,192,21866,1,8,0:0:0:25:soft-hitclap2.wav
256,192,21949,1,0,0:0:0:25:soft-hitnormal.wav
182,192,22032,1,0,0:0:0:25:soft-hitnormal.wav
329,192,22116,1,0,0:0:0:25:soft-hitnormal.wav
109,192,22199,1,0,0:0:0:25:soft-hitnormal2.wav
256,192,22282,1,0,0:0:0:25:soft-hitnormal.wav
329,192,22366,1,0,0:0:0:25:soft-hitnormal.wav
402,192,22449,1,0,0:0:0:25:soft-hitnormal.wav
475,192,22532,1,0,0:0:0:25:soft-hitnormal.wav
36,192,22616,1,8,0:0:0:25:soft-hitclap2.wav
402,192,22616,1,8,0:0:0:25:soft-hitclap2.wav
329,192,22699,1,0,0:0:0:25:soft-hitnormal.wav
182,192,22782,1,0,0:0:0:25:soft-hitnormal.wav
256,192,22866,1,0,0:0:0:25:soft-hitnormal2.wav
36,192,22949,128,0,23032:0:0:0:25:soft-hitnormal.wav
475,192,23032,128,0,23116:0:0:0:25:soft-hitnormal.wav
329,192,23116,1,0,0:0:0:25:soft-hitnormal.wav
256,192,23199,1,0,0:0:0:25:soft-hitnormal.wav
36,192,23282,1,8,0:0:0:25:soft-hitclap2.wav
475,192,23282,1,8,0:0:0:25:soft-hitclap2.wav
256,192,23366,1,0,0:0:0:25:soft-hitnormal.wav
109,192,23449,1,0,0:0:0:25:soft-hitnormal.wav
402,192,23449,1,0,0:0:0:25:soft-hitnormal.wav
36,192,23532,1,0,0:0:0:25:soft-hitnormal.wav
182,192,23616,1,0,0:0:0:25:soft-hitnormal2.wav
329,192,23616,1,0,0:0:0:25:soft-hitnormal2.wav
109,192,23699,1,0,0:0:0:25:soft-hitnormal.wav
36,192,23782,1,0,0:0:0:25:soft-hitnormal.wav
475,192,23782,1,0,0:0:0:0:
402,192,23866,1,0,0:0:0:25:soft-hitnormal.wav
182,192,23949,1,0,0:0:0:25:soft-hitclap2.wav
109,192,23949,1,0,0:0:0:0:
402,192,24032,1,0,0:0:0:25:soft-hitnormal.wav
329,192,24116,1,0,0:0:0:25:soft-hitnormal.wav
256,192,24199,1,0,0:0:0:25:soft-hitnormal2.wav
109,192,24282,128,0,24532:0:0:0:25:soft-hitnormal.wav
182,192,24282,1,0,0:0:0:25:soft-hitnormal.wav
329,192,24532,128,0,24782:0:0:0:25:soft-hitnormal.wav
402,192,24532,1,0,0:0:0:25:soft-hitclap2.wav
182,192,24616,1,0,0:0:0:25:soft-hitnormal.wav
256,192,24699,1,0,0:0:0:25:soft-hitnormal.wav
36,192,24782,128,0,24949:0:0:0:25:soft-hitnormal.wav
109,192,24782,1,0,0:0:0:25:soft-hitnormal.wav
475,192,24949,128,0,25282:0:0:0:25:soft-hitnormal.wav
402,192,24949,1,0,0:0:0:25:soft-hitnormal.wav
182,192,24949,1,0,0:0:0:25:soft-hitnormal.wav
109,192,25032,1,0,0:0:0:25:soft-hitnormal.wav
182,192,25116,1,0,0:0:0:0:
256,192,25199,1,0,0:0:0:25:soft-hitnormal.wav
182,192,25282,128,0,25449:0:0:0:25:soft-hitclap2.wav
256,192,25366,1,0,0:0:0:25:soft-hitnormal.wav
329,192,25449,1,0,0:0:0:25:soft-hitnormal.wav
256,192,25532,1,0,0:0:0:25:soft-hitnormal.wav
329,192,25616,1,0,0:0:0:25:soft-hitnormal2.wav
402,192,25616,1,0,0:0:0:0:
109,192,25616,1,0,0:0:0:25:soft-hitnormal.wav
36,192,25699,128,0,25866:0:0:0:25:soft-hitnormal.wav
182,192,25782,1,0,0:0:0:25:soft-hitnormal.wav
256,192,25866,1,0,0:0:0:25:soft-hitnormal.wav
475,192,25866,128,0,26032:0:0:0:25:soft-hitnormal.wav
329,192,25949,1,0,0:0:0:25:soft-hitclap2.wav
256,192,26032,1,0,0:0:0:25:soft-hitnormal.wav
182,192,26032,128,0,26116:0:0:0:25:soft-hitnormal.wav
329,192,26116,128,0,26199:0:0:0:25:soft-hitnormal.wav
109,192,26116,1,0,0:0:0:25:soft-hitnormal.wav
402,192,26199,1,0,0:0:0:25:soft-hitnormal.wav
329,192,26282,128,0,26366:0:0:0:25:poppi.wav
182,192,26282,128,0,26366:0:0:0:25:soft-hitnormal.wav
256,192,26282,1,0,0:0:0:25:soft-hitnormal.wav
109,192,26366,128,0,26449:0:0:0:25:soft-hitnormal.wav
402,192,26366,128,0,26449:0:0:0:25:poppi.wav
182,192,26449,128,0,26532:0:0:0:25:soft-hitnormal.wav
329,192,26449,128,0,26532:0:0:0:25:poppi.wav
256,192,26616,1,0,0:0:0:25:soft-hitclap2.wav
109,192,26699,128,0,26782:0:0:0:25:soft-hitnormal.wav
402,192,26699,128,0,26782:0:0:0:25:soft-hitnormal.wav
182,192,26782,1,0,0:0:0:25:soft-hitnormal.wav
329,192,26782,1,0,0:0:0:25:soft-hitnormal.wav
36,192,26866,128,0,26949:0:0:0:25:soft-hitnormal.wav
475,192,26866,128,0,26949:0:0:0:25:soft-hitnormal.wav
109,192,26949,1,0,0:0:0:25:soft-hitnormal2.wav
402,192,26949,1,0,0:0:0:25:soft-hitnormal2.wav
256,192,27032,1,0,0:0:0:25:soft-hitnormal.wav
182,192,27116,1,0,0:0:0:25:soft-hitnormal.wav
329,192,27116,1,0,0:0:0:25:soft-hitnormal.wav
109,192,27116,1,0,0:0:0:25:soft-hitnormal.wav
402,192,27116,1,0,0:0:0:25:soft-hitnormal.wav
256,192,27199,1,0,0:0:0:25:soft-hitnormal.wav
182,192,27282,1,0,0:0:0:25:soft-hitnormal.wav
329,192,27282,1,0,0:0:0:25:soft-hitnormal.wav
36,192,27282,1,0,0:0:0:25:soft-hitclap2.wav
475,192,27282,1,0,0:0:0:25:soft-hitclap2.wav
109,192,27366,1,0,0:0:0:25:soft-hitnormal.wav
329,192,27449,1,0,0:0:0:25:soft-hitnormal.wav
182,192,27449,1,0,0:0:0:25:soft-hitnormal.wav
402,192,27449,1,0,0:0:0:25:soft-hitnormal.wav
256,192,27532,1,0,0:0:0:25:soft-hitnormal.wav
329,192,27616,1,0,0:0:0:25:soft-hitnormal2.wav
182,192,27616,1,0,0:0:0:25:soft-hitnormal2.wav
109,192,27616,1,0,0:0:0:25:soft-hitnormal.wav
402,192,27616,1,0,0:0:0:25:soft-hitnormal.wav
475,192,27699,1,0,0:0:0:25:soft-hitnormal.wav
402,192,27782,1,0,0:0:0:25:soft-hitnormal.wav
329,192,27782,1,0,0:0:0:25:soft-hitnormal.wav
182,192,27866,1,0,0:0:0:25:soft-hitnormal.wav
36,192,27949,1,0,0:0:0:25:soft-hitclap2.wav
109,192,27949,128,0,28032:0:0:0:25:soft-hitnormal.wav
256,192,27949,1,0,0:0:0:25:soft-hitnormal.wav
475,192,27949,1,0,0:0:0:25:soft-hitclap2.wav
475,192,28116,1,0,0:0:0:25:soft-hitnormal.wav
182,192,28199,1,0,0:0:0:25:soft-hitnormal.wav
402,192,28282,128,0,28366:0:0:0:25:soft-hitnormal.wav
109,192,28366,1,0,0:0:0:25:soft-hitnormal.wav
329,192,28366,1,0,0:0:0:25:soft-hitnormal.wav
182,192,28449,1,0,0:0:0:25:soft-hitnormal.wav
402,192,28449,1,0,0:0:0:25:soft-hitnormal.wav
109,192,28532,1,0,0:0:0:25:soft-hitnormal.wav
329,192,28532,1,0,0:0:0:25:soft-hitnormal.wav
475,192,28616,1,0,0:0:0:25:soft-hitclap2.wav
36,192,28616,1,0,0:0:0:25:soft-hitclap2.wav
402,192,28616,1,0,0:0:0:25:soft-hitnormal.wav
256,192,28699,1,0,0:0:0:25:soft-hitnormal.wav
329,192,28782,1,0,0:0:0:25:soft-hitnormal.wav
475,192,28866,1,0,0:0:0:25:soft-hitnormal.wav
36,192,28866,1,0,0:0:0:25:soft-hitnormal.wav
256,192,28866,1,0,0:0:0:25:soft-hitnormal.wav
109,192,28949,1,0,0:0:0:13:soft-hitnormal2.wav
182,192,28949,1,0,0:0:0:13:soft-hitnormal2.wav
329,192,28949,1,0,0:0:0:13:soft-hitnormal2.wav
402,192,28949,1,0,0:0:0:13:soft-hitnormal2.wav
109,192,29032,1,0,0:0:0:13:soft-hitnormal2.wav
402,192,29032,1,0,0:0:0:13:soft-hitnormal2.wav
329,192,29032,1,0,0:0:0:13:soft-hitnormal2.wav
182,192,29032,1,0,0:0:0:13:soft-hitnormal2.wav
329,192,29116,1,0,0:0:0:13:soft-hitnormal2.wav
402,192,29116,1,0,0:0:0:13:soft-hitnormal2.wav
109,192,29116,1,0,0:0:0:13:soft-hitnormal2.wav
182,192,29116,1,0,0:0:0:13:soft-hitnormal2.wav
182,192,29199,1,0,0:0:0:13:soft-hitnormal2.wav
329,192,29199,1,0,0:0:0:13:soft-hitnormal2.wav
329,192,29282,1,0,0:0:0:13:soft-hitclap2.wav
182,192,29282,1,0,0:0:0:13:soft-hitclap2.wav
256,192,29366,1,0,0:0:0:25:soft-hitnormal.wav
475,192,29366,128,0,29449:0:0:0:25:poppi.wav
36,192,29366,128,0,29449:0:0:0:25:soft-hitnormal.wav
109,192,29532,128,0,29616:0:0:0:25:soft-hitnormal.wav
402,192,29532,128,0,29616:0:0:0:25:soft-hitnormal.wav
182,192,29616,128,0,29699:0:0:0:25:soft-hitnormal.wav
329,192,29616,128,0,29699:0:0:0:25:soft-hitnormal.wav
36,192,29699,1,0,0:0:0:25:soft-hitnormal.wav
475,192,29699,1,0,0:0:0:25:soft-hitnormal.wav
256,192,29782,1,0,0:0:0:25:soft-hitnormal.wav
182,192,29866,1,0,0:0:0:25:soft-hitnormal.wav
329,192,29866,1,0,0:0:0:25:soft-hitnormal.wav
36,192,29949,1,0,0:0:0:25:soft-hitclap2.wav
256,192,29949,1,0,0:0:0:25:soft-hitnormal.wav
475,192,29949,1,0,0:0:0:25:soft-hitclap2.wav
109,192,30032,1,0,0:0:0:25:soft-hitnormal.wav
329,192,30032,1,0,0:0:0:25:soft-hitnormal.wav
402,192,30116,1,0,0:0:0:25:soft-hitnormal.wav
182,192,30116,1,0,0:0:0:25:soft-hitnormal.wav
109,192,30199,1,0,0:0:0:25:soft-hitnormal.wav
329,192,30199,1,0,0:0:0:25:soft-hitnormal.wav
256,192,30282,1,0,0:0:0:25:soft-hitnormal.wav
36,192,30282,1,0,0:0:0:25:soft-hitnormal2.wav
475,192,30282,1,0,0:0:0:25:soft-hitnormal2.wav
109,192,30366,1,0,0:0:0:25:soft-hitnormal.wav
402,192,30366,1,0,0:0:0:25:soft-hitnormal.wav
402,192,30449,1,0,0:0:0:25:soft-hitnormal.wav
109,192,30449,1,0,0:0:0:25:soft-hitnormal.wav
182,192,30532,128,0,30616:0:0:0:25:soft-hitnormal.wav
329,192,30532,128,0,30616:0:0:0:25:soft-hitnormal.wav
402,192,30616,128,0,30699:0:0:0:25:soft-hitclap2.wav
109,192,30616,128,0,30699:0:0:0:25:soft-hitclap2.wav
329,192,30949,128,0,31116:0:0:0:25:soft-hitnormal.wav
182,192,30949,128,0,31116:0:0:0:25:soft-hitnormal.wav
475,192,30949,128,0,31116:0:0:0:25:soft-hitnormal.wav
36,192,30949,128,0,31116:0:0:0:25:soft-hitnormal.wav
402,192,31032,1,0,0:0:0:25:soft-hitnormal.wav
109,192,31116,1,0,0:0:0:25:soft-hitnormal.wav
256,192,31199,1,0,0:0:0:25:soft-hitnormal.wav
36,192,31282,128,0,31366:0:0:0:25:soft-hitnormal.wav
329,192,31282,128,0,31366:0:0:0:25:soft-hitnormal.wav
402,192,31366,128,0,31449:0:0:0:25:soft-hitclap2.wav
182,192,31366,128,0,31449:0:0:0:25:soft-hitclap2.wav
109,192,31449,1,0,0:0:0:25:soft-hitnormal.wav
475,192,31449,1,0,0:0:0:25:soft-hitnormal.wav
36,192,31532,1,0,0:0:0:25:soft-hitnormal.wav
109,192,31616,128,0,31699:0:0:0:25:soft-hitnormal.wav
402,192,31616,128,0,31699:0:0:0:25:poppi.wav
36,192,31699,128,0,31782:0:0:0:25:soft-hitnormal.wav
475,192,31699,128,0,31782:0:0:0:25:soft-hitnormal.wav
109,192,31782,128,0,31866:0:0:0:25:soft-hitnormal.wav
402,192,31782,128,0,31866:0:0:0:25:soft-hitnormal.wav
329,192,31949,1,0,0:0:0:100:soft-hitnormal.wav
256,192,31949,1,0,0:0:0:25:soft-hitclap2.wav
182,192,31949,1,0,0:0:0:100:soft-hitnormal.wav
109,192,32282,1,0,0:0:0:25:soft-hitnormal2.wav
402,192,32282,1,0,0:0:0:25:soft-hitnormal2.wav
475,192,32366,1,0,0:0:0:25:soft-hitnormal.wav
182,192,32449,1,0,0:0:0:25:soft-hitnormal.wav
402,192,32532,1,0,0:0:0:25:soft-hitnormal.wav
36,192,32616,1,0,0:0:0:25:soft-hitclap2.wav
182,192,32699,1,0,0:0:0:25:soft-hitnormal.wav
329,192,32782,1,0,0:0:0:25:soft-hitnormal.wav
256,192,32866,1,0,0:0:0:25:soft-hitnormal.wav
475,192,32949,1,0,0:0:0:25:soft-hitnormal2.wav
256,192,33032,1,0,0:0:0:25:soft-hitnormal.wav
182,192,33116,1,0,0:0:0:25:soft-hitnormal.wav
329,192,33199,1,0,0:0:0:25:soft-hitnormal.wav
109,192,33282,1,0,0:0:0:25:soft-hitclap2.wav
402,192,33366,1,0,0:0:0:25:soft-hitnormal.wav
182,192,33449,1,0,0:0:0:25:soft-hitnormal.wav
475,192,33532,1,0,0:0:0:25:soft-hitnormal.wav
256,192,33616,1,0,0:0:0:25:soft-hitnormal2.wav
109,192,33699,1,0,0:0:0:25:soft-hitnormal.wav
182,192,33782,1,0,0:0:0:25:soft-hitnormal.wav
256,192,33866,1,0,0:0:0:25:soft-hitnormal.wav
475,192,33949,1,0,0:0:0:25:soft-hitclap2.wav
36,192,34032,1,0,0:0:0:25:soft-hitnormal.wav
402,192,34116,1,0,0:0:0:25:soft-hitnormal.wav
475,192,34199,1,0,0:0:0:25:soft-hitnormal.wav
109,192,34282,1,0,0:0:0:25:soft-hitnormal2.wav
475,192,34366,1,0,0:0:0:25:soft-hitnormal.wav
402,192,34449,1,0,0:0:0:25:soft-hitnormal.wav
182,192,34532,1,0,0:0:0:25:soft-hitnormal.wav
256,192,34616,1,0,0:0:0:25:soft-hitclap2.wav
329,192,34699,1,0,0:0:0:25:soft-hitnormal.wav
109,192,34782,1,0,0:0:0:25:soft-hitnormal.wav
402,192,34866,1,0,0:0:0:25:soft-hitnormal.wav
256,192,34949,1,0,0:0:0:25:soft-hitnormal2.wav
182,192,35032,1,0,0:0:0:25:soft-hitnormal.wav
475,192,35116,1,0,0:0:0:25:soft-hitnormal.wav
109,192,35199,1,0,0:0:0:25:soft-hitnormal.wav
256,192,35282,1,0,0:0:0:25:soft-hitclap2.wav
36,192,35366,1,0,0:0:0:25:soft-hitnormal.wav
109,192,35449,1,0,0:0:0:25:soft-hitnormal.wav
182,192,35532,1,0,0:0:0:25:soft-hitnormal.wav
256,192,35616,1,0,0:0:0:25:soft-hitnormal2.wav
109,192,35699,1,0,0:0:0:25:soft-hitnormal.wav
329,192,35782,1,0,0:0:0:25:soft-hitnormal.wav
402,192,35866,1,0,0:0:0:25:soft-hitnormal.wav
256,192,35949,1,0,0:0:0:25:soft-hitclap2.wav
182,192,36032,1,0,0:0:0:25:soft-hitnormal.wav
475,192,36116,1,0,0:0:0:25:soft-hitnormal.wav
109,192,36199,1,0,0:0:0:25:soft-hitnormal.wav
256,192,36282,1,0,0:0:0:25:soft-hitnormal2.wav
475,192,36366,1,0,0:0:0:25:soft-hitnormal.wav
402,192,36449,1,0,0:0:0:25:soft-hitnormal.wav
329,192,36532,1,0,0:0:0:25:soft-hitnormal.wav
475,192,36616,1,0,0:0:0:25:soft-hitclap2.wav
402,192,36699,1,0,0:0:0:25:soft-hitnormal.wav
109,192,36699,1,0,0:0:0:25:soft-hitnormal.wav
256,192,36782,1,0,0:0:0:25:soft-hitnormal.wav
182,192,36866,1,0,0:0:0:25:soft-hitnormal.wav
109,192,36949,1,0,0:0:0:25:soft-hitnormal2.wav
402,192,36949,1,0,0:0:0:25:soft-hitnormal2.wav
256,192,37032,1,0,0:0:0:25:soft-hitnormal.wav
329,192,37116,1,0,0:0:0:25:soft-hitnormal.wav
256,192,37199,1,0,0:0:0:25:soft-hitnormal.wav
109,192,37282,1,0,0:0:0:25:soft-hitnormal2.wav
402,192,37282,1,0,0:0:0:25:soft-hitnormal2.wav
182,192,37366,1,0,0:0:0:25:soft-hitnormal.wav
475,192,37449,1,0,0:0:0:25:soft-hitnormal.wav
402,192,37532,1,0,0:0:0:25:soft-hitnormal.wav
256,192,37616,1,0,0:0:0:100:soft-hitnormal.wav
329,192,37616,1,0,0:0:0:100:soft-hitnormal.wav
182,192,37699,1,0,0:0:0:25:soft-hitnormal.wav
475,192,37782,1,0,0:0:0:25:soft-hitnormal.wav
402,192,37866,1,0,0:0:0:25:soft-hitnormal.wav
329,192,37949,1,0,0:0:0:25:soft-hitnormal2.wav
182,192,38032,1,0,0:0:0:25:soft-hitnormal.wav
36,192,38116,1,0,0:0:0:25:soft-hitnormal.wav
109,192,38199,1,0,0:0:0:25:soft-hitnormal.wav
36,192,38282,1,0,0:0:0:25:soft-hitclap2.wav
109,192,38366,1,0,0:0:0:25:soft-hitnormal.wav
182,192,38449,1,0,0:0:0:25:soft-hitnormal.wav
256,192,38532,1,0,0:0:0:25:soft-hitnormal.wav
402,192,38616,1,0,0:0:0:25:soft-hitnormal2.wav
182,192,38616,1,0,0:0:0:25:soft-hitnormal2.wav
109,192,38699,1,0,0:0:0:25:soft-hitnormal.wav
182,192,38782,1,0,0:0:0:25:soft-hitnormal.wav
256,192,38866,1,0,0:0:0:25:soft-hitnormal2.wav
402,192,38949,1,0,0:0:0:100:soft-hitnormal.wav
329,192,38949,1,0,0:0:0:100:soft-hitnormal.wav
475,192,39032,1,0,0:0:0:25:soft-hitnormal.wav
36,192,39116,1,0,0:0:0:25:soft-hitnormal.wav
402,192,39199,1,0,0:0:0:25:soft-hitnormal.wav
109,192,39282,1,0,0:0:0:25:soft-hitclap2.wav
329,192,39366,1,0,0:0:0:25:soft-hitnormal.wav
182,192,39449,1,0,0:0:0:25:soft-hitnormal.wav
402,192,39532,1,0,0:0:0:25:soft-hitnormal.wav
256,192,39616,1,0,0:0:0:25:soft-hitnormal2.wav
329,192,39699,1,0,0:0:0:25:soft-hitnormal.wav
256,192,39782,1,0,0:0:0:25:soft-hitnormal.wav
109,192,39782,1,0,0:0:0:25:soft-hitnormal2.wav
402,192,39866,1,0,0:0:0:25:soft-hitnormal.wav
256,192,39949,1,0,0:0:0:25:soft-hitnormal2.wav
36,192,40032,1,0,0:0:0:25:soft-hitnormal.wav
256,192,40116,1,0,0:0:0:25:soft-hitnormal.wav
402,192,40116,1,0,0:0:0:25:soft-hitnormal.wav
329,192,40199,1,0,0:0:0:25:soft-hitnormal.wav
256,192,40282,1,0,0:0:0:100:soft-hitnormal.wav
475,192,40282,1,0,0:0:0:100:soft-hitnormal.wav
36,192,40282,1,0,0:0:0:25:soft-hitnormal.wav
182,192,40366,1,0,0:0:0:25:soft-hitnormal.wav
329,192,40449,1,0,0:0:0:25:soft-hitnormal.wav
109,192,40532,1,0,0:0:0:25:soft-hitnormal.wav
256,192,40616,1,0,0:0:0:25:soft-hitclap2.wav
402,192,40699,1,0,0:0:0:25:soft-hitnormal.wav
36,192,40782,1,0,0:0:0:25:soft-hitnormal.wav
109,192,40866,1,0,0:0:0:25:soft-hitnormal.wav
36,192,40949,1,0,0:0:0:100:soft-hitnormal.wav
475,192,40949,1,0,0:0:0:100:soft-hitnormal.wav
402,192,40949,1,0,0:0:0:100:soft-hitnormal.wav
256,192,41032,1,0,0:0:0:25:soft-hitnormal.wav
329,192,41116,1,0,0:0:0:25:soft-hitnormal.wav
182,192,41199,1,0,0:0:0:25:soft-hitnormal.wav
329,192,41282,1,0,0:0:0:25:soft-hitnormal2.wav
182,192,41366,1,0,0:0:0:25:soft-hitnormal.wav
329,192,41449,1,0,0:0:0:25:soft-hitnormal.wav
402,192,41532,1,0,0:0:0:25:soft-hitnormal.wav
256,192,41616,128,0,42949:0:0:0:25:soft-hitnormal.wav
182,192,41616,1,0,0:0:0:25:soft-hitclap2.wav
329,192,41616,1,0,0:0:0:25:soft-hitnormal.wav
475,192,41616,1,0,0:0:0:25:soft-hitclap2.wav
109,192,41699,1,0,0:0:0:25:soft-hitnormal.wav
402,192,41782,1,0,0:0:0:25:soft-hitnormal.wav
475,192,41866,1,0,0:0:0:25:soft-hitnormal.wav
329,192,41949,1,0,0:0:0:25:soft-hitnormal2.wav
109,192,42032,1,0,0:0:0:25:soft-hitnormal.wav
182,192,42116,1,0,0:0:0:25:soft-hitnormal.wav
475,192,42282,1,0,0:0:0:25:soft-hitnormal2.wav
36,192,42282,1,0,0:0:0:25:soft-hitnormal2.wav
402,192,42366,1,0,0:0:0:25:soft-hitnormal.wav
109,192,42366,1,0,0:0:0:25:soft-hitnormal.wav
475,192,42449,1,0,0:0:0:25:soft-hitnormal.wav
36,192,42449,1,0,0:0:0:25:soft-hitnormal.wav
109,192,42532,1,0,0:0:0:25:soft-hitnormal.wav
402,192,42532,1,0,0:0:0:0:
329,192,42616,1,0,0:0:0:25:soft-hitnormal2.wav
182,192,42616,1,0,0:0:0:25:soft-hitnormal2.wav
329,192,42782,1,0,0:0:0:25:soft-hitnormal2.wav
182,192,42782,1,0,0:0:0:25:soft-hitnormal2.wav
36,192,42866,1,0,0:0:0:13:soft-hitnormal2.wav
475,192,42866,1,0,0:0:0:13:soft-hitnormal2.wav
402,192,42949,1,0,0:0:0:13:soft-hitnormal2.wav
109,192,42949,1,0,0:0:0:13:soft-hitnormal2.wav
182,192,42949,128,0,45699:0:0:0:25:soft-hitnormal.wav
329,192,42949,128,0,45366:0:0:0:25:soft-hitnormal.wav
256,192,43449,1,0,0:0:0:0:
256,192,43616,128,0,43866:0:0:0:25:soft-hitnormal.wav
36,192,43866,1,0,0:0:0:25:soft-hitnormal.wav
475,192,43866,1,0,0:0:0:25:soft-hitnormal.wav
109,192,44282,1,0,0:0:0:25:soft-hitnormal.wav
256,192,44282,128,0,46199:0:0:0:25:soft-hitnormal.wav
36,192,44366,1,0,0:0:0:25:soft-hitnormal.wav
475,192,44366,1,0,0:0:0:25:soft-hitnormal.wav
402,192,44449,1,0,0:0:0:25:soft-hitnormal.wav
109,192,44532,1,0,0:0:0:25:soft-hitnormal.wav
36,192,44616,1,0,0:0:0:25:soft-hitnormal2.wav
109,192,44699,1,0,0:0:0:25:soft-hitnormal.wav
36,192,44782,1,0,0:0:0:25:soft-hitnormal.wav
475,192,44866,1,0,0:0:0:25:soft-hitnormal.wav
402,192,44949,1,0,0:0:0:25:soft-hitclap2.wav
475,192,45032,1,0,0:0:0:25:soft-hitnormal.wav
402,192,45116,1,0,0:0:0:25:soft-hitnormal.wav
109,192,45282,1,0,0:0:0:25:soft-hitnormal2.wav
36,192,45366,1,0,0:0:0:25:soft-hitnormal.wav
475,192,45366,1,0,0:0:0:25:soft-hitnormal.wav
402,192,45449,1,0,0:0:0:25:soft-hitnormal.wav
36,192,45532,1,0,0:0:0:25:soft-hitnormal.wav
475,192,45616,1,0,0:0:0:25:soft-hitnormal2.wav
109,192,45699,128,0,46782:0:0:0:25:soft-hitnormal.wav
402,192,45699,1,0,0:0:0:25:soft-hitnormal.wav
36,192,45782,1,0,0:0:0:25:soft-hitnormal.wav
182,192,45866,1,0,0:0:0:25:soft-hitnormal.wav
329,192,45949,1,0,0:0:0:25:soft-hitnormal.wav
36,192,46032,1,0,0:0:0:25:soft-hitnormal.wav
475,192,46032,1,0,0:0:0:25:soft-hitnormal.wav
402,192,46116,128,0,48032:0:0:0:25:soft-hitnormal.wav
182,192,46116,1,0,0:0:0:25:soft-hitnormal.wav
329,192,46199,1,0,0:0:0:25:soft-hitnormal.wav
475,192,46282,1,0,0:0:0:25:soft-hitclap2.wav
329,192,46366,1,0,0:0:0:25:soft-hitnormal.wav
182,192,46449,1,0,0:0:0:25:soft-hitnormal.wav
329,192,46532,1,0,0:0:0:25:soft-hitnormal.wav
256,192,46616,1,0,0:0:0:25:soft-hitnormal2.wav
329,192,46699,1,0,0:0:0:25:soft-hitnormal.wav
182,192,46699,1,0,0:0:0:25:soft-hitnormal.wav
36,192,46782,1,0,0:0:0:25:soft-hitnormal.wav
182,192,46866,1,0,0:0:0:25:soft-hitnormal.wav
36,192,46949,1,0,0:0:0:13:soft-hitnormal2.wav
475,192,46949,1,0,0:0:0:13:soft-hitnormal2.wav
256,192,47032,1,0,0:0:0:25:soft-hitnormal2.wav
182,192,47116,1,0,0:0:0:13:soft-hitnormal2.wav
329,192,47116,1,0,0:0:0:13:soft-hitnormal2.wav
36,192,47199,1,0,0:0:0:13:soft-hitnormal2.wav
475,192,47199,1,0,0:0:0:13:soft-hitnormal2.wav
329,192,47282,1,0,0:0:0:13:soft-hitnormal2.wav
182,192,47282,1,0,0:0:0:13:soft-hitnormal2.wav
109,192,47366,1,0,0:0:0:25:soft-hitnormal.wav
36,192,47449,1,0,0:0:0:25:soft-hitnormal.wav
182,192,47532,1,0,0:0:0:25:soft-hitnormal.wav
475,192,47616,1,0,0:0:0:13:soft-hitnormal2.wav
109,192,47616,1,0,0:0:0:13:soft-hitnormal2.wav
36,192,47699,1,0,0:0:0:25:soft-hitnormal.wav
329,192,47699,1,0,0:0:0:25:soft-hitnormal.wav
475,192,47782,1,0,0:0:0:13:soft-hitnormal2.wav
256,192,47782,1,0,0:0:0:13:soft-hitnormal2.wav
36,192,47866,1,0,0:0:0:25:soft-hitnormal.wav
182,192,47866,1,0,0:0:0:25:soft-hitnormal.wav
109,192,47949,1,0,0:0:0:25:soft-hitnormal.wav
182,192,48032,1,0,0:0:0:25:soft-hitnormal.wav
475,192,48032,128,0,48199:0:0:0:0:
256,192,48116,1,0,0:0:0:25:soft-hitnormal.wav
36,192,48199,128,0,48282:0:0:0:25:soft-hitnormal.wav
329,192,48199,1,0,0:0:0:25:soft-hitnormal.wav
109,192,48282,128,0,48366:0:0:0:25:soft-hitnormal2.wav
182,192,48366,128,0,48449:0:0:0:25:soft-hitnormal.wav
475,192,48449,128,0,48532:0:0:0:25:soft-hitnormal.wav
402,192,48532,128,0,48616:0:0:0:25:soft-hitnormal.wav
329,192,48616,128,0,48699:0:0:0:25:soft-hitnormal2.wav
109,192,48699,128,0,51282:0:0:0:25:soft-hitnormal.wav
182,192,48782,1,0,0:0:0:25:soft-hitnormal.wav
256,192,48866,1,0,0:0:0:25:soft-hitnormal.wav
329,192,48949,1,0,0:0:0:25:soft-hitclap2.wav
402,192,48949,1,0,0:0:0:25:soft-hitnormal.wav
182,192,49032,1,0,0:0:0:25:soft-hitnormal.wav
256,192,49116,1,0,0:0:0:25:soft-hitnormal.wav
329,192,49199,1,0,0:0:0:25:soft-hitnormal.wav
402,192,49282,1,0,0:0:0:25:soft-hitnormal2.wav
329,192,49366,1,0,0:0:0:25:soft-hitnormal.wav
256,192,49449,1,0,0:0:0:25:soft-hitnormal.wav
182,192,49532,1,0,0:0:0:25:soft-hitnormal.wav
475,192,49616,1,0,0:0:0:25:soft-hitnormal2.wav
329,192,49699,1,0,0:0:0:25:soft-hitnormal.wav
475,192,49782,1,0,0:0:0:25:soft-hitnormal.wav
402,192,49866,1,0,0:0:0:25:soft-hitnormal.wav
256,192,49949,128,0,50366:0:0:0:25:soft-hitnormal.wav
329,192,49949,128,0,50366:0:0:0:25:soft-hitnormal2.wav
182,192,50032,1,0,0:0:0:25:soft-hitnormal.wav
402,192,50116,128,0,50532:0:0:0:25:soft-hitnormal.wav
475,192,50116,128,0,50532:0:0:0:25:soft-hitnormal.wav
36,192,50116,1,0,0:0:0:25:soft-hitnormal.wav
182,192,50199,1,0,0:0:0:25:soft-hitnormal.wav
36,192,50282,1,0,0:0:0:25:soft-hitnormal.wav
182,192,50366,1,0,0:0:0:25:soft-hitnormal.wav
36,192,50449,1,0,0:0:0:25:soft-hitnormal.wav
182,192,50532,1,0,0:0:0:25:soft-hitnormal.wav
256,192,50616,1,0,0:0:0:25:soft-hitnormal2.wav
329,192,50699,1,0,0:0:0:25:soft-hitnormal.wav
402,192,50782,1,0,0:0:0:25:soft-hitnormal.wav
329,192,50866,1,0,0:0:0:25:soft-hitnormal.wav
475,192,50949,1,0,0:0:0:25:soft-hitnormal2.wav
329,192,51032,1,0,0:0:0:25:soft-hitnormal.wav
256,192,51116,1,0,0:0:0:25:soft-hitnormal.wav
402,192,51199,128,0,51949:0:0:0:25:soft-hitnormal.wav
182,192,51282,1,0,0:0:0:25:soft-hitnormal.wav
256,192,51366,1,0,0:0:0:25:soft-hitnormal.wav
329,192,51449,128,0,51949:0:0:0:25:soft-hitnormal2.wav
182,192,51532,128,0,51949:0:0:0:25:soft-hitnormal.wav
109,192,51616,128,0,51949:0:0:0:25:soft-hitnormal.wav
36,192,51616,1,0,0:0:0:25:soft-hitnormal.wav
256,192,51949,1,0,0:0:0:0:
475,192,52032,1,0,0:0:0:0:
402,192,52032,1,0,0:0:0:0:
109,192,52116,1,0,0:0:0:0:
36,192,52116,1,0,0:0:0:0:
256,192,52199,1,0,0:0:0:0:
402,192,52199,1,0,0:0:0:0:
36,192,52282,1,0,0:0:0:8:soft-hitnormal2.wav
182,192,52282,1,0,0:0:0:8:soft-hitnormal2.wav
329,192,52282,1,0,0:0:0:8:soft-hitnormal2.wav
475,192,52282,1,0,0:0:0:8:soft-hitnormal2.wav
256,192,52532,1,0,0:0:0:8:soft-hitnormal2.wav
402,192,52532,1,0,0:0:0:8:soft-hitnormal2.wav
109,192,52532,1,0,0:0:0:8:soft-hitnormal2.wav
36,192,52782,1,0,0:0:0:8:soft-hitnormal2.wav
182,192,52782,1,0,0:0:0:8:soft-hitnormal2.wav
329,192,52782,1,0,0:0:0:8:soft-hitnormal2.wav
475,192,52782,1,0,0:0:0:8:soft-hitnormal2.wav
109,192,53032,1,0,0:0:0:8:soft-hitnormal2.wav
256,192,53032,1,0,0:0:0:8:soft-hitnormal2.wav
402,192,53032,1,0,0:0:0:8:soft-hitnormal2.wav
36,192,53282,1,0,0:0:0:8:soft-hitnormal2.wav
182,192,53282,1,0,0:0:0:8:soft-hitnormal2.wav
329,192,53282,1,0,0:0:0:8:soft-hitnormal2.wav
475,192,53282,1,0,0:0:0:8:soft-hitnormal2.wav
402,192,53449,1,0,0:0:0:8:soft-hitnormal2.wav
109,192,53449,1,0,0:0:0:8:soft-hitnormal2.wav
256,192,53449,1,0,0:0:0:8:soft-hitnormal2.wav
36,192,53616,1,0,0:0:0:100:soft-hitnormal.wav
182,192,53616,1,0,0:0:0:100:soft-hitnormal.wav
329,192,53616,1,0,0:0:0:100:soft-hitnormal.wav
475,192,53616,1,0,0:0:0:100:soft-hitnormal.wav
182,192,53949,1,0,0:0:0:13:soft-hitnormal2.wav
329,192,53949,1,0,0:0:0:13:soft-hitnormal2.wav
402,192,54282,1,0,0:0:0:25:soft-hitnormal.wav
109,192,54282,1,0,0:0:0:25:soft-hitnormal.wav
329,192,54282,1,0,0:0:0:25:soft-hitnormal.wav
36,192,54449,1,0,0:0:0:25:soft-hitnormal.wav
475,192,54449,1,0,0:0:0:25:soft-hitnormal.wav
182,192,54449,1,0,0:0:0:25:soft-hitnormal.wav
329,192,54616,1,0,0:0:0:13:soft-hitclap2.wav
182,192,54616,1,0,0:0:0:13:soft-hitclap2.wav
36,192,54782,1,0,0:0:0:25:soft-hitnormal.wav
109,192,54866,1,0,0:0:0:25:soft-hitnormal.wav
36,192,54949,128,0,55199:0:0:0:13:soft-hitnormal2.wav
182,192,54949,128,0,55199:0:0:0:13:soft-hitnormal2.wav
329,192,55282,128,0,55532:0:0:0:13:soft-hitclap2.wav
475,192,55282,128,0,55532:0:0:0:13:soft-hitclap2.wav
182,192,55616,1,0,0:0:0:13:soft-hitnormal2.wav
36,192,55616,1,0,0:0:0:13:soft-hitnormal2.wav
256,192,55699,1,0,0:0:0:25:soft-hitnormal.wav
182,192,55782,1,0,0:0:0:13:soft-hitnormal2.wav
329,192,55782,1,0,0:0:0:13:soft-hitnormal2.wav
402,192,55866,1,0,0:0:0:25:soft-hitnormal.wav
329,192,55949,1,0,0:0:0:13:soft-hitclap2.wav
475,192,55949,1,0,0:0:0:13:soft-hitclap2.wav
256,192,56032,1,0,0:0:0:25:soft-hitnormal.wav
109,192,56116,1,0,0:0:0:25:soft-hitnormal.wav
475,192,56199,1,0,0:0:0:25:soft-hitnormal.wav
402,192,56282,1,0,0:0:0:25:soft-hitnormal2.wav
475,192,56366,128,0,56449:0:0:0:25:soft-hitnormal.wav
329,192,56366,128,0,56449:0:0:0:25:soft-hitnormal.wav
182,192,56532,1,0,0:0:0:25:soft-hitnormal.wav
402,192,56616,1,0,0:0:0:25:soft-hitclap2.wav
329,192,56699,1,0,0:0:0:25:soft-hitnormal.wav
256,192,56782,1,0,0:0:0:25:soft-hitnormal.wav
182,192,56866,1,0,0:0:0:25:soft-hitnormal.wav
109,192,56949,1,0,0:0:0:25:soft-hitnormal2.wav
36,192,57032,128,0,57116:0:0:0:25:soft-hitnormal.wav
182,192,57032,128,0,57116:0:0:0:25:soft-hitnormal.wav
109,192,57199,1,0,0:0:0:25:soft-hitnormal.wav
182,192,57282,1,0,0:0:0:13:soft-hitclap2.wav
402,192,57282,1,0,0:0:0:13:soft-hitclap2.wav
329,192,57366,1,0,0:0:0:25:soft-hitnormal.wav
109,192,57449,1,0,0:0:0:25:soft-hitnormal.wav
256,192,57449,1,0,0:0:0:25:soft-hitnormal.wav
475,192,57449,1,0,0:0:0:25:soft-hitnormal.wav
182,192,57532,1,0,0:0:0:25:soft-hitnormal.wav
329,192,57532,1,0,0:0:0:25:soft-hitnormal.wav
182,192,57616,128,0,57782:0:0:0:25:soft-hitnormal.wav
329,192,57616,128,0,57782:0:0:0:25:soft-hitnormal.wav
475,192,57616,128,0,57782:0:0:0:25:soft-hitnormal.wav
36,192,57616,128,0,57782:0:0:0:25:soft-hitnormal.wav
256,192,57949,1,0,0:0:0:13:soft-hitclap2.wav
402,192,57949,1,0,0:0:0:13:soft-hitclap2.wav
109,192,57949,1,0,0:0:0:13:soft-hitclap2.wav
329,192,58032,1,0,0:0:0:25:soft-hitnormal.wav
256,192,58116,1,0,0:0:0:25:soft-hitnormal.wav
182,192,58199,1,0,0:0:0:25:soft-hitnormal.wav
109,192,58282,1,0,0:0:0:25:soft-hitnormal.wav
402,192,58282,1,0,0:0:0:25:soft-hitnormal.wav
36,192,58366,1,0,0:0:0:13:soft-hitnormal2.wav
475,192,58366,1,0,0:0:0:13:soft-hitnormal2.wav
109,192,58449,1,0,0:0:0:8:soft-hitnormal2.wav
402,192,58449,1,0,0:0:0:8:soft-hitnormal2.wav
329,192,58449,1,0,0:0:0:8:soft-hitnormal2.wav
182,192,58449,1,0,0:0:0:8:soft-hitnormal2.wav
36,192,58532,1,0,0:0:0:13:soft-hitnormal2.wav
475,192,58532,1,0,0:0:0:13:soft-hitnormal2.wav
182,192,58616,1,0,0:0:0:13:soft-hitnormal2.wav
329,192,58616,1,0,0:0:0:13:soft-hitnormal2.wav
256,192,58699,1,0,0:0:0:25:soft-hitnormal.wav
182,192,58782,1,0,0:0:0:13:soft-hitnormal2.wav
329,192,58782,1,0,0:0:0:13:soft-hitnormal2.wav
256,192,58866,1,0,0:0:0:13:soft-hitnormal2.wav
182,192,58949,1,0,0:0:0:8:soft-hitnormal2.wav
329,192,58949,1,0,0:0:0:8:soft-hitnormal2.wav
402,192,58949,1,0,0:0:0:8:soft-hitnormal2.wav
109,192,58949,1,0,0:0:0:8:soft-hitnormal2.wav
329,192,59116,1,0,0:0:0:25:soft-hitnormal.wav
182,192,59116,1,0,0:0:0:25:soft-hitnormal.wav
402,192,59116,1,0,0:0:0:25:soft-hitnormal.wav
109,192,59116,1,0,0:0:0:25:soft-hitnormal.wav
475,192,59199,1,0,0:0:0:25:soft-hitnormal.wav
36,192,59199,1,0,0:0:0:25:soft-hitnormal.wav
256,192,59282,1,0,0:0:0:25:soft-hitnormal2.wav
36,192,59449,1,0,0:0:0:8:soft-hitnormal2.wav
475,192,59449,1,0,0:0:0:8:soft-hitnormal2.wav
109,192,59449,1,0,0:0:0:8:soft-hitnormal2.wav
402,192,59449,1,0,0:0:0:8:soft-hitnormal2.wav
256,192,59532,1,0,0:0:0:25:soft-hitnormal2.wav
182,192,59616,1,0,0:0:0:13:soft-hitnormal2.wav
329,192,59616,1,0,0:0:0:13:soft-hitnormal2.wav
402,192,59782,1,0,0:0:0:13:soft-hitnormal2.wav
109,192,59782,1,0,0:0:0:13:soft-hitnormal2.wav
36,192,59866,1,0,0:0:0:13:soft-hitnormal2.wav
475,192,59866,1,0,0:0:0:13:soft-hitnormal2.wav
329,192,59949,1,0,0:0:0:100:soft-hitnormal.wav
182,192,59949,1,0,0:0:0:100:soft-hitnormal.wav
256,192,59949,128,0,61032:0:0:0:25:soft-hitnormal.wav
475,192,60282,128,0,61282:0:0:0:25:soft-hitnormal.wav
402,192,60449,128,0,61282:0:0:0:25:soft-hitnormal.wav
329,192,60616,128,0,61282:0:0:0:25:soft-hitnormal.wav
36,192,60699,1,0,0:0:0:0:
109,192,60782,1,0,0:0:0:0:
36,192,60866,1,0,0:0:0:25:soft-hitnormal.wav
109,192,60949,1,0,0:0:0:25:soft-hitnormal.wav
182,192,61032,1,0,0:0:0:25:soft-hitnormal.wav
36,192,61116,1,0,0:0:0:25:soft-hitnormal.wav
109,192,61199,1,0,0:0:0:25:soft-hitnormal.wav
182,192,61282,1,0,0:0:0:25:soft-hitnormal.wav
256,192,61282,128,0,61449:0:0:0:25:soft-hitnormal.wav
182,192,61616,1,0,0:0:0:13:soft-hitnormal2.wav
329,192,61616,1,0,0:0:0:13:soft-hitnormal2.wav
402,192,61782,1,0,0:0:0:8:soft-hitnormal2.wav
256,192,61782,1,0,0:0:0:8:soft-hitnormal2.wav
109,192,61782,1,0,0:0:0:8:soft-hitnormal2.wav
182,192,61866,1,0,0:0:0:25:soft-hitnormal.wav
329,192,61866,1,0,0:0:0:25:soft-hitnormal.wav
475,192,61949,1,0,0:0:0:13:soft-hitnormal2.wav
36,192,61949,1,0,0:0:0:13:soft-hitnormal2.wav
475,192,62199,1,0,0:0:0:13:soft-hitnormal2.wav
36,192,62199,1,0,0:0:0:13:soft-hitnormal2.wav
109,192,62282,1,0,0:0:0:13:soft-hitnormal2.wav
402,192,62282,1,0,0:0:0:13:soft-hitnormal2.wav
329,192,62366,1,0,0:0:0:13:soft-hitnormal2.wav
182,192,62366,1,0,0:0:0:13:soft-hitnormal2.wav
329,192,62532,1,0,0:0:0:13:soft-hitnormal2.wav
182,192,62532,1,0,0:0:0:13:soft-hitnormal2.wav
256,192,62616,128,0,62866:0:0:0:25:soft-hitnormal.wav
36,192,62616,1,0,0:0:0:13:soft-hitnormal2.wav
475,192,62616,1,0,0:0:0:13:soft-hitnormal2.wav
182,192,62866,1,0,0:0:0:25:soft-hitnormal.wav
329,192,62866,1,0,0:0:0:25:soft-hitnormal.wav
109,192,62866,128,0,63032:0:0:0:25:soft-hitnormal.wav
402,192,62866,128,0,63032:0:0:0:25:poppi.wav
182,192,63032,128,0,63866:0:0:0:25:soft-hitnormal.wav
329,192,63032,128,0,64116:0:0:0:25:poppi.wav
109,192,63199,128,0,63532:0:0:0:25:soft-hitnormal.wav
402,192,63199,128,0,63532:0:0:0:25:poppi.wav
109,192,63866,128,0,64116:0:0:0:25:soft-hitnormal.wav
402,192,64282,128,0,65782:0:0:0:25:soft-hitnormal.wav
182,192,64282,1,0,0:0:0:25:soft-hitnormal.wav
256,192,65032,128,0,65616:0:0:0:0:
36,192,65616,128,0,65699:0:0:0:25:poppi.wav
182,192,65699,128,0,65782:0:0:0:25:soft-hitnormal.wav
36,192,65782,128,0,65866:0:0:0:25:poppi.wav
475,192,65866,128,0,66532:0:0:0:25:soft-hitnormal.wav
182,192,65866,128,0,65949:0:0:0:25:soft-hitnormal.wav
109,192,65949,128,0,66032:0:0:0:25:poppi.wav
109,192,66366,1,0,0:0:0:25:soft-hitnormal.wav
36,192,66532,128,0,67532:0:0:0:25:soft-hitnormal.wav
182,192,66532,128,0,67532:0:0:0:25:soft-hitnormal.wav
256,192,66616,1,0,0:0:0:25:soft-hitnormal.wav
329,192,66699,1,0,0:0:0:25:soft-hitnormal.wav
475,192,66782,1,0,0:0:0:25:soft-hitnormal.wav
402,192,66866,1,0,0:0:0:25:soft-hitnormal.wav
256,192,66949,1,0,0:0:0:13:soft-hitclap2.wav
475,192,66949,1,0,0:0:0:13:soft-hitclap2.wav
402,192,67282,1,0,0:0:0:25:soft-hitnormal2.wav
329,192,67532,1,0,0:0:0:25:soft-hitnormal.wav
475,192,67532,1,0,0:0:0:25:soft-hitnormal.wav
402,192,67782,1,0,0:0:0:25:soft-hitnormal.wav
109,192,67782,1,0,0:0:0:25:soft-hitnormal.wav
256,192,67782,1,0,0:0:0:25:soft-hitnormal.wav
182,192,67949,1,0,0:0:0:13:soft-hitnormal2.wav
329,192,67949,1,0,0:0:0:13:soft-hitnormal2.wav
182,192,68116,1,0,0:0:0:13:soft-hitnormal2.wav
329,192,68116,1,0,0:0:0:13:soft-hitnormal2.wav
475,192,68282,1,0,0:0:0:13:soft-hitnormal2.wav
36,192,68282,1,0,0:0:0:13:soft-hitnormal2.wav
329,192,68449,1,0,0:0:0:25:soft-hitnormal.wav
182,192,68449,1,0,0:0:0:25:soft-hitnormal.wav
402,192,68616,1,0,0:0:0:13:soft-hitclap2.wav
109,192,68616,1,0,0:0:0:13:soft-hitclap2.wav
329,192,68782,1,0,0:0:0:25:soft-hitnormal.wav
182,192,68782,1,0,0:0:0:25:soft-hitnormal.wav
109,192,68866,1,0,0:0:0:25:soft-hitnormal.wav
402,192,68949,1,0,0:0:0:25:soft-hitnormal.wav
182,192,69032,1,0,0:0:0:25:soft-hitnormal.wav
329,192,69116,1,0,0:0:0:25:soft-hitnormal.wav
402,192,69199,1,0,0:0:0:25:soft-hitnormal.wav
109,192,69282,1,0,0:0:0:25:soft-hitnormal2.wav
109,192,69366,1,0,0:0:0:25:soft-hitnormal2.wav
182,192,69449,1,0,0:0:0:25:soft-hitnormal.wav
256,192,69532,1,0,0:0:0:25:soft-hitnormal.wav
329,192,69616,1,0,0:0:0:25:soft-hitnormal2.wav
182,192,69699,1,0,0:0:0:25:soft-hitnormal.wav
256,192,69782,1,0,0:0:0:25:soft-hitnormal.wav
329,192,69866,1,0,0:0:0:25:soft-hitnormal.wav
182,192,69949,1,0,0:0:0:25:soft-hitclap2.wav
402,192,70032,1,0,0:0:0:25:soft-hitnormal.wav
109,192,70116,1,0,0:0:0:25:soft-hitnormal.wav
402,192,70199,1,0,0:0:0:25:soft-hitnormal.wav
109,192,70282,1,0,0:0:0:25:soft-hitnormal2.wav
402,192,70366,128,0,70532:0:0:0:25:soft-hitnormal.wav
182,192,70449,128,0,70616:0:0:0:25:soft-hitnormal.wav
256,192,70616,1,0,0:0:0:25:soft-hitnormal.wav
36,192,70699,1,0,0:0:0:13:soft-hitnormal2.wav
475,192,70699,1,0,0:0:0:13:soft-hitnormal2.wav
475,192,70866,1,0,0:0:0:13:soft-hitnormal2.wav
36,192,70866,1,0,0:0:0:13:soft-hitnormal2.wav
182,192,70949,1,0,0:0:0:25:soft-hitclap2.wav
329,192,71032,1,0,0:0:0:25:soft-hitnormal.wav
182,192,71116,1,0,0:0:0:25:soft-hitnormal.wav
329,192,71199,1,0,0:0:0:25:soft-hitnormal.wav
109,192,71282,1,0,0:0:0:25:soft-hitclap2.wav
402,192,71366,1,0,0:0:0:25:soft-hitnormal.wav
109,192,71449,1,0,0:0:0:25:soft-hitnormal.wav
402,192,71532,1,0,0:0:0:25:soft-hitnormal.wav
256,192,71699,1,0,0:0:0:8:soft-hitnormal2.wav
36,192,71699,1,0,0:0:0:8:soft-hitnormal2.wav
475,192,71699,1,0,0:0:0:8:soft-hitnormal2.wav
329,192,71949,1,0,0:0:0:13:soft-hitnormal2.wav
475,192,71949,1,0,0:0:0:13:soft-hitnormal2.wav
182,192,72032,1,0,0:0:0:13:soft-hitnormal2.wav
36,192,72032,1,0,0:0:0:13:soft-hitnormal2.wav
329,192,72116,1,0,0:0:0:13:soft-hitnormal2.wav
475,192,72116,1,0,0:0:0:13:soft-hitnormal2.wav
182,192,72199,1,0,0:0:0:13:soft-hitnormal2.wav
36,192,72199,1,0,0:0:0:13:soft-hitnormal2.wav
402,192,72282,1,0,0:0:0:25:soft-hitnormal.wav
475,192,72407,128,0,72574:0:0:0:25:soft-hitnormal.wav
329,192,72616,1,0,0:0:0:13:soft-hitclap2.wav
182,192,72616,1,0,0:0:0:13:soft-hitclap2.wav
109,192,72782,1,0,0:0:0:25:soft-hitnormal.wav
256,192,72866,1,0,0:0:0:25:soft-hitnormal.wav
329,192,72949,1,0,0:0:0:25:soft-hitnormal2.wav
402,192,73032,1,0,0:0:0:25:soft-hitnormal.wav
182,192,73116,1,0,0:0:0:25:soft-hitnormal.wav
109,192,73199,1,0,0:0:0:25:soft-hitnormal.wav
182,192,73282,1,0,0:0:0:13:soft-hitclap2.wav
402,192,73282,1,0,0:0:0:13:soft-hitclap2.wav
182,192,73366,1,0,0:0:0:25:soft-hitnormal.wav
402,192,73366,1,0,0:0:0:25:soft-hitnormal.wav
256,192,73449,1,0,0:0:0:25:soft-hitnormal.wav
109,192,73616,1,0,0:0:0:25:soft-hitnormal.wav
329,192,73699,1,0,0:0:0:25:soft-hitnormal.wav
402,192,73699,1,0,0:0:0:25:soft-hitnormal.wav
475,192,73866,1,0,0:0:0:25:soft-hitnormal.wav
182,192,73866,128,0,74032:0:0:0:25:soft-hitnormal.wav
109,192,74032,1,0,0:0:0:25:soft-hitnormal.wav
402,192,74032,128,0,74116:0:0:0:25:soft-hitnormal.wav
329,192,74199,1,0,0:0:0:25:soft-hitnormal.wav
182,192,74199,1,0,0:0:0:25:soft-hitnormal.wav
402,192,74282,1,0,0:0:0:25:soft-hitnormal.wav
475,192,74366,1,0,0:0:0:25:soft-hitnormal.wav
182,192,74449,128,0,74949:0:0:0:25:soft-hitnormal.wav
329,192,74449,1,0,0:0:0:25:soft-hitnormal.wav
402,192,74532,1,0,0:0:0:25:soft-hitnormal.wav
329,192,74616,1,0,0:0:0:13:soft-hitnormal2.wav
475,192,74616,1,0,0:0:0:13:soft-hitnormal2.wav
329,192,74782,1,0,0:0:0:13:soft-hitnormal2.wav
475,192,74782,1,0,0:0:0:13:soft-hitnormal2.wav
402,192,74949,1,0,0:0:0:25:soft-hitnormal2.wav
329,192,75199,1,0,0:0:0:25:soft-hitnormal.wav
182,192,75282,1,0,0:0:0:25:soft-hitclap2.wav
402,192,75449,1,0,0:0:0:25:soft-hitnormal.wav
109,192,75532,1,0,0:0:0:25:soft-hitnormal.wav
329,192,75616,1,0,0:0:0:25:soft-hitnormal.wav
182,192,75699,1,0,0:0:0:25:soft-hitnormal.wav
475,192,75782,1,0,0:0:0:25:soft-hitnormal.wav
329,192,75866,1,0,0:0:0:25:soft-hitnormal.wav
182,192,75949,1,0,0:0:0:25:soft-hitnormal.wav
109,192,75991,1,0,0:0:0:25:soft-hitnormal.wav
36,192,76032,1,0,0:0:0:25:soft-hitnormal.wav
402,192,76074,1,0,0:0:0:25:soft-hitnormal.wav
329,192,76116,1,0,0:0:0:13:soft-hitnormal2.wav
182,192,76116,1,0,0:0:0:13:soft-hitnormal2.wav
109,192,76199,1,0,0:0:0:0:
329,192,76282,1,0,0:0:0:13:soft-hitnormal2.wav
182,192,76282,1,0,0:0:0:13:soft-hitnormal2.wav
329,192,76449,1,0,0:0:0:25:soft-hitnormal.wav
402,192,76449,1,0,0:0:0:25:soft-hitnormal.wav
475,192,76616,1,0,0:0:0:13:soft-hitclap2.wav
402,192,76616,1,0,0:0:0:13:soft-hitclap2.wav
329,192,76782,1,0,0:0:0:25:soft-hitnormal.wav
402,192,76782,1,0,0:0:0:25:soft-hitnormal.wav
329,192,76949,1,0,0:0:0:25:soft-hitnormal.wav
109,192,76949,1,0,0:0:0:25:soft-hitnormal.wav
182,192,77116,1,0,0:0:0:25:poppi.wav
36,192,77116,1,0,0:0:0:25:soft-hitnormal.wav
475,192,77282,1,0,0:0:0:25:soft-hitnormal.wav
329,192,77324,1,0,0:0:0:0:
182,192,77366,1,0,0:0:0:25:soft-hitnormal.wav
36,192,77407,1,0,0:0:0:25:soft-hitnormal.wav
475,192,77449,1,0,0:0:0:0:
329,192,77491,1,0,0:0:0:0:
182,192,77532,1,0,0:0:0:0:
36,192,77574,1,0,0:0:0:0:
109,192,77616,1,0,0:0:0:100:soft-hitnormal.wav
256,192,77616,1,0,0:0:0:100:soft-hitnormal.wav
402,192,77616,1,0,0:0:0:100:soft-hitnormal.wav
182,192,77782,1,0,0:0:0:25:soft-hitnormal.wav
329,192,77949,1,0,0:0:0:13:soft-hitclap2.wav
402,192,77949,1,0,0:0:0:13:soft-hitclap2.wav
475,192,78116,1,0,0:0:0:25:soft-hitnormal.wav
402,192,78199,1,0,0:0:0:25:soft-hitnormal.wav
329,192,78282,1,0,0:0:0:13:soft-hitnormal2.wav
182,192,78282,1,0,0:0:0:13:soft-hitnormal2.wav
109,192,78449,1,0,0:0:0:25:soft-hitnormal.wav
36,192,78449,1,0,0:0:0:25:soft-hitnormal.wav
109,192,78616,1,0,0:0:0:25:soft-hitclap2.wav
182,192,78782,1,0,0:0:0:25:soft-hitnormal.wav
329,192,78782,1,0,0:0:0:25:soft-hitnormal.wav
182,192,78949,1,0,0:0:0:13:soft-hitnormal2.wav
256,192,78949,1,0,0:0:0:13:soft-hitnormal2.wav
402,192,79116,1,0,0:0:0:25:soft-hitnormal.wav
109,192,79116,1,0,0:0:0:25:soft-hitnormal.wav
402,192,79282,1,0,0:0:0:13:soft-hitclap2.wav
109,192,79282,1,0,0:0:0:13:soft-hitclap2.wav
329,192,79366,1,0,0:0:0:25:soft-hitnormal.wav
182,192,79449,1,0,0:0:0:25:soft-hitnormal.wav
329,192,79532,1,0,0:0:0:25:soft-hitnormal.wav
182,192,79616,1,0,0:0:0:25:soft-hitnormal.wav
329,192,79699,128,0,80949:0:0:0:25:soft-hitnormal.wav
475,192,79699,1,0,0:0:0:25:soft-hitnormal.wav
36,192,79782,1,0,0:0:0:25:soft-hitnormal.wav
475,192,79866,1,0,0:0:0:25:soft-hitnormal.wav
36,192,79949,1,0,0:0:0:25:soft-hitnormal.wav
109,192,80032,1,0,0:0:0:25:soft-hitnormal.wav
402,192,80116,128,0,81532:0:0:0:25:soft-hitnormal.wav
182,192,80116,1,0,0:0:0:25:soft-hitnormal.wav
256,192,80199,1,0,0:0:0:25:soft-hitnormal.wav
109,192,80282,1,0,0:0:0:25:soft-hitnormal.wav
36,192,80366,1,0,0:0:0:25:soft-hitnormal.wav
182,192,80449,1,0,0:0:0:25:soft-hitnormal.wav
256,192,80532,1,0,0:0:0:25:soft-hitnormal.wav
182,192,80616,1,0,0:0:0:25:soft-hitnormal.wav
109,192,80699,1,0,0:0:0:25:soft-hitnormal.wav
36,192,80782,1,0,0:0:0:25:soft-hitnormal.wav
182,192,80866,1,0,0:0:0:25:soft-hitnormal.wav
109,192,80949,1,0,0:0:0:25:soft-hitnormal.wav
36,192,81032,1,0,0:0:0:25:soft-hitnormal.wav
182,192,81032,1,0,0:0:0:25:soft-hitnormal.wav
36,192,81116,1,0,0:0:0:25:soft-hitnormal.wav
182,192,81116,1,0,0:0:0:25:soft-hitnormal.wav
36,192,81282,1,0,0:0:0:25:soft-hitnormal.wav
182,192,81282,1,0,0:0:0:25:soft-hitnormal.wav
36,192,81366,1,0,0:0:0:25:soft-hitnormal.wav
182,192,81366,1,0,0:0:0:25:soft-hitnormal.wav
109,192,81449,1,0,0:0:0:25:soft-hitnormal.wav
182,192,81532,1,0,0:0:0:25:soft-hitnormal.wav
256,192,81616,1,0,0:0:0:25:soft-hitnormal2.wav
475,192,81699,1,0,0:0:0:25:soft-hitnormal.wav
329,192,81782,1,0,0:0:0:25:soft-hitnormal.wav
402,192,81866,1,0,0:0:0:25:soft-hitnormal.wav
36,192,81949,1,0,0:0:0:8:soft-hitclap2.wav
182,192,81949,1,0,0:0:0:8:soft-hitclap2.wav
475,192,81949,1,0,0:0:0:8:soft-hitclap2.wav
402,192,82032,1,0,0:0:0:25:soft-hitnormal.wav
256,192,82116,1,0,0:0:0:25:soft-hitnormal.wav
182,192,82199,1,0,0:0:0:25:soft-hitnormal.wav
329,192,82282,1,0,0:0:0:25:soft-hitnormal2.wav
256,192,82366,1,0,0:0:0:25:soft-hitnormal.wav
109,192,82366,1,0,0:0:0:25:soft-hitnormal.wav
402,192,82366,1,0,0:0:0:25:soft-hitnormal.wav
475,192,82449,1,0,0:0:0:25:soft-hitnormal.wav
36,192,82532,1,0,0:0:0:25:soft-hitnormal.wav
182,192,82532,1,0,0:0:0:25:soft-hitnormal.wav
256,192,82616,1,0,0:0:0:25:soft-hitnormal.wav
329,192,82657,1,0,0:0:0:25:soft-hitnormal.wav
475,192,82657,1,0,0:0:0:25:soft-hitnormal.wav
256,192,82741,1,0,0:0:0:25:soft-hitnormal.wav
402,192,82741,1,0,0:0:0:25:soft-hitnormal.wav
329,192,82824,1,0,0:0:0:13:soft-hitnormal2.wav
182,192,82824,1,0,0:0:0:13:soft-hitnormal2.wav
36,192,82949,1,0,0:0:0:13:soft-hitnormal2.wav
475,192,82949,1,0,0:0:0:13:soft-hitnormal2.wav
402,192,83116,1,0,0:0:0:25:soft-hitnormal.wav
256,192,83199,1,0,0:0:0:25:soft-hitnormal.wav
182,192,83282,1,0,0:0:0:8:soft-hitclap2.wav
329,192,83282,1,0,0:0:0:8:soft-hitclap2.wav
475,192,83282,1,0,0:0:0:8:soft-hitclap2.wav
36,192,83282,1,0,0:0:0:8:soft-hitclap2.wav
109,192,83449,1,0,0:0:0:0:
182,192,83616,1,0,0:0:0:25:soft-hitnormal.wav
36,192,83616,1,0,0:0:0:25:soft-hitnormal.wav
36,192,83699,1,0,0:0:0:25:soft-hitnormal.wav
182,192,83699,1,0,0:0:0:25:soft-hitnormal.wav
36,192,83824,1,0,0:0:0:25:soft-hitnormal.wav
182,192,83824,1,0,0:0:0:25:soft-hitnormal.wav
109,192,83949,1,0,0:0:0:25:soft-hitnormal.wav
182,192,84116,1,0,0:0:0:25:soft-hitnormal.wav
36,192,84282,1,0,0:0:0:13:soft-hitnormal2.wav
182,192,84282,1,0,0:0:0:13:soft-hitnormal2.wav
256,192,84449,1,0,0:0:0:25:soft-hitnormal2.wav
256,192,84532,1,0,0:0:0:25:soft-hitnormal2.wav
256,192,84699,1,0,0:0:0:8:soft-hitnormal2.wav
109,192,84699,1,0,0:0:0:8:soft-hitnormal2.wav
402,192,84699,1,0,0:0:0:8:soft-hitnormal2.wav
329,192,84866,1,0,0:0:0:25:soft-hitnormal.wav
402,192,84949,1,0,0:0:0:25:soft-hitnormal2.wav
329,192,85032,1,0,0:0:0:25:soft-hitnormal.wav
256,192,85116,1,0,0:0:0:25:soft-hitnormal2.wav
256,192,85199,1,0,0:0:0:25:soft-hitnormal2.wav
256,192,85366,1,0,0:0:0:25:soft-hitnormal.wav
182,192,85532,1,0,0:0:0:25:soft-hitnormal.wav
109,192,85616,1,0,0:0:0:25:soft-hitnormal2.wav
182,192,85699,1,0,0:0:0:25:soft-hitnormal.wav
256,192,85782,1,0,0:0:0:25:soft-hitnormal.wav
182,192,85949,1,0,0:0:0:8:soft-hitclap2.wav
329,192,85949,1,0,0:0:0:8:soft-hitclap2.wav
475,192,85949,1,0,0:0:0:8:soft-hitclap2.wav
36,192,85949,1,0,0:0:0:8:soft-hitclap2.wav
256,192,86116,1,0,0:0:0:25:soft-hitnormal.wav
109,192,86116,1,0,0:0:0:25:soft-hitnormal.wav
402,192,86116,1,0,0:0:0:25:soft-hitnormal.wav
182,192,86282,1,0,0:0:0:13:soft-hitnormal2.wav
329,192,86282,1,0,0:0:0:13:soft-hitnormal2.wav
109,192,86366,1,0,0:0:0:25:soft-hitnormal.wav
402,192,86366,1,0,0:0:0:25:soft-hitnormal.wav
256,192,86449,1,0,0:0:0:25:soft-hitnormal.wav
36,192,86449,1,0,0:0:0:25:soft-hitnormal.wav
475,192,86449,1,0,0:0:0:25:soft-hitnormal.wav
36,192,86616,1,0,0:0:0:25:soft-hitnormal.wav
329,192,86616,1,0,0:0:0:25:soft-hitnormal.wav
109,192,86699,1,0,0:0:0:25:soft-hitnormal.wav
402,192,86699,1,0,0:0:0:25:soft-hitnormal.wav
182,192,86782,1,0,0:0:0:25:soft-hitnormal.wav
475,192,86782,1,0,0:0:0:25:soft-hitnormal.wav
109,192,86866,1,0,0:0:0:25:soft-hitnormal.wav
402,192,86866,1,0,0:0:0:25:soft-hitnormal.wav
109,192,86949,128,0,87949:0:0:0:25:soft-hitnormal.wav
36,192,86949,1,0,0:0:0:25:soft-hitnormal.wav
329,192,86949,1,0,0:0:0:25:soft-hitnormal.wav
256,192,86949,128,0,87782:0:0:0:25:soft-hitnormal.wav
402,192,86949,128,0,88282:0:0:0:25:soft-hitnormal.wav
36,192,87949,1,0,0:0:0:25:soft-hitnormal.wav
256,192,87949,1,0,0:0:0:25:soft-hitnormal.wav
182,192,88449,1,0,0:0:0:25:soft-hitnormal.wav
329,192,88449,1,0,0:0:0:25:soft-hitnormal.wav
475,192,88532,1,0,0:0:0:25:soft-hitnormal.wav
402,192,88616,1,0,0:0:0:13:soft-hitclap2.wav
329,192,88616,1,0,0:0:0:13:soft-hitclap2.wav
36,192,88699,1,0,0:0:0:25:soft-hitnormal.wav
329,192,88782,1,0,0:0:0:0:
109,192,88782,1,0,0:0:0:25:soft-hitnormal.wav
402,192,88866,1,0,0:0:0:25:soft-hitnormal.wav
182,192,88866,1,0,0:0:0:25:soft-hitnormal.wav
256,192,88949,1,0,0:0:0:25:soft-hitnormal2.wav
109,192,89032,1,0,0:0:0:25:soft-hitnormal.wav
182,192,89032,1,0,0:0:0:25:soft-hitnormal.wav
256,192,89116,1,0,0:0:0:25:soft-hitnormal.wav
109,192,89199,1,0,0:0:0:25:soft-hitnormal.wav
182,192,89199,1,0,0:0:0:25:soft-hitnormal.wav
475,192,89282,1,0,0:0:0:8:soft-hitclap2.wav
36,192,89282,1,0,0:0:0:8:soft-hitclap2.wav
402,192,89282,1,0,0:0:0:8:soft-hitclap2.wav
182,192,89366,1,0,0:0:0:25:soft-hitnormal.wav
329,192,89449,1,0,0:0:0:25:soft-hitnormal.wav
182,192,89532,1,0,0:0:0:25:soft-hitnormal.wav
475,192,89616,1,0,0:0:0:25:soft-hitnormal2.wav
402,192,89616,1,0,0:0:0:0:
36,192,89699,1,0,0:0:0:25:soft-hitnormal.wav
475,192,89782,1,0,0:0:0:25:soft-hitnormal.wav
402,192,89782,1,0,0:0:0:0:
36,192,89866,1,0,0:0:0:25:soft-hitnormal.wav
182,192,89949,1,0,0:0:0:25:soft-hitclap2.wav
329,192,90032,1,0,0:0:0:25:soft-hitnormal.wav
182,192,90116,1,0,0:0:0:25:soft-hitnormal.wav
329,192,90199,1,0,0:0:0:25:soft-hitnormal.wav
109,192,90282,1,0,0:0:0:25:soft-hitnormal2.wav
402,192,90366,1,0,0:0:0:25:soft-hitnormal.wav
329,192,90407,1,0,0:0:0:0:
182,192,90449,1,0,0:0:0:25:soft-hitnormal.wav
329,192,90532,1,0,0:0:0:25:soft-hitnormal.wav
402,192,90616,1,0,0:0:0:25:soft-hitnormal.wav
475,192,90699,1,0,0:0:0:25:soft-hitclap2.wav
402,192,90782,1,0,0:0:0:25:soft-hitnormal.wav
329,192,90866,1,0,0:0:0:25:soft-hitnormal.wav
182,192,90949,128,0,91116:0:0:0:0:
402,192,91157,128,0,91282:0:0:0:0:
329,192,91157,1,0,0:0:0:0:
256,192,91241,1,0,0:0:0:0:
36,192,91282,1,0,0:0:0:13:soft-hitclap2.wav
109,192,91282,1,0,0:0:0:13:soft-hitclap2.wav
182,192,91282,128,0,91449:0:0:0:0:
475,192,91366,1,0,0:0:0:25:soft-hitnormal.wav
402,192,91366,1,0,0:0:0:25:soft-hitnormal.wav
329,192,91449,1,0,0:0:0:25:soft-hitnormal.wav
402,192,91532,1,0,0:0:0:25:soft-hitnormal.wav
475,192,91532,1,0,0:0:0:13:soft-hitnormal2.wav
329,192,91616,1,0,0:0:0:13:soft-hitnormal2.wav
36,192,91616,128,0,91782:0:0:0:0:
182,192,91699,1,0,0:0:0:25:soft-hitnormal.wav
329,192,91782,1,0,0:0:0:25:soft-hitnormal.wav
109,192,91782,1,0,0:0:0:25:soft-hitnormal.wav
256,192,91866,1,0,0:0:0:25:soft-hitnormal.wav
109,192,91949,1,0,0:0:0:13:soft-hitclap2.wav
182,192,91949,1,0,0:0:0:13:soft-hitclap2.wav
329,192,92032,1,0,0:0:0:25:soft-hitnormal.wav
109,192,92116,1,0,0:0:0:25:soft-hitnormal.wav
36,192,92116,1,0,0:0:0:25:soft-hitnormal.wav
402,192,92199,1,0,0:0:0:25:soft-hitnormal.wav
182,192,92282,128,0,92366:0:0:0:25:poppi.wav
329,192,92366,128,0,92449:0:0:0:25:poppi.wav
402,192,92449,128,0,92532:0:0:0:25:poppi.wav
109,192,92532,128,0,92699:0:0:0:25:poppi.wav
256,192,92699,128,0,92782:0:0:0:25:poppi.wav
475,192,92782,128,0,92866:0:0:0:25:poppi.wav
36,192,92866,128,0,92949:0:0:0:25:poppi.wav
182,192,92949,128,0,93116:0:0:0:25:poppi.wav
329,192,92949,128,0,93116:0:0:0:25:soft-hitnormal.wav
256,192,93032,1,0,0:0:0:100:soft-hitnormal.wav
256,192,93116,1,0,0:0:0:100:soft-hitnormal.wav
256,192,93282,1,0,0:0:0:100:soft-hitnormal.wav
475,192,93449,1,0,0:0:0:25:soft-hitnormal.wav
36,192,93449,1,0,0:0:0:25:soft-hitnormal.wav
402,192,93532,1,0,0:0:0:25:soft-hitnormal.wav
109,192,93532,1,0,0:0:0:25:soft-hitnormal.wav
329,192,93616,1,0,0:0:0:100:soft-hitnormal.wav
256,192,93616,1,0,0:0:0:100:soft-hitnormal.wav
182,192,93616,1,0,0:0:0:100:soft-hitnormal.wav
475,192,93699,1,0,0:0:0:25:soft-hitnormal.wav
36,192,93699,1,0,0:0:0:25:soft-hitnormal.wav
109,192,93782,1,0,0:0:0:25:soft-hitnormal.wav
402,192,93782,1,0,0:0:0:25:soft-hitnormal.wav
329,192,93866,1,0,0:0:0:25:soft-hitnormal.wav
182,192,93866,1,0,0:0:0:25:soft-hitnormal.wav
182,192,93949,1,0,0:0:0:13:soft-hitclap2.wav
329,192,93949,1,0,0:0:0:13:soft-hitclap2.wav
256,192,94199,1,0,0:0:0:25:soft-hitnormal.wav
109,192,94199,1,0,0:0:0:25:soft-hitnormal.wav
402,192,94199,1,0,0:0:0:25:soft-hitnormal.wav
329,192,94282,1,0,0:0:0:13:soft-hitnormal2.wav
182,192,94282,1,0,0:0:0:13:soft-hitnormal2.wav
36,192,94366,1,0,0:0:0:25:soft-hitnormal.wav
475,192,94366,1,0,0:0:0:25:soft-hitnormal.wav
182,192,94449,1,0,0:0:0:25:soft-hitnormal.wav
329,192,94449,1,0,0:0:0:25:soft-hitnormal.wav
109,192,94532,1,0,0:0:0:25:soft-hitnormal.wav
402,192,94532,1,0,0:0:0:25:soft-hitnormal.wav
475,192,94616,1,0,0:0:0:8:soft-hitclap2.wav
36,192,94616,1,0,0:0:0:8:soft-hitclap2.wav
256,192,94616,1,0,0:0:0:8:soft-hitclap2.wav
109,192,94699,1,0,0:0:0:25:soft-hitnormal.wav
402,192,94699,1,0,0:0:0:25:soft-hitnormal.wav
182,192,94782,1,0,0:0:0:25:soft-hitnormal.wav
329,192,94782,1,0,0:0:0:25:soft-hitnormal.wav
402,192,94866,1,0,0:0:0:25:soft-hitnormal.wav
109,192,94866,1,0,0:0:0:25:soft-hitnormal.wav
182,192,94949,1,0,0:0:0:8:soft-hitnormal2.wav
329,192,94949,1,0,0:0:0:8:soft-hitnormal2.wav
475,192,94949,1,0,0:0:0:50:soft-hitnormal.wav
36,192,94949,1,0,0:0:0:50:soft-hitnormal.wav
36,192,95116,1,0,0:0:0:25:soft-hitnormal.wav
475,192,95116,1,0,0:0:0:25:soft-hitnormal.wav
182,192,95199,1,0,0:0:0:25:soft-hitnormal.wav
329,192,95199,1,0,0:0:0:25:soft-hitnormal.wav
109,192,95282,1,0,0:0:0:13:soft-hitnormal2.wav
402,192,95282,1,0,0:0:0:13:soft-hitnormal2.wav
182,192,95366,1,0,0:0:0:25:soft-hitnormal.wav
329,192,95366,1,0,0:0:0:25:soft-hitnormal.wav
109,192,95449,1,0,0:0:0:13:soft-hitclap2.wav
402,192,95449,1,0,0:0:0:13:soft-hitclap2.wav
36,192,95532,1,0,0:0:0:25:soft-hitnormal.wav
475,192,95532,1,0,0:0:0:25:soft-hitnormal.wav
109,192,95616,1,0,0:0:0:13:soft-hitnormal2.wav
402,192,95616,1,0,0:0:0:13:soft-hitnormal2.wav
182,192,95699,1,0,0:0:0:13:soft-hitnormal2.wav
329,192,95699,1,0,0:0:0:13:soft-hitnormal2.wav
109,192,95782,1,0,0:0:0:13:soft-hitnormal2.wav
402,192,95782,1,0,0:0:0:13:soft-hitnormal2.wav
182,192,95866,1,0,0:0:0:13:soft-hitnormal2.wav
329,192,95866,1,0,0:0:0:13:soft-hitnormal2.wav
402,192,95949,1,0,0:0:0:50:soft-hitnormal.wav
109,192,95949,1,0,0:0:0:50:soft-hitnormal.wav
36,192,96032,1,0,0:0:0:25:soft-hitnormal.wav
475,192,96032,1,0,0:0:0:25:soft-hitnormal.wav
109,192,96116,1,0,0:0:0:25:soft-hitnormal.wav
402,192,96116,1,0,0:0:0:25:soft-hitnormal.wav
182,192,96199,1,0,0:0:0:25:soft-hitnormal.wav
329,192,96199,1,0,0:0:0:25:soft-hitnormal.wav
36,192,96282,1,0,0:0:0:50:soft-hitnormal.wav
256,192,96282,1,0,0:0:0:50:soft-hitnormal.wav
475,192,96282,1,0,0:0:0:50:soft-hitnormal.wav
109,192,96449,1,0,0:0:0:13:soft-hitnormal2.wav
402,192,96449,1,0,0:0:0:13:soft-hitnormal2.wav
36,192,96532,1,0,0:0:0:25:soft-hitnormal.wav
475,192,96532,1,0,0:0:0:25:soft-hitnormal.wav
109,192,96616,1,0,0:0:0:13:soft-hitnormal2.wav
402,192,96616,1,0,0:0:0:13:soft-hitnormal2.wav
329,192,96699,1,0,0:0:0:25:soft-hitnormal.wav
182,192,96699,1,0,0:0:0:25:soft-hitnormal.wav
109,192,96782,1,0,0:0:0:13:soft-hitnormal2.wav
402,192,96782,1,0,0:0:0:13:soft-hitnormal2.wav
329,192,96866,1,0,0:0:0:25:soft-hitnormal.wav
256,192,96949,1,0,0:0:0:25:soft-hitnormal2.wav
182,192,97032,1,0,0:0:0:25:soft-hitnormal.wav
109,192,97116,1,0,0:0:0:25:soft-hitnormal2.wav
402,192,97199,1,0,0:0:0:25:soft-hitnormal.wav
475,192,97282,1,0,0:0:0:25:soft-hitnormal2.wav
256,192,97366,1,0,0:0:0:25:soft-hitnormal.wav
182,192,97449,1,0,0:0:0:25:soft-hitnormal2.wav
109,192,97532,1,0,0:0:0:25:soft-hitnormal.wav
36,192,97616,1,0,0:0:0:25:soft-hitnormal2.wav
182,192,97699,1,0,0:0:0:25:soft-hitnormal.wav
109,192,97782,1,0,0:0:0:25:soft-hitnormal2.wav
36,192,97866,1,0,0:0:0:25:soft-hitnormal2.wav
109,192,97949,1,0,0:0:0:25:soft-hitnormal2.wav
182,192,98032,1,0,0:0:0:25:soft-hitnormal2.wav
256,192,98116,1,0,0:0:0:25:soft-hitnormal2.wav
329,192,98199,1,0,0:0:0:25:soft-hitnormal2.wav
402,192,98282,1,0,0:0:0:25:soft-hitnormal2.wav
475,192,98366,1,0,0:0:0:25:soft-hitnormal2.wav
402,192,98449,1,0,0:0:0:25:soft-hitnormal2.wav
256,192,98532,1,0,0:0:0:25:soft-hitnormal2.wav
329,192,98616,1,0,0:0:0:25:soft-hitnormal2.wav
402,192,98699,1,0,0:0:0:25:soft-hitnormal2.wav
329,192,98782,1,0,0:0:0:25:soft-hitnormal2.wav
182,192,98866,1,0,0:0:0:25:soft-hitnormal2.wav
256,192,98949,1,0,0:0:0:50:soft-hitnormal.wav
475,192,98949,1,0,0:0:0:50:soft-hitnormal.wav
36,192,98949,1,0,0:0:0:50:soft-hitnormal.wav
109,192,98949,128,0,99449:0:0:0:25:soft-hitnormal.wav
402,192,98949,128,0,99449:0:0:0:25:soft-hitnormal.wav
329,192,99616,1,0,0:0:0:0:
182,192,99616,1,0,0:0:0:0:
36,192,99699,1,0,0:0:0:0:
475,192,99699,1,0,0:0:0:0:
109,192,99782,1,0,0:0:0:0:
402,192,99782,1,0,0:0:0:0:
182,192,99866,1,0,0:0:0:0:
329,192,99866,1,0,0:0:0:0:
109,192,99949,1,0,0:0:0:50:soft-hitnormal.wav
402,192,99949,1,0,0:0:0:50:soft-hitnormal.wav
256,192,99949,1,0,0:0:0:50:soft-hitnormal.wav
36,192,99949,128,0,102282:0:0:0:50:soft-hitnormal.wav
475,192,99949,128,0,101616:0:0:0:50:soft-hitnormal.wav
