osu file format v14

[General]
AudioFilename: [SDVX II __] Mother Ship (C-YA MIX) [EXH] New.mp3
AudioLeadIn: 0
PreviewTime: 283
Countdown: 0
SampleSet: Soft
StackLeniency: 0.7
Mode: 3
LetterboxInBreaks: 0
EpilepsyWarning: 1
SpecialStyle: 1
WidescreenStoryboard: 1

[Editor]
DistanceSpacing: 0.9
BeatDivisor: 2
GridSize: 32
TimelineZoom: 1.7

[Metadata]
Title:Mother Ship (C-YA Mix)
TitleUnicode:Mother Ship (C-YA Mix)
Artist:C-YA
ArtistUnicode:C-YA
Creator:rhalp10
Version:4K BASIC
Source:SOUND VOLTEX II -infinite infection-
Tags:Sota Fujimori Konami Song Remixes Zenx [Shana Lesus] Rivals_7 SDVX bemani
BeatmapID:484522
BeatmapSetID:177421

[Difficulty]
HPDrainRate:6
CircleSize:4
OverallDifficulty:7
ApproachRate:5
SliderMultiplier:1.4
SliderTickRate:1

[Events]
//Background and Video events
0,0,"BG.jpg",0,0
//Break Periods
//Storyboard Layer 0 (Background)
//Storyboard Layer 1 (Fail)
//Storyboard Layer 2 (Pass)
//Storyboard Layer 3 (Foreground)
//Storyboard Sound Samples

[TimingPoints]
283,333.333333333333,4,2,1,5,1,0
32282,-100,4,2,1,5,0,1
42949,-100,4,2,1,5,0,0
88282,-100,4,2,1,5,0,1
98949,-100,4,2,1,5,0,0

[HitObjects]
475,192,283,128,0,2949:0:0:0:25:soft-hitnormal.wav
64,192,283,1,2,0:0:0:25:soft-hitnormal.wav
36,192,2949,1,0,0:0:0:25:soft-hitnormal.wav
182,192,3616,1,0,0:0:0:25:soft-hitnormal.wav
475,192,4282,1,0,0:0:0:25:soft-hitnormal.wav
329,192,4949,1,0,0:0:0:25:soft-hitnormal.wav
109,192,5616,1,0,0:0:0:25:soft-hitnormal.wav
256,192,6282,1,0,0:0:0:25:soft-hitnormal.wav
402,192,6949,1,0,0:0:0:25:soft-hitnormal.wav
256,192,7616,1,0,0:0:0:25:soft-hitnormal.wav
109,192,8282,1,0,0:0:0:25:soft-hitnormal.wav
182,192,8949,1,0,0:0:0:25:soft-hitnormal.wav
329,192,9282,1,0,0:0:0:25:soft-hitnormal.wav
36,192,9616,128,0,10282:0:0:0:25:soft-hitnormal.wav
448,192,9616,1,0,0:0:0:25:soft-hitnormal.wav
182,192,10282,1,0,0:0:0:25:soft-hitnormal.wav
256,192,10616,1,0,0:0:0:25:soft-hitnormal.wav
448,192,10949,1,0,0:0:0:25:soft-hitnormal.wav
64,192,10949,1,0,0:0:0:25:soft-hitnormal.wav
320,192,11282,1,0,0:0:0:25:soft-hitnormal.wav
402,192,11616,1,0,0:0:0:25:soft-hitnormal2.wav
320,192,11949,1,0,0:0:0:25:soft-hitclap2.wav
402,192,12282,1,0,0:0:0:25:soft-hitnormal2.wav
36,192,12616,1,0,0:0:0:25:soft-hitnormal.wav
256,192,12616,1,0,0:0:0:25:soft-hitnormal.wav
192,192,12949,1,0,0:0:0:25:soft-hitnormal2.wav
402,192,13282,1,0,0:0:0:15:soft-hitclap2.wav
320,192,13282,1,0,0:0:0:15:soft-hitclap2.wav
192,192,13616,1,0,0:0:0:25:soft-hitnormal2.wav
402,192,13949,1,0,0:0:0:20:soft-hitclap2.wav
256,192,13949,1,0,0:0:0:20:soft-hitclap2.wav
182,192,14282,1,0,0:0:0:20:soft-hitnormal2.wav
109,192,14616,1,0,0:0:0:20:soft-hitnormal2.wav
182,192,14949,1,0,0:0:0:20:soft-hitnormal2.wav
320,192,15282,1,0,0:0:0:20:soft-hitnormal2.wav
182,192,15616,128,0,15949:0:0:0:20:soft-hitnormal.wav
320,192,15949,1,0,0:0:0:0:
64,192,16282,1,0,0:0:0:20:soft-hitnormal.wav
448,192,16282,128,0,17616:0:0:0:20:soft-hitnormal.wav
320,192,17616,1,0,0:0:0:20:soft-hitnormal.wav
64,192,17616,128,0,18616:0:0:0:20:soft-hitnormal.wav
402,192,18616,128,0,18949:0:0:0:20:soft-hitnormal.wav
192,192,18949,1,0,0:0:0:20:soft-hitnormal.wav
256,192,19616,1,0,0:0:0:20:soft-hitnormal.wav
36,192,20282,128,0,21616:0:0:0:20:soft-hitnormal.wav
475,192,21616,1,0,0:0:0:20:soft-hitnormal2.wav
192,192,21949,1,8,0:0:0:20:soft-hitclap2.wav
320,192,22282,1,0,0:0:0:20:soft-hitnormal2.wav
448,192,22616,1,8,0:0:0:20:soft-hitclap2.wav
329,192,22949,1,0,0:0:0:20:soft-hitnormal2.wav
182,192,23282,1,8,0:0:0:20:soft-hitclap2.wav
36,192,23616,1,0,0:0:0:20:soft-hitnormal2.wav
182,192,23949,1,0,0:0:0:20:soft-hitclap2.wav
109,192,24282,1,0,0:0:0:20:soft-hitnormal2.wav
256,192,24616,1,0,0:0:0:20:soft-hitclap2.wav
182,192,24949,1,0,0:0:0:20:soft-hitnormal2.wav
329,192,25282,1,0,0:0:0:20:soft-hitclap2.wav
402,192,25616,1,0,0:0:0:20:soft-hitnormal2.wav
256,192,25949,1,0,0:0:0:20:soft-hitclap2.wav
109,192,26282,128,0,26616:0:0:0:25:poppi.wav
475,192,26949,1,0,0:0:0:20:soft-hitnormal2.wav
329,192,27282,1,0,0:0:0:20:soft-hitclap2.wav
475,192,27616,1,0,0:0:0:20:soft-hitnormal2.wav
64,192,27949,1,0,0:0:0:20:soft-hitclap2.wav
256,192,28282,1,0,0:0:0:20:soft-hitnormal2.wav
64,192,28616,1,0,0:0:0:20:soft-hitclap2.wav
329,192,28949,128,0,29282:0:0:0:20:soft-hitnormal2.wav
64,192,29282,1,0,0:0:0:25:soft-hitclap2.wav
182,192,29616,1,0,0:0:0:20:soft-hitnormal2.wav
329,192,29949,1,0,0:0:0:20:soft-hitclap2.wav
448,192,30282,1,0,0:0:0:20:soft-hitnormal2.wav
109,192,30616,1,0,0:0:0:20:soft-hitclap2.wav
256,192,30949,1,0,0:0:0:20:soft-hitnormal2.wav
182,192,31282,1,0,0:0:0:20:soft-hitclap2.wav
320,192,31616,128,0,31949:0:0:0:25:poppi.wav
182,192,31949,128,0,32282:0:0:0:20:soft-hitnormal.wav
475,192,32282,1,0,0:0:0:20:soft-hitnormal.wav
36,192,32282,1,0,0:0:0:20:soft-hitnormal.wav
329,192,32616,1,0,0:0:0:20:soft-hitnormal2.wav
182,192,32949,1,0,0:0:0:20:soft-hitnormal2.wav
36,192,33282,1,0,0:0:0:20:soft-hitclap2.wav
109,192,33616,1,0,0:0:0:20:soft-hitnormal2.wav
256,192,33949,1,0,0:0:0:20:soft-hitclap2.wav
402,192,34282,1,0,0:0:0:20:soft-hitnormal2.wav
475,192,34616,1,0,0:0:0:20:soft-hitclap2.wav
329,192,34949,1,0,0:0:0:20:soft-hitnormal2.wav
182,192,35282,1,0,0:0:0:20:soft-hitclap2.wav
36,192,35616,1,0,0:0:0:20:soft-hitnormal2.wav
109,192,35949,1,0,0:0:0:20:soft-hitclap2.wav
256,192,36282,1,0,0:0:0:20:soft-hitnormal2.wav
402,192,36616,1,0,0:0:0:20:soft-hitclap2.wav
192,192,36949,1,0,0:0:0:20:soft-hitnormal2.wav
320,192,37282,1,0,0:0:0:20:soft-hitclap2.wav
475,192,37616,1,0,0:0:0:20:soft-hitnormal.wav
64,192,37616,1,0,0:0:0:20:soft-hitnormal.wav
329,192,37949,1,0,0:0:0:20:soft-hitnormal2.wav
182,192,38282,1,0,0:0:0:20:soft-hitnormal2.wav
320,192,38616,1,0,0:0:0:20:soft-hitnormal2.wav
109,192,38949,1,0,0:0:0:20:soft-hitnormal.wav
448,192,38949,1,0,0:0:0:20:soft-hitnormal.wav
256,192,39282,1,0,0:0:0:20:soft-hitnormal2.wav
402,192,39616,1,0,0:0:0:20:soft-hitnormal2.wav
475,192,39949,1,0,0:0:0:20:soft-hitnormal2.wav
329,192,40282,1,0,0:0:0:20:soft-hitnormal.wav
109,192,40282,1,0,0:0:0:20:soft-hitnormal.wav
182,192,40616,1,0,0:0:0:20:soft-hitnormal2.wav
36,192,40949,1,0,0:0:0:20:soft-hitnormal.wav
256,192,40949,1,0,0:0:0:20:soft-hitnormal.wav
109,192,41282,1,0,0:0:0:20:soft-hitnormal2.wav
256,192,41616,1,0,0:0:0:25:soft-hitnormal2.wav
402,192,41616,1,0,0:0:0:25:soft-hitnormal2.wav
192,192,41949,1,0,0:0:0:20:soft-hitnormal2.wav
320,192,42282,1,0,0:0:0:25:soft-hitnormal2.wav
402,192,42616,1,0,0:0:0:25:soft-hitnormal2.wav
329,192,42949,128,0,44282:0:0:0:25:soft-hitnormal.wav
182,192,44282,128,0,45616:0:0:0:25:soft-hitnormal.wav
402,192,45616,128,0,47949:0:0:0:25:soft-hitnormal.wav
182,192,47949,128,0,48282:0:0:0:25:soft-hitnormal.wav
109,192,48282,128,0,49616:0:0:0:25:soft-hitnormal.wav
256,192,49616,128,0,50949:0:0:0:25:soft-hitnormal.wav
109,192,51282,128,0,52282:0:0:0:25:soft-hitnormal.wav
402,192,52282,1,0,0:0:0:25:soft-hitnormal2.wav
320,192,52532,1,0,0:0:0:25:soft-hitnormal2.wav
109,192,52782,1,0,0:0:0:25:soft-hitnormal2.wav
192,192,53032,1,0,0:0:0:25:soft-hitnormal2.wav
320,192,53282,1,0,0:0:0:25:soft-hitnormal2.wav
192,192,53449,1,0,0:0:0:25:soft-hitnormal2.wav
36,192,53616,1,0,0:0:0:25:soft-hitnormal.wav
475,192,53616,1,0,0:0:0:25:soft-hitnormal.wav
320,192,53949,1,0,0:0:0:25:soft-hitnormal2.wav
402,192,54282,1,0,0:0:0:25:soft-hitnormal2.wav
182,192,54616,1,0,0:0:0:25:soft-hitnormal2.wav
329,192,54949,1,0,0:0:0:25:soft-hitnormal2.wav
448,192,55282,1,0,0:0:0:25:soft-hitclap2.wav
256,192,55616,128,0,55949:0:0:0:25:soft-hitnormal2.wav
64,192,55949,1,0,0:0:0:25:soft-hitclap2.wav
329,192,56282,1,0,0:0:0:25:soft-hitnormal2.wav
182,192,56616,1,0,0:0:0:25:soft-hitclap2.wav
402,192,56949,1,0,0:0:0:25:soft-hitnormal2.wav
109,192,57282,1,0,0:0:0:25:soft-hitclap2.wav
475,192,57616,1,0,0:0:0:25:soft-hitnormal2.wav
36,192,57949,1,0,0:0:0:25:soft-hitclap2.wav
182,192,58116,128,0,58616:0:0:0:25:soft-hitnormal.wav
320,192,58616,1,0,0:0:0:25:soft-hitclap2.wav
475,192,58949,128,0,59449:0:0:0:25:soft-hitnormal2.wav
36,192,59449,128,0,59949:0:0:0:25:soft-hitnormal2.wav
182,192,59949,1,0,0:0:0:25:soft-hitnormal.wav
329,192,59949,1,0,0:0:0:25:soft-hitnormal.wav
402,192,60282,128,0,61282:0:0:0:25:poppi.wav
109,192,61282,128,0,61616:0:0:0:25:soft-hitnormal.wav
256,192,61282,128,0,61616:0:0:0:25:soft-hitnormal.wav
475,192,61616,128,0,62116:0:0:0:25:soft-hitnormal2.wav
36,192,62116,128,0,62616:0:0:0:25:soft-hitnormal2.wav
329,192,62616,1,0,0:0:0:25:soft-hitnormal.wav
182,192,62616,1,0,0:0:0:25:soft-hitnormal.wav
402,192,62949,128,0,63449:0:0:0:25:poppi.wav
109,192,62949,128,0,63449:0:0:0:25:soft-hitnormal.wav
320,192,63616,128,0,63949:0:0:0:25:poppi.wav
192,192,63616,128,0,63949:0:0:0:25:soft-hitnormal.wav
36,192,64282,1,0,0:0:0:25:soft-hitnormal.wav
475,192,64282,128,0,66949:0:0:0:25:soft-hitnormal.wav
256,192,65616,128,0,66949:0:0:0:25:poppi.wav
36,192,67116,1,0,0:0:0:25:soft-hitnormal.wav
182,192,67449,1,0,0:0:0:25:soft-hitnormal.wav
109,192,67782,1,0,0:0:0:25:soft-hitnormal.wav
256,192,68116,1,0,0:0:0:25:soft-hitnormal2.wav
182,192,68449,1,0,0:0:0:25:soft-hitnormal.wav
329,192,68782,1,0,0:0:0:25:soft-hitnormal.wav
475,192,69282,128,0,69616:0:0:0:25:soft-hitnormal.wav
192,192,69782,1,0,0:0:0:25:soft-hitnormal.wav
320,192,70116,1,0,0:0:0:25:soft-hitnormal.wav
192,192,70449,1,0,0:0:0:25:soft-hitnormal.wav
64,192,70616,128,0,70949:0:0:0:25:soft-hitnormal2.wav
182,192,71116,1,0,0:0:0:25:soft-hitnormal.wav
256,192,71449,1,0,0:0:0:25:soft-hitnormal.wav
402,192,71449,128,0,71782:0:0:0:25:soft-hitnormal.wav
36,192,71782,1,0,0:0:0:25:soft-hitnormal.wav
182,192,71949,128,0,72282:0:0:0:25:soft-hitnormal2.wav
36,192,72616,1,0,0:0:0:25:soft-hitclap2.wav
182,192,72782,1,0,0:0:0:25:soft-hitnormal.wav
109,192,73282,128,0,73616:0:0:0:25:soft-hitnormal.wav
256,192,73616,1,0,0:0:0:25:soft-hitnormal2.wav
182,192,73949,1,0,0:0:0:25:soft-hitclap2.wav
329,192,74282,1,0,0:0:0:25:soft-hitnormal.wav
256,192,74616,128,0,74949:0:0:0:25:soft-hitnormal2.wav
402,192,74949,1,0,0:0:0:25:soft-hitnormal.wav
475,192,75282,1,0,0:0:0:25:soft-hitclap2.wav
329,192,75616,1,0,0:0:0:25:soft-hitnormal.wav
402,192,75949,128,0,76282:0:0:0:25:soft-hitnormal.wav
256,192,76282,1,0,0:0:0:25:soft-hitnormal2.wav
192,192,76616,1,0,0:0:0:25:soft-hitclap2.wav
36,192,76949,128,0,77282:0:0:0:25:poppi.wav
256,192,77282,128,0,77616:0:0:0:25:soft-hitnormal.wav
402,192,77616,1,0,0:0:0:25:soft-hitnormal.wav
182,192,77949,1,0,0:0:0:25:soft-hitnormal2.wav
36,192,78282,1,0,0:0:0:25:soft-hitnormal2.wav
256,192,78282,128,0,78949:0:0:0:25:soft-hitnormal.wav
182,192,78949,1,0,0:0:0:25:soft-hitnormal2.wav
402,192,78949,1,0,0:0:0:25:soft-hitnormal2.wav
64,192,79282,1,0,0:0:0:25:soft-hitnormal.wav
329,192,79616,128,0,79949:0:0:0:25:soft-hitnormal.wav
192,192,79949,1,0,0:0:0:25:soft-hitclap2.wav
64,192,80282,1,0,0:0:0:25:soft-hitnormal2.wav
192,192,80616,1,0,0:0:0:25:soft-hitnormal.wav
475,192,80616,1,0,0:0:0:25:soft-hitnormal.wav
329,192,80949,128,0,81282:0:0:0:25:soft-hitnormal.wav
182,192,81282,128,0,81616:0:0:0:25:soft-hitnormal.wav
256,192,81616,1,0,0:0:0:25:soft-hitnormal.wav
109,192,81949,1,0,0:0:0:25:soft-hitnormal.wav
329,192,81949,1,0,0:0:0:25:soft-hitnormal.wav
182,192,82282,1,0,0:0:0:25:soft-hitnormal2.wav
329,192,82616,128,0,82949:0:0:0:25:soft-hitnormal.wav
448,192,82949,1,0,0:0:0:25:soft-hitnormal2.wav
256,192,83282,1,0,0:0:0:25:soft-hitclap2.wav
109,192,83616,128,0,83782:0:0:0:25:poppi.wav
402,192,83949,128,0,84116:0:0:0:25:poppi.wav
182,192,84282,128,0,84616:0:0:0:25:soft-hitnormal2.wav
475,192,84949,128,0,85282:0:0:0:25:soft-hitnormal2.wav
36,192,85282,1,0,0:0:0:25:soft-hitnormal2.wav
192,192,85282,128,0,86616:0:0:0:25:poppi.wav
256,192,86616,128,0,86949:0:0:0:25:soft-hitclap2.wav
402,192,86949,128,0,87949:0:0:0:25:poppi.wav
109,192,87949,1,0,0:0:0:25:soft-hitnormal.wav
256,192,87949,1,0,0:0:0:25:soft-hitnormal.wav
192,192,88282,1,0,0:0:0:25:soft-hitnormal2.wav
192,192,88616,1,0,0:0:0:25:soft-hitclap2.wav
64,192,88949,1,0,0:0:0:25:soft-hitnormal2.wav
109,192,89282,1,0,0:0:0:25:soft-hitclap2.wav
402,192,89616,1,0,0:0:0:25:soft-hitnormal2.wav
475,192,89949,1,0,0:0:0:25:soft-hitclap2.wav
192,192,90282,1,0,0:0:0:25:soft-hitnormal2.wav
192,192,90616,1,0,0:0:0:25:soft-hitclap2.wav
329,192,90949,1,0,0:0:0:25:soft-hitnormal2.wav
182,192,91282,1,0,0:0:0:25:soft-hitclap2.wav
448,192,91616,1,0,0:0:0:25:soft-hitnormal2.wav
64,192,91949,1,0,0:0:0:25:soft-hitclap2.wav
329,192,92282,1,0,0:0:0:25:soft-hitnormal2.wav
192,192,92616,1,0,0:0:0:25:soft-hitclap2.wav
36,192,92949,128,0,93116:0:0:0:25:soft-hitclap2.wav
402,192,93116,128,0,93282:0:0:0:25:soft-hitclap2.wav
182,192,93282,128,0,93616:0:0:0:25:soft-hitclap2.wav
320,192,93616,1,0,0:0:0:25:soft-hitnormal.wav
475,192,94116,128,0,94616:0:0:0:25:soft-hitnormal.wav
256,192,94616,1,0,0:0:0:0:
109,192,94949,128,0,95449:0:0:0:25:soft-hitnormal.wav
402,192,95449,128,0,95949:0:0:0:25:soft-hitnormal.wav
256,192,95949,128,0,96282:0:0:0:25:soft-hitnormal.wav
36,192,96282,1,0,0:0:0:25:soft-hitnormal2.wav
182,192,96616,1,0,0:0:0:25:soft-hitnormal2.wav
475,192,96949,1,0,0:0:0:25:soft-hitnormal2.wav
329,192,97282,1,0,0:0:0:25:soft-hitnormal2.wav
109,192,97616,1,0,0:0:0:25:soft-hitnormal2.wav
402,192,97949,1,0,0:0:0:25:soft-hitnormal2.wav
182,192,98282,1,0,0:0:0:25:soft-hitnormal2.wav
329,192,98616,1,0,0:0:0:25:soft-hitnormal2.wav
109,192,98949,1,0,0:0:0:25:soft-hitnormal.wav
402,192,98949,1,0,0:0:0:25:soft-hitnormal.wav
256,192,99616,128,0,99949:0:0:0:25:soft-hitnormal2.wav
109,192,99949,1,0,0:0:0:25:soft-hitnormal.wav
402,192,99949,1,0,0:0:0:25:soft-hitnormal.wav
