osu file format v14

[General]
AudioFilename: audio.mp3
AudioLeadIn: 0
PreviewTime: 44170
Countdown: 0
SampleSet: Normal
StackLeniency: 0.2
Mode: 0
LetterboxInBreaks: 0
WidescreenStoryboard: 0

[Editor]
Bookmarks: 9807,18534,27261,35989,53443,62170,70898,79625,88352,97080,105807,114534,123261,131989,142898,151625,160352,169080,177807,186534,203989
DistanceSpacing: 1.2
BeatDivisor: 8
GridSize: 16
TimelineZoom: 1.9

[Metadata]
Title:Hi-TECHOLIC
TitleUnicode:Hi-TECHOLIC
Artist:C-Show VS lapix
ArtistUnicode:C-Show VS lapix
Creator:Markden
Version:Hi-TEKDEN
Source:
Tags:core signal
BeatmapID:1344053
BeatmapSetID:633247

[Difficulty]
HPDrainRate:5
CircleSize:4.3
OverallDifficulty:8
ApproachRate:9
SliderMultiplier:2.8
SliderTickRate:1

[Events]
//Background and Video events
0,0,"55598993_p0.jpg",0,0
//Break Periods
//Storyboard Layer 0 (Background)
//Storyboard Layer 1 (Fail)
//Storyboard Layer 2 (Pass)
//Storyboard Layer 3 (Foreground)
//Storyboard Layer 4 (Overlay)
//Storyboard Sound Samples

[TimingPoints]
1080,545.454545454546,4,1,0,40,1,0
8989,-83.3333333333333,4,1,0,40,0,0
16898,-100,4,1,0,40,0,0
17307,-100,4,1,0,10,0,0
17443,-100,4,1,0,50,0,0
17716,-76.9230769230769,4,1,0,50,0,0
19489,-76.9230769230769,4,1,0,10,0,0
19625,-76.9230769230769,4,1,0,50,0,0
19761,-76.9230769230769,4,1,0,10,0,0
19898,-76.9230769230769,4,1,0,50,0,0
20307,-100,4,1,0,50,0,0
20580,-100,4,1,0,10,0,0
20716,-76.9230769230769,4,1,0,50,0,0
21670,-76.9230769230769,4,1,0,10,0,0
21807,-76.9230769230769,4,1,0,50,0,0
21943,-76.9230769230769,4,1,0,10,0,0
22080,-76.9230769230769,4,1,0,50,0,0
22489,-100,4,1,0,50,0,0
22761,-100,4,1,0,10,0,0
22898,-76.9230769230769,4,1,0,50,0,0
23852,-76.9230769230769,4,1,0,10,0,0
23989,-76.9230769230769,4,1,0,50,0,0
24125,-76.9230769230769,4,1,0,10,0,0
24261,-76.9230769230769,4,1,0,50,0,0
24670,-100,4,1,0,50,0,0
24943,-100,4,1,0,10,0,0
25080,-83.3333333333333,4,1,0,50,0,0
26170,-100,4,1,0,50,0,0
26443,-83.3333333333333,4,1,0,50,0,0
33807,-100,4,1,0,50,0,0
35989,-76.9230769230769,4,1,0,50,0,0
36943,-76.9230769230769,4,1,0,10,0,0
37080,-76.9230769230769,4,1,0,50,0,0
37216,-76.9230769230769,4,1,0,10,0,0
37352,-76.9230769230769,4,1,0,50,0,0
37761,-100,4,1,0,50,0,0
38034,-76.9230769230769,4,1,0,10,0,0
38170,-76.9230769230769,4,1,0,50,0,0
39125,-76.9230769230769,4,1,0,10,0,0
39261,-76.9230769230769,4,1,0,50,0,0
39398,-76.9230769230769,4,1,0,10,0,0
39534,-76.9230769230769,4,1,0,50,0,0
39943,-100,4,1,0,50,0,0
40216,-71.4285714285714,4,1,0,10,0,0
40352,-71.4285714285714,4,1,0,50,0,0
40898,-62.5,4,1,0,50,0,0
41443,-55.5555555555556,4,1,0,50,0,0
41989,-50,4,1,0,50,0,0
44716,-40,4,1,0,30,0,1
45125,-50,4,1,0,10,0,1
45398,-25,4,1,0,30,0,1
45670,-25,4,1,0,10,0,1
45807,-25,4,1,0,30,0,1
45943,-25,4,1,0,10,0,1
46080,-25,4,1,0,30,0,1
46216,-25,4,1,0,10,0,1
46352,-25,4,1,0,30,0,1
46625,-28.5714285714286,4,1,0,30,0,1
46761,-28.5714285714286,4,1,0,10,0,1
46898,-28.5714285714286,4,1,0,30,0,1
47716,-25,4,1,0,30,0,1
47852,-25,4,1,0,10,0,1
47989,-25,4,1,0,30,0,1
48125,-25,4,1,0,10,0,1
48261,-25,4,1,0,30,0,1
48398,-25,4,1,0,10,0,1
48807,-28.5714285714286,4,1,0,30,0,1
48943,-28.5714285714286,4,1,0,10,0,1
49080,-28.5714285714286,4,1,0,30,0,1
49898,-25,4,1,0,30,0,1
50034,-25,4,1,0,10,0,1
50170,-25,4,1,0,30,0,1
50307,-25,4,1,0,10,0,1
50443,-25,4,1,0,30,0,1
50580,-25,4,1,0,10,0,1
50716,-25,4,1,0,30,0,1
50989,-28.5714285714286,4,1,0,30,0,1
51125,-28.5714285714286,4,1,0,10,0,1
51261,-40,4,1,0,30,0,1
52080,-25,4,1,0,30,0,1
52216,-25,4,1,0,10,0,1
52352,-25,4,1,0,30,0,1
52489,-25,4,1,0,10,0,1
52625,-25,4,1,0,30,0,1
52761,-25,4,1,0,10,0,1
52898,-25,4,1,0,30,0,1
53170,-50,4,1,0,30,0,1
53443,-40,4,1,0,30,0,1
53852,-40,4,1,0,10,0,1
53989,-40,4,1,0,30,0,1
54261,-25,4,1,0,30,0,1
54398,-25,4,1,0,10,0,1
54534,-25,4,1,0,30,0,1
54670,-25,4,1,0,10,0,1
54807,-25,4,1,0,30,0,1
54943,-25,4,1,0,10,0,1
55080,-25,4,1,0,30,0,1
55489,-25,4,1,0,10,0,1
55625,-25,4,1,0,30,0,1
56580,-25,4,1,0,10,0,1
56716,-25,4,1,0,30,0,1
56852,-25,4,1,0,10,0,1
56989,-25,4,1,0,30,0,1
57125,-25,4,1,0,10,0,1
57261,-25,4,1,0,30,0,1
57670,-25,4,1,0,10,0,1
57807,-25,4,1,0,30,0,1
58761,-25,4,1,0,10,0,1
58898,-25,4,1,0,30,0,1
59034,-25,4,1,0,10,0,1
59170,-25,4,1,0,30,0,1
59307,-25,4,1,0,10,0,1
59443,-25,4,1,0,30,0,1
59852,-25,4,1,0,10,0,1
59989,-50,4,1,0,30,0,1
61352,-66.6666666666667,4,1,0,30,0,1
61761,-100,4,1,0,30,0,1
62170,-40,4,1,0,30,0,1
62580,-40,4,1,0,10,0,1
62716,-40,4,1,0,30,0,1
62989,-25,4,1,0,30,0,1
63125,-25,4,1,0,10,0,1
63261,-25,4,1,0,30,0,1
63398,-25,4,1,0,10,0,1
63534,-25,4,1,0,30,0,1
63670,-25,4,1,0,10,0,1
63807,-25,4,1,0,30,0,1
63943,-28.5714285714286,4,1,0,30,0,1
65170,-25,4,1,0,30,0,1
65307,-25,4,1,0,10,0,1
65443,-25,4,1,0,30,0,1
65580,-25,4,1,0,10,0,1
65716,-25,4,1,0,30,0,1
65852,-25,4,1,0,10,0,1
65989,-25,4,1,0,30,0,1
66398,-25,4,1,0,10,0,1
66534,-25,4,1,0,30,0,1
66602,-28.5714285714286,4,1,0,30,0,1
67352,-25,4,1,0,30,0,1
67489,-25,4,1,0,10,0,1
67625,-25,4,1,0,30,0,1
67761,-25,4,1,0,10,0,1
67898,-25,4,1,0,30,0,1
68034,-25,4,1,0,10,0,1
68170,-25,4,1,0,30,0,1
68580,-25,4,1,0,10,0,1
68716,-40,4,1,0,30,0,1
69534,-25,4,1,0,30,0,1
69670,-25,4,1,0,10,0,1
69807,-25,4,1,0,30,0,1
69943,-25,4,1,0,10,0,1
70080,-25,4,1,0,30,0,1
70216,-25,4,1,0,10,0,1
70352,-25,4,1,0,30,0,1
70693,-50,4,1,0,30,0,1
71307,-50,4,1,0,10,0,1
71443,-50,4,1,0,30,0,1
71716,-25,4,1,0,30,0,1
71852,-25,4,1,0,10,0,1
71989,-25,4,1,0,30,0,1
72125,-25,4,1,0,10,0,1
72261,-25,4,1,0,30,0,1
72398,-25,4,1,0,10,0,1
72534,-25,4,1,0,30,0,1
72807,-28.5714285714286,4,1,0,30,0,1
72943,-28.5714285714286,4,1,0,10,0,1
73080,-28.5714285714286,4,1,0,30,0,1
73898,-25,4,1,0,30,0,1
74034,-25,4,1,0,10,0,1
74170,-25,4,1,0,30,0,1
74307,-25,4,1,0,10,0,1
74443,-25,4,1,0,30,0,1
74580,-25,4,1,0,10,0,1
74716,-25,4,1,0,30,0,1
75330,-28.5714285714286,4,1,0,30,0,1
76080,-25,4,1,0,30,0,1
76216,-25,4,1,0,10,0,1
76352,-25,4,1,0,30,0,1
76489,-25,4,1,0,10,0,1
76625,-25,4,1,0,30,0,1
76761,-25,4,1,0,10,0,1
76898,-25,4,1,0,30,0,1
77307,-25,4,1,0,10,0,1
77443,-50,4,1,0,30,0,0
78807,-66.6666666666667,4,1,0,30,0,0
79216,-100,4,1,0,30,0,0
79625,-66.6666666666667,4,1,0,30,0,0
83511,-66.6666666666667,4,1,0,10,0,0
83580,-83.3333333333333,4,1,0,30,0,0
83989,-66.6666666666667,4,1,0,30,0,0
87943,-100,4,1,0,30,0,0
88352,-66.6666666666667,4,1,0,40,0,0
89989,-83.3333333333333,4,1,0,40,0,0
90534,-66.6666666666667,4,1,0,40,0,0
92170,-83.3333333333333,4,1,0,40,0,0
92716,-66.6666666666667,4,1,0,40,0,0
92989,-62.5,4,1,0,40,0,0
93261,-58.8235294117647,4,1,0,40,0,0
93534,-55.5555555555556,4,1,0,40,0,0
93807,-52.6315789473684,4,1,0,40,0,0
94080,-50,4,1,0,40,0,0
94352,-43.4782608695652,4,1,0,40,0,0
94625,-38.4615384615385,4,1,0,40,0,0
96534,-28.5714285714286,4,1,0,40,0,0
96602,-100,4,1,0,10,0,0
97080,-50,4,1,0,40,0,0
98989,-100,4,1,0,40,0,0
99261,-45.4545454545455,4,1,0,40,0,0
99534,-100,4,1,0,40,0,0
99807,-50,4,1,0,40,0,0
100898,-66.6666666666667,4,1,0,40,0,0
101170,-111.111111111111,4,1,0,40,0,0
101375,-111.111111111111,4,1,0,10,0,0
101443,-33.3333333333333,4,1,0,30,0,0
103352,-66.6666666666667,4,1,0,30,0,0
103625,-50,4,1,0,30,0,0
105534,-100,4,1,0,30,0,0
105739,-100,4,1,0,10,0,0
105807,-100,4,1,0,40,0,0
105943,-50,4,1,0,40,0,0
107716,-100,4,1,0,40,0,0
108125,-50,4,1,0,40,0,0
109625,-100,4,1,0,40,0,0
109898,-50,4,1,0,40,0,0
113443,-66.6666666666667,4,1,0,40,0,0
113852,-50,4,1,0,40,0,0
114057,-50,4,1,0,10,0,0
114125,-66.6666666666667,4,1,0,40,0,0
116170,-83.3333333333333,4,1,0,40,0,0
116716,-55.5555555555556,4,1,0,40,0,0
117261,-66.6666666666667,4,1,0,40,0,0
118352,-83.3333333333333,4,1,0,40,0,0
118898,-55.5555555555556,4,1,0,40,0,0
119443,-66.6666666666667,4,1,0,40,0,0
121080,-55.5555555555556,4,1,0,40,0,0
121625,-66.6666666666667,4,1,0,40,0,0
122307,-58.8235294117647,4,1,0,40,0,0
122852,-50,4,1,0,40,0,0
123398,-43.4782608695652,4,1,0,40,0,0
125170,-66.6666666666667,4,1,0,40,0,0
125580,-43.4782608695652,4,1,0,40,0,0
127080,-66.6666666666667,4,1,0,40,0,0
127352,-43.4782608695652,4,1,0,40,0,0
127830,-43.4782608695652,4,1,0,10,0,0
127898,-100,4,1,0,40,0,0
128102,-100,4,1,0,10,0,0
128170,-43.4782608695652,4,1,0,40,0,0
128375,-43.4782608695652,4,1,0,10,0,0
128443,-100,4,1,0,40,0,0
128648,-100,4,1,0,10,0,0
128716,-43.4782608695652,4,1,0,40,0,0
128920,-43.4782608695652,4,1,0,10,0,0
128989,-100,4,1,0,40,0,0
129193,-100,4,1,0,10,0,0
129261,-43.4782608695652,4,1,0,40,0,0
129466,-43.4782608695652,4,1,0,10,0,0
129534,-66.6666666666667,4,1,0,40,0,0
130080,-55.5555555555556,4,1,0,40,0,0
130352,-47.6190476190476,4,1,0,40,0,0
130625,-41.6666666666667,4,1,0,40,0,0
131989,-100,4,1,0,10,0,0
132943,-66.6666666666667,4,1,0,40,0,0
133352,-50,4,1,0,40,0,0
134170,-83.3333333333333,4,1,0,40,0,0
147261,-66.6666666666667,4,1,0,40,0,0
150534,-41.6666666666667,4,1,0,40,0,0
151080,-100,4,1,0,40,0,0
151625,-25,4,1,0,40,0,1
152170,-50,4,1,0,40,0,1
153193,-50,4,1,0,10,0,1
153261,-50,4,1,0,40,0,1
153807,-33.3333333333333,4,1,0,40,0,1
155443,-25,4,1,0,40,0,1
156534,-50,4,1,0,40,0,1
157557,-50,4,1,0,10,0,1
157625,-50,4,1,0,40,0,1
159807,-100,4,1,0,40,0,1
160080,-25,4,1,0,40,0,1
160898,-50,4,1,0,40,0,1
161920,-50,4,1,0,10,0,1
161989,-50,4,1,0,40,0,1
162534,-33.3333333333333,4,1,0,40,0,1
164170,-50,4,1,0,40,0,1
164716,-25,4,1,0,40,0,1
165261,-50,4,1,0,40,0,1
169080,-25,4,1,0,40,0,1
169625,-50,4,1,0,40,0,1
170170,-66.6666666666667,4,1,0,40,0,1
170716,-50,4,1,0,40,0,1
171261,-33.3333333333333,4,1,0,40,0,1
171534,-45.4545454545455,4,1,0,40,0,1
171670,-41.6666666666667,4,1,0,40,0,1
171807,-38.4615384615385,4,1,0,40,0,1
171943,-35.7142857142857,4,1,0,40,0,1
172080,-33.3333333333333,4,1,0,40,0,1
172216,-31.25,4,1,0,40,0,1
172352,-29.4117647058824,4,1,0,40,0,1
172489,-27.7777777777778,4,1,0,40,0,1
172625,-26.3157894736842,4,1,0,40,0,1
172761,-25,4,1,0,40,0,1
173989,-50,4,1,0,40,0,1
174534,-66.6666666666667,4,1,0,40,0,1
175080,-50,4,1,0,40,0,1
177807,-25,4,1,0,40,0,1
178352,-50,4,1,0,40,0,1
178898,-66.6666666666667,4,1,0,40,0,1
179443,-50,4,1,0,40,0,1
179989,-33.3333333333333,4,1,0,40,0,1
180261,-45.4545454545455,4,1,0,40,0,1
180397,-41.6666666666667,4,1,0,40,0,1
180534,-38.4615384615385,4,1,0,40,0,1
180670,-35.7142857142857,4,1,0,40,0,1
180807,-33.3333333333333,4,1,0,40,0,1
180943,-31.25,4,1,0,40,0,1
181079,-29.4117647058824,4,1,0,40,0,1
181216,-27.7777777777778,4,1,0,40,0,1
181352,-26.3157894736842,4,1,0,40,0,1
181488,-25,4,1,0,40,0,1
181625,-50,4,1,0,40,0,1
182170,-25,4,1,0,40,0,1
182716,-50,4,1,0,40,0,1
183261,-66.6666666666667,4,1,0,40,0,1
183807,-50,4,1,0,40,0,1
184352,-66.6666666666667,4,1,0,40,0,1
186534,-83.3333333333333,4,1,0,40,0,0
201807,-66.6666666666667,4,1,0,40,0,0

[Colours]
Combo1 : 128,128,128
Combo2 : 128,0,255
Combo3 : 0,128,192
Combo4 : 255,0,0

[HitObjects]
104,269,1080,6,0,P|127:206|194:226,1,140
230,295,1489,1,0,0:0:0:0:
247,317,1625,2,0,L|257:150,1,140
238,199,2034,1,0,0:0:0:0:
86,138,2307,5,0,0:0:0:0:
98,122,2443,2,0,L|105:240,1,70
247,317,2716,2,0,L|257:150,1,140
317,58,3261,5,0,0:0:0:0:
238,199,3534,2,0,P|274:203|315:190,1,70
205,283,3807,2,0,P|138:288|66:263,1,140
80,297,4216,1,0,0:0:0:0:
133,164,4489,5,0,0:0:0:0:
117,176,4625,2,0,L|264:186,1,140
306,280,5034,2,0,L|159:270,1,140
9,215,5443,5,0,0:0:0:0:
76,102,5716,2,0,L|93:197,1,70
256,185,5989,2,0,L|231:47,1,140
218,71,6398,1,0,0:0:0:0:
345,180,6670,5,0,0:0:0:0:
369,170,6807,2,0,P|360:216|333:246,1,70
221,313,7080,2,0,B|222:242|222:242|276:168,1,140
401,275,7625,6,0,B|379:245|379:245|328:228,2,70
470,300,8034,1,0,0:0:0:0:
354,333,8170,2,0,P|440:337|474:286,1,140
347,234,8716,6,0,B|333:215|333:215|302:205,2,46.6666666666667
370,233,8989,2,0,P|336:209|346:233,1,111.999996582031
343,254,9261,1,0,0:0:0:0:
352,278,9329,1,0,0:0:0:0:
360,295,9397,1,0,0:0:0:0:
354,310,9465,1,0,0:0:0:0:
360,316,9534,2,0,P|316:317|266:291,1,83.9999974365235
239,207,9807,6,0,P|164:208|85:159,1,167.999994873047
413,118,10216,1,0,0:0:0:0:
309,92,10352,2,0,P|232:57|186:122,1,167.999994873047
333,295,10761,1,0,0:0:0:0:
348,196,10898,2,0,L|172:212,1,167.999994873047
76,148,11307,1,0,0:0:0:0:
189,114,11443,2,0,L|314:103,2,125.999996154785
72,152,11989,5,0,0:0:0:0:
68,156,12262,1,0,0:0:0:0:
161,275,12534,2,0,L|354:238,1,167.999994873047
245,178,12943,1,0,0:0:0:0:
189,114,13080,1,0,0:0:0:0:
282,99,13352,2,0,B|294:30|358:123|446:111,1,167.999994873047
429,112,13761,2,0,B|416:180|352:87|264:99,1,167.999994873047
188,116,14170,5,0,0:0:0:0:
184,120,14444,1,0,0:0:0:0:
106,227,14716,2,0,P|187:285|156:348,1,167.999994873047
234,182,15125,1,0,0:0:0:0:
122,291,15261,2,0,L|93:82,1,167.999994873047
12,352,15670,1,0,0:0:0:0:
23,80,15807,2,0,L|-6:289,1,167.999994873047
16,356,16352,5,0,0:0:0:0:
20,360,16624,1,0,0:0:0:0:
123,289,16898,2,0,B|205:204|223:278|302:171,1,210
296,178,17443,1,0,0:0:0:0:
189,142,17716,2,0,P|205:240|212:249,1,90.9999958343508
151,347,17989,1,0,0:0:0:0:
446,40,18261,1,0,0:0:0:0:
457,186,18534,6,0,P|357:222|337:150,1,181.999991668702
332,56,18943,1,0,0:0:0:0:
132,215,19216,5,0,0:0:0:0:
201,118,19352,2,0,P|257:158|205:234,1,90.9999958343508
201,232,19625,2,0,P|257:192|205:116,1,90.9999958343508
266,55,19898,2,0,P|331:139|325:228,1,181.999991668702
262,350,20307,2,0,B|193:327|193:327|95:333,1,140
16,289,20716,6,0,L|58:108,1,181.999991668702
135,181,21125,1,0,0:0:0:0:
399,135,21398,5,0,0:0:0:0:
291,141,21534,2,0,P|335:223|330:244,1,90.9999958343508
259,257,21807,2,0,P|215:175|220:154,1,90.9999958343508
150,94,22080,2,0,L|372:20,1,181.999991668702
291,141,22489,2,0,L|424:96,1,140
218,111,22898,6,0,P|157:57|112:124,1,181.999991668702
90,232,23307,1,0,0:0:0:0:
289,353,23580,5,0,0:0:0:0:
328,266,23716,2,0,P|284:235|258:199,1,90.9999958343508
220,138,23989,2,0,P|236:95|239:50,1,90.9999958343508
322,26,24261,2,0,P|347:143|375:219,1,181.999991668702
317,307,24670,2,0,P|260:266|167:271,1,140
169,181,25080,6,0,B|199:150|199:150|199:94,1,83.9999974365235
71,60,25352,2,0,B|42:91|42:91|42:147,1,83.9999974365235
51,242,25625,2,0,B|114:297|114:297|210:297,1,167.999994873047
327,220,26170,6,0,B|308:234|308:234|298:265,2,46.6666666666667
329,194,26443,2,0,P|305:228|329:218,1,111.999996582031
404,230,26715,1,0,0:0:0:0:
395,262,26783,1,0,0:0:0:0:
414,288,26851,1,0,0:0:0:0:
412,312,26919,1,0,0:0:0:0:
419,321,26988,2,0,P|377:314|317:287,1,83.9999974365235
201,194,27261,6,0,P|241:302|232:352,1,167.999994873047
104,262,27670,1,0,0:0:0:0:
101,143,27807,2,0,P|183:108|227:108,2,83.9999974365235
2,207,28216,1,0,0:0:0:0:
368,301,28489,5,0,0:0:0:0:
379,185,28625,2,0,P|405:90|356:70,2,167.999994873047
234,312,29443,5,0,0:0:0:0:
279,208,29716,2,0,P|276:170|287:110,1,83.9999974365235
324,19,29989,2,0,P|383:84|374:177,1,167.999994873047
314,289,30534,2,0,L|279:107,1,167.999994873047
198,192,30943,1,0,0:0:0:0:
88,154,31080,2,0,P|89:236|145:295,1,167.999994873047
314,289,31625,5,0,0:0:0:0:
227,41,31898,2,0,P|268:70|325:89,1,83.9999974365235
416,198,32170,2,0,P|348:162|278:211,1,167.999994873047
163,305,32716,2,0,L|198:123,1,167.999994873047
279,208,33125,1,0,0:0:0:0:
295,297,33261,2,0,P|370:283|395:201,1,167.999994873047
252,76,33807,5,0,0:0:0:0:
252,76,33943,2,0,L|248:156,2,70
384,200,34352,2,0,L|387:130,1,70
136,176,34625,2,0,L|132:245,1,70
264,192,34898,2,0,L|270:52,2,140
217,320,35580,1,0,0:0:0:0:
90,71,35989,6,0,P|81:120|188:216,1,181.999991668702
287,145,36398,1,0,0:0:0:0:
115,355,36670,5,0,0:0:0:0:
225,328,36807,2,0,L|238:225,1,90.9999958343508
131,225,37080,2,0,L|148:92,1,90.9999958343508
37,31,37352,2,0,L|11:215,1,181.999991668702
63,338,37761,2,0,P|143:296|225:328,1,140
241,57,38170,6,0,B|232:147|232:147|152:205,1,181.999991668702
97,108,38580,1,0,0:0:0:0:
396,177,38852,5,0,0:0:0:0:
307,116,38989,2,0,L|296:224,1,90.9999958343508
279,381,39261,2,0,L|290:278,1,90.9999958343508
369,309,39534,2,0,B|378:219|378:219|458:161,1,181.999991668702
394,78,39943,2,0,L|245:182,1,140
168,108,40352,6,0,P|166:179|191:238,1,97.9999970092774
359,321,40625,2,0,P|288:316|232:285,1,97.9999970092774
132,102,40898,2,0,P|149:170|189:219,1,112
373,298,41171,2,0,P|303:312|241:298,1,112
309,20,41443,6,0,P|272:79|265:143,1,125.999996154785
373,298,41716,2,0,P|313:259|279:204,1,125.999996154785
362,40,41989,2,0,P|295:84|259:145,1,140
334,340,42262,2,0,P|291:271|283:200,1,140
280,108,42534,5,0,0:0:0:0:
259,104,42602,1,0,0:0:0:0:
239,99,42670,1,0,0:0:0:0:
220,90,42738,1,0,0:0:0:0:
203,77,42806,1,0,0:0:0:0:
185,65,42874,1,0,0:0:0:0:
166,56,42943,1,0,0:0:0:0:
146,50,43011,1,0,0:0:0:0:
125,46,43080,5,0,0:0:0:0:
152,60,43148,1,0,0:0:0:0:
176,79,43216,1,0,0:0:0:0:
186,112,43284,1,0,0:0:0:0:
185,139,43352,1,0,0:0:0:0:
191,159,43420,1,0,0:0:0:0:
173,177,43489,1,0,0:0:0:0:
155,189,43557,1,0,0:0:0:0:
148,224,43625,6,0,P|126:186|116:138,6,70
250,308,44170,2,0,P|221:242|254:164,1,140
327,60,44443,1,0,0:0:0:0:
319,340,44716,6,0,P|230:196|414:289,1,525
325,237,45261,1,0,0:0:0:0:
142,129,45443,1,0,0:0:0:0:
88,86,45534,2,0,B|108:34|108:34|332:92,1,280
409,207,45807,2,0,P|369:320|325:236,1,280
279,30,46080,2,0,L|210:305,1,280
115,366,46352,1,0,0:0:0:0:
49,182,46534,1,0,0:0:0:0:
80,246,46625,2,0,B|152:212|152:110|152:110|152:212|236:252,1,245.000002336502
306,274,46898,5,0,0:0:0:0:
306,274,46966,2,0,B|354:275|354:275|388:323|463:251|409:202|346:211|346:255|346:255|346:275|346:275|351:256|351:256|363:272|363:272|400:240|400:240|345:278,2,367.500003504753
246,324,47443,1,0,0:0:0:0:
83,85,47625,1,0,0:0:0:0:
72,155,47716,2,0,B|116:215|116:215|125:280|125:280|126:213|126:213|159:133,1,280
143,45,47989,2,0,P|256:110|209:244,1,280
246,324,48261,2,0,B|390:324|390:324|390:116,1,280
358,70,48534,1,0,0:0:0:0:
227,175,48716,1,0,0:0:0:0:
179,233,48807,2,0,B|277:258|304:347|304:347|272:351|242:320,1,245.000002336502
80,280,49080,5,0,0:0:0:0:
80,280,49148,2,0,B|36:242|36:242|80:280|80:280|52:287|52:287|64:298|64:298|36:305|36:305|48:316|48:316|-3:302|-3:302|99:392,2,367.500003504753
155,342,49625,1,0,0:0:0:0:
416,44,49807,1,0,0:0:0:0:
471,100,49898,2,0,L|194:186,1,280
18,83,50170,2,0,B|179:104|179:104|99:144|131:236,1,280
155,342,50443,2,0,P|222:241|302:332,1,280
227,315,50716,1,0,0:0:0:0:
110,85,50898,1,0,0:0:0:0:
179,104,50989,2,0,B|291:216|291:216|251:201|251:201|179:215,1,245.000002336502
352,128,51261,6,0,B|400:176|400:176|336:288|336:288|384:336,1,262.5
382,334,51534,2,0,B|412:276|412:276|318:187|318:187|354:125,1,262.5
354,32,51807,1,0,0:0:0:0:
102,333,51989,1,0,0:0:0:0:
180,317,52080,2,0,B|169:270|118:229|54:250|28:300|28:300|47:256|16:189,1,280
112,128,52352,2,0,B|189:148|189:148|280:239|280:239|389:268,1,280
484,168,52625,2,0,B|484:92|484:92|356:92|356:92|356:188,1,280
423,309,52898,5,0,0:0:0:0:
368,279,52988,1,0,0:0:0:0:
302,277,53079,1,0,0:0:0:0:
247,248,53170,6,0,B|301:158|301:158|364:264,1,210
354,248,53443,2,0,B|419:222|478:248|478:248|454:187|478:120|478:120|414:138|346:120|346:120|251:280,1,525
243,361,53989,1,0,0:0:0:0:
96,136,54170,1,0,0:0:0:0:
143,80,54261,2,0,B|248:248|248:248|260:153,1,280
283,76,54534,2,0,B|358:11|358:11|335:220,1,280
396,296,54807,2,0,B|321:296|321:296|238:348|238:348|137:286,1,280
28,338,55080,1,0,0:0:0:0:
458,257,55261,1,0,0:0:0:0:
396,296,55352,2,0,B|304:239|304:239|221:291|221:291|146:291,1,280
48,192,55625,5,0,0:0:0:0:
48,192,55693,2,0,B|117:130|97:81|97:81|55:119|89:202|89:202|55:119|98:80|98:80|117:130|42:195,2,420
15,262,56170,1,0,0:0:0:0:
422,104,56352,1,0,0:0:0:0:
433,172,56443,2,0,B|402:218|402:218|254:123|254:123|228:163,1,280
152,280,56716,2,0,B|121:331|121:331|48:363|48:363|38:283|38:283|70:228,1,280
125,130,56989,2,0,B|194:170|194:170|228:86|228:86|345:36,1,280
421,70,57261,1,0,0:0:0:0:
66,186,57443,1,0,0:0:0:0:
124,129,57534,2,0,B|224:86|224:86|258:2|258:2|328:43,1,280
469,142,57807,5,0,0:0:0:0:
469,142,57875,2,0,B|469:190|469:190|373:190|373:190|437:190|437:190|357:190|357:190|405:190|405:190|341:190|341:190|325:190|325:190|325:270,2,420
421,70,58352,1,0,0:0:0:0:
145,228,58534,1,0,0:0:0:0:
97,282,58625,2,0,B|112:338|112:338|336:280,1,280
512,272,58898,2,0,B|487:204|487:204|418:184|418:184|393:117|393:117|324:97,1,280
174,86,59170,2,0,B|124:114|124:114|82:138|117:201|159:177|159:177|257:123,1,280
332,98,59443,1,0,0:0:0:0:
158,353,59625,1,0,0:0:0:0:
236,340,59716,2,0,B|343:279|343:279|328:251|328:251|202:320,1,280
182,156,59989,6,0,P|277:188|258:94,1,210
170,0,60261,1,0,0:0:0:0:
250,31,60398,2,0,L|453:39,1,140
318,110,60670,2,0,L|521:118,1,140
358,189,60943,2,0,L|561:197,1,140
133,318,61216,5,0,0:0:0:0:
255,270,61352,2,0,L|479:278,1,210.000008010865
358,189,61761,2,0,L|164:181,1,140
0,215,62170,6,0,B|0:343|0:343|48:327|96:343|96:343|96:180|96:180|128:215|192:215|224:177,1,525
159,121,62716,1,0,0:0:0:0:
438,66,62898,1,0,0:0:0:0:
446,138,62989,6,0,B|397:157|392:232|328:268|328:268|386:273|430:213,1,280
501,257,63261,2,0,P|425:328|248:331,1,280
121,307,63534,2,0,B|154:248|159:121|159:121|190:207,1,280
261,257,63807,1,0,0:0:0:0:
438,66,63943,1,0,0:0:0:0:
446,138,64080,2,0,P|476:209|377:351,1,245.000002336502
224,352,64352,5,0,0:0:0:0:
224,352,64420,2,0,B|237:328|224:304|224:304|176:304|176:304|176:240|176:240|176:288|176:288|176:256|176:256|176:272|176:272|176:224|176:224|205:205|232:222|232:222|165:191,2,367.500003504753
318,350,64898,1,0,0:0:0:0:
34,69,65080,5,0,0:0:0:0:
53,131,65170,2,0,B|137:222|69:236|125:315|125:315|180:302|188:265,1,280
165,190,65443,2,0,B|245:182|285:244|261:318|261:318|197:373,1,280
185,272,65716,2,0,B|336:246|266:176|418:132,1,280
385,57,65989,1,0,0:0:0:0:
119,233,66125,1,0,0:0:0:0:
185,272,66261,2,0,B|296:158|325:252|420:132,1,280,0|0,0:0|0:0,3:0:0:0:
482,203,66534,5,0,0:0:0:0:
482,203,66602,2,0,B|448:239|448:239|410:208|410:208|361:219|361:219|401:249|401:249|350:263|350:263|361:312|361:312|278:268,2,367.500003504753
512,273,67080,1,0,0:0:0:0:
159,318,67261,5,0,0:0:0:0:
74,353,67352,2,0,P|167:229|245:285,1,280
380,297,67625,2,0,P|294:182|361:82,1,280
272,39,67898,2,0,P|168:138|27:164,1,280
72,253,68170,1,0,0:0:0:0:
454,338,68352,1,0,0:0:0:0:
380,297,68443,2,0,L|272:39,1,280
156,109,68716,2,0,B|137:77|79:82|79:82|143:118|148:193|197:212,1,262.5
196,212,68988,2,0,B|215:244|273:239|273:239|209:203|204:128|155:109,1,262.5
82,85,69261,1,0,0:0:0:0:
454,338,69443,5,0,0:0:0:0:
380,297,69534,2,0,P|372:168|378:-6,1,280
270,42,69807,2,0,P|203:153|138:70,1,280
209,82,70080,2,0,P|205:268|183:366,1,280
117,357,70351,5,0,0:0:0:0:
76,303,70442,1,0,0:0:0:0:
93,238,70533,1,0,0:0:0:0:
155,211,70624,1,0,0:0:0:0:
217,232,70693,2,0,P|303:183|261:123,1,140
155,211,70898,6,0,P|330:237|237:82,1,420
248,180,71443,1,0,0:0:0:0:
47,342,71625,5,0,0:0:0:0:
74,272,71716,2,0,B|293:242|293:242|374:275,1,280
394,348,71989,2,0,P|281:229|305:114,1,280
241,30,72261,2,0,P|133:203|239:252,1,280
255,332,72534,1,0,0:0:0:0:
223,203,72716,1,0,0:0:0:0:
149,217,72807,2,0,P|45:50|147:3,1,245.000002336502
210,133,73080,5,0,0:0:0:0:
210,133,73148,2,0,B|161:115|161:115|167:47|65:66|84:137|136:166|165:120|165:120|145:109|145:109|131:81|131:81|154:88|154:88|140:120|140:120|116:75,2,367.500003504753
316,70,73625,1,0,0:0:0:0:
454,339,73807,5,0,0:0:0:0:
404,264,73898,2,0,L|94:299,1,280
57,378,74170,2,0,P|29:226|118:126,1,280
43,28,74443,2,0,B|85:52|85:52|328:70,1,280
434,126,74716,1,0,0:0:0:0:
165,262,74898,1,0,0:0:0:0:
168,192,74989,2,0,B|209:170|209:170|114:151|34:208|34:208|82:210,1,280,6|0,0:0|0:0,0:0:0:0:
313,253,75261,5,0,0:0:0:0:
313,253,75330,2,0,B|281:157|281:157|313:189|313:189|329:157|345:189|345:189|361:157|377:189|377:189|409:157|409:157|385:259|385:259|393:189,2,367.500003504753
351,355,75807,1,0,0:0:0:0:
70,52,75989,5,0,0:0:0:0:
48,131,76080,2,0,P|166:188|308:128,1,280
440,150,76352,2,0,P|382:271|252:257,1,280
121,328,76625,2,0,B|186:141|186:141|266:72,1,280
376,37,76898,1,0,0:0:0:0:
206,333,77034,1,0,0:0:0:0:
253,258,77170,2,0,P|384:268|439:149,1,280
449,77,77443,6,0,P|352:86|346:200,1,210
406,146,77716,1,0,0:0:0:0:
259,68,77852,2,0,P|159:61|108:86,1,140
39,141,78125,2,0,P|114:206|133:260,1,140
217,232,78398,2,0,P|209:332|234:383,1,140
329,322,78670,5,0,0:0:0:0:
467,337,78807,2,0,P|410:246|409:133,1,210.000008010865
315,58,79216,2,0,P|330:134|283:195,1,140
116,290,79625,2,0,P|110:182|125:64,1,210.000008010865
114,291,80170,2,0,P|108:183|123:65,1,210.000008010865
112,292,80716,2,0,P|106:184|121:66,1,210.000008010865
110,293,81261,2,0,P|104:185|119:67,1,210.000008010865
107,294,81807,2,0,P|101:186|116:68,1,210.000008010865
105,295,82352,2,0,P|99:187|114:69,1,210.000008010865
348,128,82898,6,0,P|352:195|343:267,2,105.000004005432
418,100,83307,2,0,P|423:191|410:292,1,157.500006008148
357,342,83580,2,0,P|317:281|223:289,1,167.999994873047
116,290,83989,6,0,P|110:182|125:64,1,210.000008010865
114,291,84534,2,0,P|108:183|123:65,1,210.000008010865
112,292,85080,2,0,P|106:184|121:66,1,210.000008010865
110,293,85625,2,0,P|104:185|119:67,1,210.000008010865
107,294,86171,2,0,P|101:186|116:68,1,210.000008010865
105,295,86716,2,0,P|99:187|114:69,1,210.000008010865
338,45,87261,6,0,P|295:103|224:124,2,105.000004005432
348,256,87670,2,0,P|352:189|336:84,1,157.500006008148
416,113,87943,2,0,P|425:196|420:280,1,140
332,333,88352,6,0,P|287:308|271:248,1,105.000004005432
286,29,88625,2,0,L|165:45,1,105.000004005432
149,117,88898,2,0,L|253:103,1,105.000004005432
221,178,89170,2,0,L|116:191,1,105.000004005432
84,265,89443,2,0,L|188:251,1,105.000004005432
156,327,89716,2,0,L|51:340,1,105.000004005432
84,265,89989,2,0,L|70:160,1,83.9999974365235
177,167,90261,2,0,L|190:271,1,83.9999974365235
213,332,90534,6,0,P|257:307|275:258,1,105.000004005432
259,29,90807,2,0,L|380:45,1,105.000004005432
395,117,91080,2,0,L|290:103,1,105.000004005432
323,178,91352,2,0,L|427:191,1,105.000004005432
461,266,91625,2,0,L|356:252,1,105.000004005432
389,327,91898,2,0,L|493:340,1,105.000004005432
461,266,92170,2,0,L|474:161,1,83.9999974365235
368,168,92443,2,0,L|354:272,1,83.9999974365235
332,333,92716,6,0,P|287:308|271:248,1,105.000004005432
95,187,92989,2,0,P|140:160|200:176,1,112
351,58,93261,2,0,P|351:111|306:156,1,119.000002269745
164,280,93534,6,0,B|112:251|112:251|94:183,1,125.999996154785
405,160,93807,2,0,B|406:224|406:224|351:278,1,132.999996448517
165,22,94080,2,0,B|227:-12|227:-12|294:9,1,140
385,114,94352,6,0,L|353:298,1,161.000003070831
159,294,94625,2,0,L|125:103,1,181.999991668702
188,59,94898,5,0,0:0:0:0:
217,65,94966,1,0,0:0:0:0:
243,78,95034,1,0,0:0:0:0:
261,102,95102,1,0,0:0:0:0:
266,132,95170,1,0,0:0:0:0:
275,160,95238,1,0,0:0:0:0:
298,179,95307,1,0,0:0:0:0:
327,187,95375,1,0,0:0:0:0:
358,187,95443,5,0,0:0:0:0:
327,187,95511,1,0,0:0:0:0:
302,198,95579,1,0,0:0:0:0:
291,215,95647,1,0,0:0:0:0:
288,246,95715,1,0,0:0:0:0:
268,270,95783,1,0,0:0:0:0:
276,295,95852,1,0,0:0:0:0:
295,309,95920,1,0,0:0:0:0:
292,338,95989,6,0,P|333:300|348:237,6,90.9999958343508
400,210,96534,2,0,B|419:176|408:150|408:150|366:153|351:199,1,122.500001168251
203,352,97080,5,0,0:0:0:0:
89,70,97352,2,0,L|99:211,1,140
269,140,97625,2,0,L|259:281,1,140
399,117,97898,1,0,0:0:0:0:
399,117,98034,1,0,0:0:0:0:
404,187,98170,2,0,P|335:246|330:212,1,140
163,260,98443,2,0,P|100:250|107:187,1,140
269,140,98716,2,0,L|259:281,1,140
404,187,98989,2,0,L|410:99,1,70
258,277,99261,6,0,B|229:205|229:205|269:140,1,154.000004699707
413,47,99534,6,0,L|408:116,1,70
259,279,99807,2,0,L|269:140,1,140
89,70,100080,1,0,0:0:0:0:
89,70,100216,1,0,0:0:0:0:
98,143,100352,2,0,B|152:189|152:189|98:243,1,140
302,233,100625,2,0,B|248:187|248:187|302:133,1,140
324,42,100898,2,0,P|371:70|396:117,1,105.000004005432
302,233,101170,6,0,L|296:120,1,94.499997116089
147,5,101443,6,0,P|209:108|200:210,1,210.000008010865
103,329,101716,2,0,B|76:163|76:163|103:92,1,210.000008010865
195,52,101989,2,0,P|175:153|178:261,1,210.000008010865
83,384,102261,2,0,P|69:279|30:179,1,210.000008010865
105,72,102534,5,0,0:0:0:0:
219,142,102670,1,0,0:0:0:0:
101,205,102807,1,0,0:0:0:0:
195,52,102943,1,0,0:0:0:0:
190,231,103080,1,0,0:0:0:0:
38,137,103217,1,0,0:0:0:0:
167,324,103352,2,0,P|105:280|100:204,1,157.500006008148
219,142,103625,2,0,B|164:47|164:47|195:51,1,140
387,101,103898,6,0,L|377:242,1,140
288,209,104170,2,0,L|298:350,2,140
190,231,104580,2,0,P|211:117|202:71,1,140
348,29,104852,2,0,P|345:98|390:206,1,140
288,209,105125,2,0,P|290:278|270:345,1,140
197,126,105398,1,0,0:0:0:0:
197,126,105534,2,0,L|188:244,1,105
130,297,105807,5,0,0:0:0:0:
299,151,105943,2,0,L|268:303,1,140
319,151,106216,2,0,L|288:303,1,140
340,152,106489,2,0,L|309:304,1,140
426,357,106761,2,0,L|457:205,1,140
363,154,107034,2,0,L|332:306,1,140
384,155,107307,2,0,L|353:307,1,140
405,156,107580,1,0,0:0:0:0:
405,156,107716,2,0,L|381:269,1,105
426,357,107989,5,0,0:0:0:0:
356,121,108125,2,0,L|390:290,1,140
333,121,108398,2,0,L|367:290,1,140
310,122,108671,2,0,L|344:291,1,140
214,350,108943,2,0,L|179:180,1,140
284,124,109216,2,0,L|318:293,1,140
343,361,109489,1,0,0:0:0:0:
343,361,109625,2,0,P|380:306|389:244,1,105
419,168,109898,2,0,P|323:195|205:158,1,210
154,215,110171,5,0,0:0:0:0:
246,29,110307,2,0,L|215:181,1,140
266,29,110580,2,0,L|235:181,1,140
287,30,110853,2,0,L|256:182,1,140
373,235,111125,2,0,L|404:83,1,140
310,32,111398,2,0,L|279:184,1,140
331,33,111671,2,0,L|300:185,1,140
359,246,111944,1,0,0:0:0:0:
475,102,112080,2,0,P|471:37|340:85,1,210
378,129,112353,5,0,0:0:0:0:
275,307,112489,2,0,L|302:169,1,140
251,304,112762,2,0,L|278:166,1,140
230,303,113034,2,0,L|257:165,1,140
303,83,113307,1,0,0:0:0:0:
378,129,113443,2,0,P|352:192|307:222,2,105.000004005432
474,96,113852,2,0,P|472:201|518:306,1,210
472,373,114125,2,0,P|399:300|237:325,1,262.500010013581
192,240,114534,6,0,L|226:108,2,105.000004005432
101,325,114943,1,0,0:0:0:0:
249,314,115080,2,0,B|303:313|303:313|357:275,1,105.000004005432
448,157,115352,2,0,B|393:157|393:157|339:195,1,105.000004005432
268,237,115625,5,0,0:0:0:0:
184,179,115761,1,0,0:0:0:0:
87,209,115898,2,0,P|75:268|100:322,1,105.000004005432
88,149,116170,2,0,P|67:244|107:332,1,167.999994873047
481,213,116716,6,0,B|497:149|497:149|466:81,1,125.999996154785
397,22,116989,1,0,0:0:0:0:
375,110,117125,1,0,0:0:0:0:
292,148,117261,2,0,L|308:273,1,105.000004005432
195,44,117534,2,0,L|178:178,1,105.000004005432
170,277,117807,5,0,0:0:0:0:
89,257,117943,1,0,0:0:0:0:
55,182,118079,2,0,L|73:48,1,105.000004005432
198,169,118352,2,0,P|128:149|66:69,1,167.999994873047
481,213,118898,6,0,B|497:149|497:149|466:81,1,125.999996154785
397,22,119170,1,0,0:0:0:0:
375,110,119306,1,0,0:0:0:0:
300,150,119443,2,0,P|321:207|312:262,1,105.000004005432
132,183,119716,2,0,P|171:135|222:116,1,105.000004005432
245,316,119988,5,0,0:0:0:0:
150,280,120124,1,0,0:0:0:0:
55,244,120261,2,0,L|29:114,1,105.000004005432
132,183,120534,2,0,L|106:53,1,105.000004005432
227,210,120807,2,0,L|200:80,1,105.000004005432
481,213,121080,6,0,B|497:149|497:149|472:94,1,125.999996154785
395,0,121352,1,0,0:0:0:0:
359,84,121488,1,0,0:0:0:0:
394,161,121625,2,0,L|376:281,1,105.000004005432
266,218,121898,2,0,L|284:338,1,105.000004005432
360,377,122170,5,0,0:0:0:0:
315,146,122307,2,0,P|251:137|194:158,2,119.000002269745
92,295,122716,5,0,0:0:0:0:
268,44,122852,2,0,P|335:27|411:50,2,140
432,264,123261,5,0,0:0:0:0:
334,99,123398,2,0,L|359:268,1,161.000003070831
253,61,123670,2,0,L|278:230,1,161.000003070831
182,94,123943,2,0,L|207:263,1,161.000003070831
352,329,124216,2,0,P|398:256|350:186,1,161.000003070831
249,27,124489,2,0,L|274:196,1,161.000003070831
178,60,124762,2,0,L|203:229,1,161.000003070831
221,350,125034,1,0,0:0:0:0:
221,350,125170,2,0,P|174:295|92:325,1,157.500006008148
24,274,125443,5,0,0:0:0:0:
75,80,125580,2,0,L|108:249,1,161.000003070831
158,110,125852,2,0,L|191:279,1,161.000003070831
230,82,126125,2,0,L|263:251,1,161.000003070831
191,341,126398,2,0,P|124:285|148:204,1,161.000003070831
220,30,126670,2,0,L|253:199,1,161.000003070831
304,69,126943,1,0,0:0:0:0:
304,69,127080,2,0,L|337:238,1,157.500006008148
334,31,127352,2,0,B|312:110|312:110|329:188|329:188|309:287,1,241.500004606247
249,328,127625,6,0,P|195:235|52:313,1,241.500004606247
77,256,127898,6,0,P|84:185|56:145,1,105
68,157,128170,6,0,P|191:148|263:42,1,241.500004606247
259,59,128443,6,0,P|286:124|272:171,1,105
280,155,128716,6,0,P|402:145|474:39,1,241.500004606247
470,56,128989,6,0,L|499:166,1,105
497,158,129261,6,0,P|352:182|332:277,1,241.500004606247
328,257,129534,1,0,0:0:0:0:
119,283,129670,5,0,0:0:0:0:
119,283,129807,2,0,L|100:173,1,105.000004005432
412,239,130080,2,0,L|434:108,1,125.999996154785
43,267,130352,2,0,L|16:115,1,146.999995513916
479,294,130625,2,0,L|513:94,1,167.999994873047
101,307,130898,5,0,0:0:0:0:
412,239,131034,1,0,0:0:0:0:
151,241,131170,1,0,0:0:0:0:
341,192,131307,1,0,0:0:0:0:
180,162,131443,1,0,0:0:0:0:
288,127,131579,1,0,0:0:0:0:
184,78,131715,1,0,0:0:0:0:
257,50,131852,1,0,0:0:0:0:
196,1,131989,6,0,P|36:203|152:289,1,455
217,284,132943,1,0,0:0:0:0:
175,217,133080,2,0,P|102:180|107:106,1,157.500006008148
169,145,133352,6,0,B|227:108|227:108|289:148,1,140
438,342,133625,1,0,0:0:0:0:
49,34,133898,1,0,0:0:0:0:
77,162,134170,6,0,P|147:109|226:124,1,167.999994873047
166,204,134580,1,0,0:0:0:0:
15,270,134716,2,0,L|320:315,1,251.999992309571
264,306,135261,1,0,0:0:0:0:
166,204,135534,1,0,0:0:0:0:
221,121,135670,2,0,P|140:110|77:162,1,167.999994873047
15,270,136080,1,0,0:0:0:0:
411,329,136352,6,0,B|399:287|399:287|245:259,1,167.999994873047
166,204,136761,1,0,0:0:0:0:
123,136,136898,1,0,0:0:0:0:
381,61,137170,1,0,0:0:0:0:
394,143,137306,1,0,0:0:0:0:
440,212,137443,2,0,P|499:238|506:343,1,167.999994873047
436,296,137852,2,0,B|353:282|353:282|262:298,1,167.999994873047
217,218,138261,1,0,0:0:0:0:
485,48,138534,5,0,0:0:0:0:
49,122,138807,1,0,0:0:0:0:
25,44,139079,1,0,0:0:0:0:
431,206,139352,1,0,0:0:0:0:
455,128,139624,1,0,0:0:0:0:
24,284,139897,1,0,0:0:0:0:
0,206,140169,1,0,0:0:0:0:
382,356,140443,1,0,0:0:0:0:
406,278,140716,6,0,B|379:243|379:243|362:178,1,83.9999974365235
373,118,140989,1,0,0:0:0:0:
458,119,141125,2,0,P|392:34|332:44,1,167.999994873047
279,164,141534,1,0,0:0:0:0:
139,118,141807,1,0,0:0:0:0:
170,38,141943,2,0,P|89:46|54:119,1,167.999994873047
106,278,142489,6,0,B|133:243|133:243|150:178,1,83.9999974365235
436,44,142898,5,0,0:0:0:0:
54,113,143170,1,0,0:0:0:0:
26,21,143443,1,0,0:0:0:0:
446,182,143716,1,0,0:0:0:0:
474,90,143989,1,0,0:0:0:0:
34,278,144261,1,0,0:0:0:0:
6,186,144534,1,0,0:0:0:0:
484,357,144807,1,0,0:0:0:0:
429,288,145080,6,0,P|460:253|468:187,1,83.9999974365235
462,128,145353,1,0,0:0:0:0:
493,48,145489,2,0,P|412:56|377:129,1,167.999994873047
320,203,145898,1,0,0:0:0:0:
173,277,146170,1,0,0:0:0:0:
116,202,146307,2,0,P|80:129|0:121,1,167.999994873047
72,272,146852,6,0,P|41:237|33:171,1,83.9999974365235
396,202,147261,6,0,L|423:77,1,105.000004005432
0,103,147534,2,0,L|27:-22,1,105.000004005432
324,104,147807,2,0,L|351:-21,1,105.000004005432
15,293,148080,2,0,L|42:168,1,105.000004005432
213,176,148352,2,0,L|240:51,1,105.000004005432
450,384,148625,2,0,L|477:259,1,105.000004005432
302,206,148898,2,0,L|329:81,1,105.000004005432
0,355,149170,2,0,L|27:230,1,105.000004005432
136,0,149443,5,0,0:0:0:0:
124,30,149511,1,0,0:0:0:0:
116,62,149579,1,0,0:0:0:0:
116,95,149647,1,0,0:0:0:0:
126,126,149715,1,0,0:0:0:0:
135,157,149783,1,0,0:0:0:0:
134,190,149852,1,0,0:0:0:0:
125,221,149920,1,0,0:0:0:0:
111,251,149988,5,0,0:0:0:0:
125,277,150057,1,0,0:0:0:0:
159,284,150125,1,0,0:0:0:0:
172,310,150193,1,0,0:0:0:0:
198,314,150261,1,0,0:0:0:0:
210,340,150329,1,0,0:0:0:0:
224,336,150398,1,0,0:0:0:0:
240,365,150466,1,0,0:0:0:0:
252,364,150534,2,0,P|273:338|297:353,9,55.9999982910157
317,278,151080,2,0,B|251:253|205:302|205:302|253:259|250:207,1,210
240,158,151625,2,0,L|251:250,14,70
320,113,152170,6,0,B|330:201|330:201|385:263|385:263|235:316|235:316|307:367|307:367|437:321,1,490
374,343,152716,2,0,B|415:293|415:293|331:204|331:204|314:67,1,280
319,111,153261,2,0,B|372:177|372:177|384:262|384:262|306:177,1,280
49,282,153807,6,0,L|130:255,6,52.5000020027161
99,266,154080,2,0,L|59:138,1,105.000004005432
118,105,154216,1,0,0:0:0:0:
118,105,154284,1,0,0:0:0:0:
191,295,154352,6,0,L|151:167,1,105.000004005432
210,134,154488,1,0,0:0:0:0:
210,134,154556,1,0,0:0:0:0:
283,324,154625,6,0,L|243:196,1,105.000004005432
302,163,154761,1,0,0:0:0:0:
302,163,154829,1,0,0:0:0:0:
375,353,154898,6,0,L|335:225,1,105.000004005432
394,192,155034,1,0,0:0:0:0:
394,192,155102,1,0,0:0:0:0:
467,382,155171,6,0,L|427:254,1,105.000004005432
486,221,155307,1,0,0:0:0:0:
486,221,155375,1,0,0:0:0:0:
493,211,155443,5,0,0:0:0:0:
9,351,155716,1,0,0:0:0:0:
244,202,155989,2,0,P|157:232|240:193,1,280
244,202,156261,1,0,0:0:0:0:
321,111,156534,6,0,B|332:216|386:261|386:261|359:298|251:272|251:272|274:311|258:352|258:352|330:370|414:346,1,490
354,357,157080,2,0,B|335:288|386:263|386:263|317:194|323:97,1,280
321,111,157625,2,0,B|381:200|386:262|386:262|317:250|221:288,1,280
69,243,158170,6,0,L|34:123,1,70
172,298,158443,2,0,L|119:117,2,140
214,164,158852,2,0,L|179:44,1,70
214,164,158989,1,0,0:0:0:0:
312,231,159125,2,0,L|259:51,1,140
415,297,159398,1,0,0:0:0:0:
415,297,159534,2,0,L|362:117,1,140
481,244,159807,2,0,L|461:176,1,70
422,42,160080,6,0,L|485:258,1,210.000008010865
415,297,160352,2,0,L|394:229,14,70
354,352,160898,6,0,B|288:147|288:147|195:214|195:214|216:283|216:283|115:338,1,490
138,325,161443,2,0,B|243:268|243:268|331:284|331:284|354:355,1,280
354,352,161989,2,0,B|223:304|223:304|195:213|195:213|243:182,1,280
78,113,162534,6,0,L|94:162,6,52.5000020027161
105,31,162807,2,0,L|220:-4,1,105.000004005432
272,37,162943,1,0,0:0:0:0:
272,37,163011,1,0,0:0:0:0:
78,113,163079,6,0,L|193:76,1,105.000004005432
246,119,163215,1,0,0:0:0:0:
246,119,163283,1,0,0:0:0:0:
52,196,163352,6,0,L|167:160,1,105.000004005432
219,202,163488,1,0,0:0:0:0:
219,202,163556,1,0,0:0:0:0:
26,279,163625,6,0,L|141:242,1,105.000004005432
193,285,163761,1,0,0:0:0:0:
193,285,163829,1,0,0:0:0:0:
0,362,163898,6,0,L|115:326,1,105.000004005432
167,368,164034,1,0,0:0:0:0:
167,368,164102,1,0,0:0:0:0:
167,368,164170,2,0,P|276:318|199:198,1,280
225,201,164716,2,0,P|138:231|221:192,1,280
225,201,164989,1,0,0:0:0:0:
354,352,165261,6,0,B|277:247|288:147|288:147|215:160|195:214|195:214|215:246|216:283|216:283|176:290|176:290|105:351,1,490
149,313,165807,2,0,B|177:290|177:290|249:281|301:252|301:252|312:300|360:358,1,280
354,352,166352,2,0,B|254:348|219:305|219:305|219:207|132:156,1,280
448,249,166898,6,0,L|482:113,1,140
350,288,167170,1,0,0:0:0:0:
350,288,167307,2,0,L|384:152,1,140
300,149,167580,2,0,L|328:33,1,70
300,149,167716,1,0,0:0:0:0:
205,164,167852,2,0,L|239:28,2,140
114,185,168261,2,0,L|142:69,1,70
114,185,168398,2,0,L|142:69,1,70
114,0,168534,5,0,0:0:0:0:
488,353,168807,1,0,0:0:0:0:
234,143,169080,6,0,L|245:235,14,70
308,83,169625,2,0,B|329:235|329:235|353:203|353:203|425:203|425:203|457:235|457:235|457:307|457:307|425:339|425:339|313:339,1,490
173,295,170170,2,0,B|158:186|158:186|83:96,1,210.000008010865
281,316,170716,2,0,P|293:178|435:141,1,280
49,282,171261,6,0,L|130:255,6,52.5000020027161
210,144,171534,2,0,P|212:174|199:158,1,77.0000023498536
214,147,171671,2,0,P|208:178|198:158,1,83.9999974365235
216,149,171807,2,0,P|219:184|198:157,1,90.9999958343508
219,156,171943,2,0,P|212:192|197:158,1,97.9999970092774
219,160,172080,2,0,P|202:196|198:157,1,105.000004005432
218,165,172216,2,0,P|191:197|198:156,1,112
216,170,172353,2,0,P|179:195|198:155,1,119.000002269745
211,174,172489,2,0,P|167:189|198:154,1,125.999996154785
205,178,172625,2,0,P|156:180|198:154,1,132.999996448517
199,180,172762,2,0,P|148:169|198:154,1,140
13,297,172898,5,0,0:0:0:0:
456,18,173170,1,0,0:0:0:0:
244,202,173443,6,0,P|157:232|240:193,1,280
244,202,173716,1,0,0:0:0:0:
308,83,173989,6,0,B|332:146|329:235|329:235|380:182|457:235|457:235|457:307|354:274|325:370,1,490
173,295,174534,2,0,B|129:134|129:134|83:96,1,210.000008010865
281,316,175080,2,0,B|281:278|272:244|272:244|344:206|354:153|354:153|407:161|435:141,1,280
432,143,175625,6,0,L|467:263,1,70
329,88,175898,2,0,L|382:269,2,140
287,222,176307,2,0,L|322:342,1,70
287,222,176444,1,0,0:0:0:0:
189,155,176580,2,0,L|242:335,1,140
86,89,176853,1,0,0:0:0:0:
86,89,176989,2,0,L|139:269,1,140
20,142,177262,2,0,L|40:210,1,70
78,343,177535,6,0,L|15:127,1,210.000008010865
86,89,177807,6,0,L|65:21,14,70
173,39,178352,2,0,B|205:143|205:143|285:143|285:143|301:127|301:127|365:127|365:127|381:143|381:143|437:143|437:143|477:231|477:231|381:231,1,490
311,231,178898,2,0,B|207:230|207:230|172:336,1,210.000008010865
83,63,179443,2,0,P|133:190|67:331,1,280
52,192,179989,6,0,L|-33:191,6,52.5000020027161
147,181,180261,2,0,P|185:213|197:253,1,77.0000023498536
157,166,180397,2,0,P|188:204|193:245,1,83.9999974365235
171,153,180534,2,0,P|195:196|193:237,1,90.9999958343508
185,143,180670,2,0,P|202:192|192:235,1,97.9999970092774
199,135,180807,2,0,P|209:192|189:238,1,105.000004005432
220,132,180943,2,0,P|219:191|192:233,1,112
239,132,181079,2,0,P|227:194|190:234,1,119.000002269745
257,134,181216,2,0,P|232:200|185:235,1,125.999996154785
278,143,181352,2,0,P|241:206|186:233,1,132.999996448517
298,157,181488,2,0,P|249:214|189:232,1,140
429,121,181625,6,0,P|312:216|187:231,1,280
88,145,182170,6,0,P|0:175|84:136,1,280
88,145,182443,1,0,0:0:0:0:
173,39,182716,6,0,B|217:78|205:143|205:143|246:173|285:143|285:143|360:102|369:160|437:143|437:143|448:189|477:231|477:231|381:231,1,490
301,261,183262,2,0,B|269:249|243:218|203:255|203:255|216:315|162:366,1,210.000008010865
113,82,183807,2,0,B|148:101|131:143|131:143|105:157|88:192|88:192|94:232|129:249|129:249|150:307|81:323,1,280
506,137,184352,6,0,L|443:347,1,210.000008010865
423,72,185034,1,0,0:0:0:0:
423,72,185307,2,0,L|360:282,1,210.000008010865
305,154,185716,2,0,L|284:223,1,52.5000020027161
305,154,185852,2,0,L|284:223,1,52.5000020027161
243,358,185989,5,0,0:0:0:0:
510,2,186261,1,0,0:0:0:0:
506,122,186534,6,0,P|428:106|386:173,1,167.999994873047
431,318,186943,1,0,0:0:0:0:
440,338,187080,2,0,L|458:164,1,167.999994873047
408,23,187489,1,0,0:0:0:0:
431,318,187761,5,0,0:0:0:0:
440,338,187898,2,0,L|453:222,1,83.9999974365235
506,122,188170,2,0,P|428:106|386:173,1,167.999994873047
330,364,188580,1,0,0:0:0:0:
321,384,188717,2,0,B|286:295|340:313|298:212,1,167.999994873047
250,71,189125,1,0,0:0:0:0:
262,87,189261,2,0,P|304:20|381:35,1,167.999994873047
506,122,189670,1,0,0:0:0:0:
330,364,189943,5,0,0:0:0:0:
321,384,190080,2,0,L|286:295,1,83.9999974365235
372,267,190352,2,0,L|337:178,1,83.9999974365235
469,117,190625,1,0,0:0:0:0:
469,117,190761,1,0,0:0:0:0:
469,117,190898,2,0,P|391:132|349:65,1,167.999994873047
449,27,191307,1,0,0:0:0:0:
436,51,191443,2,0,P|488:39|460:116,1,167.999994873047
298,80,191852,1,0,0:0:0:0:
46,136,192125,5,0,0:0:0:0:
43,117,192261,2,0,P|120:132|149:110,1,83.9999974365235
194,57,192534,2,0,P|223:138|162:226,1,167.999994873047
24,208,192943,1,0,0:0:0:0:
16,229,193080,2,0,P|102:223|118:313,1,167.999994873047
48,342,193489,1,0,0:0:0:0:
32,357,193625,2,0,L|237:379,1,167.999994873047
339,384,194034,1,0,0:0:0:0:
100,251,194307,5,0,0:0:0:0:
183,259,194443,1,0,0:0:0:0:
267,268,194579,1,0,0:0:0:0:
512,65,194852,5,0,0:0:0:0:
426,111,194988,1,0,0:0:0:0:
351,51,195124,1,0,0:0:0:0:
261,70,195261,2,0,P|247:142|140:135,1,167.999994873047
97,44,195670,1,0,0:0:0:0:
84,25,195807,2,0,L|97:223,1,167.999994873047
104,338,196216,1,0,0:0:0:0:
97,44,196489,5,0,0:0:0:0:
84,25,196625,2,0,L|91:145,1,83.9999974365235
95,192,196898,2,0,P|173:183|192:106,1,167.999994873047
174,10,197307,1,0,0:0:0:0:
155,28,197443,2,0,P|231:38|355:18,1,167.999994873047
420,17,197852,1,0,0:0:0:0:
413,0,197989,2,0,P|394:78|451:155,1,167.999994873047
470,272,198398,1,0,0:0:0:0:
174,10,198670,5,0,0:0:0:0:
155,28,198807,2,0,P|198:33|269:22,1,83.9999974365235
321,28,199080,2,0,P|329:106|406:125,1,167.999994873047
456,48,199489,1,0,0:0:0:0:
429,55,199625,2,0,P|474:83|400:117,1,167.999994873047
321,28,200034,5,0,0:0:0:0:
328,109,200170,2,0,P|289:137|230:140,1,83.9999974365235
200,83,200443,2,0,P|161:111|102:114,1,83.9999974365235
177,215,200716,2,0,P|138:243|79:246,1,83.9999974365235
315,295,200989,2,0,P|276:323|217:326,1,83.9999974365235
499,166,201261,2,0,P|460:194|401:197,1,83.9999974365235
319,20,201534,2,0,P|280:48|221:51,1,83.9999974365235
52,151,201807,5,0,0:0:0:0:
62,150,201875,1,0,0:0:0:0:
74,154,201943,1,0,0:0:0:0:
87,138,202011,1,0,0:0:0:0:
98,147,202079,1,0,0:0:0:0:
98,131,202147,1,0,0:0:0:0:
110,131,202216,1,0,0:0:0:0:
120,131,202284,1,0,0:0:0:0:
126,116,202352,5,0,0:0:0:0:
133,122,202420,1,0,0:0:0:0:
149,122,202488,1,0,0:0:0:0:
151,134,202556,1,0,0:0:0:0:
161,143,202624,1,0,0:0:0:0:
172,144,202692,1,0,0:0:0:0:
181,143,202761,1,0,0:0:0:0:
188,152,202829,1,0,0:0:0:0:
202,143,202898,5,0,0:0:0:0:
202,153,202966,1,0,0:0:0:0:
204,163,203034,1,0,0:0:0:0:
212,174,203102,1,0,0:0:0:0:
213,183,203170,1,0,0:0:0:0:
219,193,203238,1,0,0:0:0:0:
214,202,203307,1,0,0:0:0:0:
228,201,203375,1,0,0:0:0:0:
236,216,203443,1,0,0:0:0:0:
236,216,203989,1,0,0:0:0:0:
