osu file format v14

[General]
AudioFilename: audio.mp3
AudioLeadIn: 0
PreviewTime: -1
Countdown: 1
SampleSet: None
StackLeniency: 0.7
Mode: 3
LetterboxInBreaks: 0
SpecialStyle: 0
WidescreenStoryboard: 0

[Editor]
Bookmarks: 192125
DistanceSpacing: 1.6
BeatDivisor: 8
GridSize: 4
TimelineZoom: 2.5

[Metadata]
Title:sideflip
TitleUnicode:sideflip
Artist:C-Show
ArtistUnicode:C-Show
Creator:Hydria
Version:ExperimentaLN
Source:
Tags:
BeatmapID:2048948
BeatmapSetID:979075

[Difficulty]
HPDrainRate:8
CircleSize:4
OverallDifficulty:8
ApproachRate:5
SliderMultiplier:1.4
SliderTickRate:1

[Events]
//Background and Video events
0,0,"K4VkBqQ.png",0,0
//Break Periods
//Storyboard Layer 0 (Background)
//Storyboard Layer 1 (Fail)
//Storyboard Layer 2 (Pass)
//Storyboard Layer 3 (Foreground)
//Storyboard Sound Samples

[TimingPoints]
125,315.789473684211,4,1,0,100,1,0

[HitObjects]
64,192,125,5,0,0:0:0:0:
192,192,282,1,0,0:0:0:0:
448,192,440,1,0,0:0:0:0:
64,192,598,1,0,0:0:0:0:
192,192,756,1,0,0:0:0:0:
448,192,914,1,0,0:0:0:0:
64,192,1072,1,0,0:0:0:0:
192,192,1230,1,0,0:0:0:0:
448,192,1388,1,0,0:0:0:0:
64,192,1546,1,0,0:0:0:0:
192,192,1703,1,0,0:0:0:0:
448,192,1861,1,0,0:0:0:0:
64,192,2019,1,0,0:0:0:0:
192,192,2177,1,0,0:0:0:0:
448,192,2335,1,0,0:0:0:0:
320,192,2493,1,0,0:0:0:0:
64,192,2651,1,0,0:0:0:0:
320,192,2809,1,0,0:0:0:0:
448,192,2967,1,0,0:0:0:0:
64,192,3125,1,0,0:0:0:0:
320,192,3282,1,0,0:0:0:0:
448,192,3440,1,0,0:0:0:0:
64,192,3598,1,0,0:0:0:0:
320,192,3756,1,0,0:0:0:0:
448,192,3914,1,0,0:0:0:0:
64,192,4072,1,0,0:0:0:0:
320,192,4230,1,0,0:0:0:0:
448,192,4388,1,0,0:0:0:0:
64,192,4546,1,0,0:0:0:0:
320,192,4703,1,0,0:0:0:0:
448,192,4861,1,0,0:0:0:0:
320,192,5019,1,0,0:0:0:0:
192,192,5177,1,0,0:0:0:0:
320,192,5335,1,0,0:0:0:0:
448,192,5493,1,0,0:0:0:0:
192,192,5651,1,0,0:0:0:0:
320,192,5809,1,0,0:0:0:0:
448,192,5967,1,0,0:0:0:0:
192,192,6125,1,0,0:0:0:0:
320,192,6282,1,0,0:0:0:0:
448,192,6440,1,0,0:0:0:0:
192,192,6598,1,0,0:0:0:0:
320,192,6756,1,0,0:0:0:0:
448,192,6914,1,0,0:0:0:0:
192,192,7072,1,0,0:0:0:0:
320,192,7230,1,0,0:0:0:0:
448,192,7388,1,0,0:0:0:0:
320,192,7546,1,0,0:0:0:0:
64,192,7703,1,0,0:0:0:0:
320,192,7861,1,0,0:0:0:0:
448,192,8019,1,0,0:0:0:0:
64,192,8177,1,0,0:0:0:0:
320,192,8335,1,0,0:0:0:0:
448,192,8493,1,0,0:0:0:0:
64,192,8651,1,0,0:0:0:0:
320,192,8809,1,0,0:0:0:0:
192,192,8967,1,0,0:0:0:0:
64,192,9125,1,0,0:0:0:0:
192,192,9282,1,0,0:0:0:0:
320,192,9440,1,0,0:0:0:0:
64,192,9598,1,0,0:0:0:0:
192,192,9756,1,0,0:0:0:0:
320,192,9914,1,0,0:0:0:0:
192,192,10072,1,0,0:0:0:0:
64,192,10230,1,0,0:0:0:0:
320,192,10388,1,0,0:0:0:0:
448,192,10546,1,0,0:0:0:0:
64,192,10703,1,0,0:0:0:0:
320,192,10861,1,0,0:0:0:0:
448,192,11019,1,0,0:0:0:0:
64,192,11177,1,0,0:0:0:0:
320,192,11335,1,0,0:0:0:0:
448,192,11493,1,0,0:0:0:0:
64,192,11651,1,0,0:0:0:0:
320,192,11809,1,0,0:0:0:0:
448,192,11967,1,0,0:0:0:0:
64,192,12125,1,0,0:0:0:0:
320,192,12282,1,0,0:0:0:0:
448,192,12440,1,0,0:0:0:0:
320,192,12598,1,0,0:0:0:0:
64,192,12756,1,0,0:0:0:0:
192,192,12914,1,0,0:0:0:0:
448,192,13072,1,0,0:0:0:0:
64,192,13230,1,0,0:0:0:0:
192,192,13388,1,0,0:0:0:0:
448,192,13546,1,0,0:0:0:0:
64,192,13703,1,0,0:0:0:0:
192,192,13861,1,0,0:0:0:0:
448,192,14019,1,0,0:0:0:0:
64,192,14177,1,0,0:0:0:0:
192,192,14335,1,0,0:0:0:0:
448,192,14493,1,0,0:0:0:0:
64,192,14651,1,0,0:0:0:0:
192,192,14809,1,0,0:0:0:0:
448,192,14967,1,0,0:0:0:0:
320,192,15125,1,0,0:0:0:0:
192,192,15282,1,0,0:0:0:0:
320,192,15440,1,0,0:0:0:0:
448,192,15598,1,0,0:0:0:0:
192,192,15756,1,0,0:0:0:0:
320,192,15914,1,0,0:0:0:0:
448,192,16072,1,0,0:0:0:0:
192,192,16230,1,0,0:0:0:0:
320,192,16388,1,0,0:0:0:0:
448,192,16546,1,0,0:0:0:0:
192,192,16703,1,0,0:0:0:0:
320,192,16861,1,0,0:0:0:0:
448,192,17019,1,0,0:0:0:0:
192,192,17177,1,0,0:0:0:0:
320,192,17335,1,0,0:0:0:0:
448,192,17493,1,0,0:0:0:0:
320,192,17651,1,0,0:0:0:0:
64,192,17809,1,0,0:0:0:0:
192,192,17967,1,0,0:0:0:0:
448,192,18125,1,0,0:0:0:0:
64,192,18282,1,0,0:0:0:0:
192,192,18440,1,0,0:0:0:0:
448,192,18598,1,0,0:0:0:0:
64,192,18756,1,0,0:0:0:0:
192,192,18914,1,0,0:0:0:0:
448,192,19072,1,0,0:0:0:0:
64,192,19230,1,0,0:0:0:0:
192,192,19388,1,0,0:0:0:0:
448,192,19546,1,0,0:0:0:0:
64,192,19703,1,0,0:0:0:0:
192,192,19861,1,0,0:0:0:0:
448,192,20019,1,0,0:0:0:0:
64,192,20177,1,0,0:0:0:0:
192,192,20335,128,0,20414:0:0:0:0:
320,192,20335,1,0,0:0:0:0:
192,192,20493,128,0,20532:0:0:0:0:
64,192,20493,1,0,0:0:0:0:
192,192,20651,128,0,20690:0:0:0:0:
448,192,20651,1,0,0:0:0:0:
320,192,20809,128,0,20888:0:0:0:0:
64,192,20809,1,0,0:0:0:0:
320,192,20967,128,0,21006:0:0:0:0:
192,192,20967,1,0,0:0:0:0:
320,192,21125,128,0,21164:0:0:0:0:
448,192,21125,1,0,0:0:0:0:
192,192,21282,128,0,21361:0:0:0:0:
64,192,21282,1,0,0:0:0:0:
192,192,21440,128,0,21480:0:0:0:0:
320,192,21440,1,0,0:0:0:0:
192,192,21598,128,0,21638:0:0:0:0:
448,192,21598,1,0,0:0:0:0:
448,192,21756,128,0,21835:0:0:0:0:
64,192,21756,1,0,0:0:0:0:
448,192,21914,128,0,21953:0:0:0:0:
192,192,21914,1,0,0:0:0:0:
448,192,22072,128,0,22111:0:0:0:0:
320,192,22072,1,0,0:0:0:0:
192,192,22230,128,0,22309:0:0:0:0:
64,192,22230,1,0,0:0:0:0:
192,192,22388,128,0,22427:0:0:0:0:
320,192,22388,1,0,0:0:0:0:
64,192,22546,128,0,22625:0:0:0:0:
448,192,22546,1,0,0:0:0:0:
64,192,22703,128,0,22743:0:0:0:0:
320,192,22703,1,0,0:0:0:0:
192,192,22861,128,0,22940:0:0:0:0:
64,192,22861,1,0,0:0:0:0:
192,192,23019,128,0,23059:0:0:0:0:
320,192,23019,1,0,0:0:0:0:
192,192,23177,128,0,23217:0:0:0:0:
448,192,23177,1,0,0:0:0:0:
192,192,23335,128,0,23375:0:0:0:0:
64,192,23335,1,0,0:0:0:0:
192,192,23493,128,0,23532:0:0:0:0:
320,192,23493,1,0,0:0:0:0:
192,192,23651,128,0,23690:0:0:0:0:
448,192,23651,1,0,0:0:0:0:
192,192,23809,128,0,23848:0:0:0:0:
64,192,23809,1,0,0:0:0:0:
192,192,23967,128,0,24006:0:0:0:0:
320,192,23967,1,0,0:0:0:0:
448,192,24125,1,0,0:0:0:0:
192,192,24125,128,0,24164:0:0:0:0:
64,192,24282,1,0,0:0:0:0:
192,192,24282,128,0,24322:0:0:0:0:
192,192,24440,128,0,24480:0:0:0:0:
320,192,24440,1,0,0:0:0:0:
448,192,24598,1,0,0:0:0:0:
192,192,24598,128,0,24638:0:0:0:0:
64,192,24756,1,0,0:0:0:0:
192,192,24914,1,0,0:0:0:0:
448,192,25072,1,0,0:0:0:0:
320,192,25230,1,0,0:0:0:0:
64,192,25388,128,0,25467:0:0:0:0:
192,192,25388,1,0,0:0:0:0:
64,192,25546,128,0,25585:0:0:0:0:
320,192,25546,1,0,0:0:0:0:
64,192,25703,128,0,25743:0:0:0:0:
448,192,25703,1,0,0:0:0:0:
192,192,25861,128,0,25940:0:0:0:0:
64,192,25861,1,0,0:0:0:0:
192,192,26019,128,0,26059:0:0:0:0:
320,192,26019,1,0,0:0:0:0:
192,192,26177,128,0,26217:0:0:0:0:
448,192,26177,1,0,0:0:0:0:
64,192,26335,128,0,26414:0:0:0:0:
192,192,26335,1,0,0:0:0:0:
64,192,26493,128,0,26532:0:0:0:0:
320,192,26493,1,0,0:0:0:0:
64,192,26651,128,0,26690:0:0:0:0:
448,192,26651,1,0,0:0:0:0:
192,192,26809,128,0,26888:0:0:0:0:
64,192,26809,1,0,0:0:0:0:
192,192,26967,128,0,27006:0:0:0:0:
320,192,26967,1,0,0:0:0:0:
192,192,27125,128,0,27164:0:0:0:0:
448,192,27125,1,0,0:0:0:0:
320,192,27282,128,0,27361:0:0:0:0:
64,192,27282,1,0,0:0:0:0:
320,192,27440,128,0,27480:0:0:0:0:
192,192,27440,1,0,0:0:0:0:
448,192,27598,128,0,27677:0:0:0:0:
320,192,27598,1,0,0:0:0:0:
448,192,27756,128,0,27796:0:0:0:0:
192,192,27756,1,0,0:0:0:0:
320,192,27914,128,0,27993:0:0:0:0:
64,192,27914,1,0,0:0:0:0:
320,192,28072,128,0,28111:0:0:0:0:
192,192,28072,1,0,0:0:0:0:
320,192,28230,128,0,28269:0:0:0:0:
448,192,28230,1,0,0:0:0:0:
448,192,28388,128,0,28467:0:0:0:0:
64,192,28388,1,0,0:0:0:0:
448,192,28546,128,0,28585:0:0:0:0:
192,192,28546,1,0,0:0:0:0:
448,192,28703,128,0,28743:0:0:0:0:
320,192,28703,1,0,0:0:0:0:
320,192,28861,128,0,28940:0:0:0:0:
64,192,28861,1,0,0:0:0:0:
320,192,29019,128,0,29059:0:0:0:0:
192,192,29019,1,0,0:0:0:0:
320,192,29177,128,0,29217:0:0:0:0:
448,192,29177,1,0,0:0:0:0:
192,192,29335,128,0,29414:0:0:0:0:
64,192,29335,1,0,0:0:0:0:
192,192,29493,128,0,29532:0:0:0:0:
320,192,29493,1,0,0:0:0:0:
192,192,29651,128,0,29690:0:0:0:0:
448,192,29651,1,0,0:0:0:0:
320,192,29809,128,0,29888:0:0:0:0:
64,192,29809,1,0,0:0:0:0:
64,192,29967,128,0,30046:0:0:0:0:
320,192,29967,1,0,0:0:0:0:
192,192,30125,128,0,30203:0:0:0:0:
448,192,30125,1,0,0:0:0:0:
64,192,30282,128,0,30361:0:0:0:0:
320,192,30282,1,0,0:0:0:0:
320,192,30440,1,0,0:0:0:0:
192,192,30440,128,0,30519:0:0:0:0:
64,192,30598,1,0,0:0:0:0:
192,192,30598,128,0,30638:0:0:0:0:
448,192,30756,1,0,0:0:0:0:
192,192,30756,128,0,30796:0:0:0:0:
64,192,30914,1,0,0:0:0:0:
320,192,30914,128,0,30993:0:0:0:0:
192,192,31072,1,0,0:0:0:0:
320,192,31072,128,0,31111:0:0:0:0:
448,192,31230,1,0,0:0:0:0:
320,192,31230,128,0,31269:0:0:0:0:
64,192,31388,1,0,0:0:0:0:
192,192,31388,128,0,31467:0:0:0:0:
320,192,31546,1,0,0:0:0:0:
192,192,31546,128,0,31585:0:0:0:0:
448,192,31703,1,0,0:0:0:0:
192,192,31703,128,0,31743:0:0:0:0:
64,192,31861,1,0,0:0:0:0:
448,192,31861,128,0,31940:0:0:0:0:
192,192,32019,1,0,0:0:0:0:
448,192,32019,128,0,32059:0:0:0:0:
320,192,32177,1,0,0:0:0:0:
448,192,32177,128,0,32217:0:0:0:0:
64,192,32335,1,0,0:0:0:0:
192,192,32335,128,0,32414:0:0:0:0:
320,192,32493,1,0,0:0:0:0:
192,192,32493,128,0,32532:0:0:0:0:
448,192,32651,1,0,0:0:0:0:
64,192,32651,128,0,32730:0:0:0:0:
320,192,32809,1,0,0:0:0:0:
64,192,32809,128,0,32848:0:0:0:0:
64,192,32967,1,0,0:0:0:0:
192,192,32967,128,0,33046:0:0:0:0:
320,192,33125,1,0,0:0:0:0:
192,192,33125,128,0,33164:0:0:0:0:
448,192,33282,1,0,0:0:0:0:
192,192,33282,128,0,33322:0:0:0:0:
64,192,33440,1,0,0:0:0:0:
192,192,33440,128,0,33480:0:0:0:0:
320,192,33598,1,0,0:0:0:0:
192,192,33598,128,0,33638:0:0:0:0:
448,192,33756,1,0,0:0:0:0:
192,192,33756,128,0,33796:0:0:0:0:
64,192,33914,1,0,0:0:0:0:
192,192,33914,128,0,33953:0:0:0:0:
320,192,34072,1,0,0:0:0:0:
192,192,34072,128,0,34111:0:0:0:0:
448,192,34230,1,0,0:0:0:0:
192,192,34230,128,0,34269:0:0:0:0:
64,192,34388,1,0,0:0:0:0:
192,192,34388,128,0,34427:0:0:0:0:
320,192,34546,1,0,0:0:0:0:
192,192,34546,128,0,34585:0:0:0:0:
448,192,34703,1,0,0:0:0:0:
192,192,34703,128,0,34743:0:0:0:0:
64,192,34861,1,0,0:0:0:0:
192,192,35019,1,0,0:0:0:0:
448,192,35177,1,0,0:0:0:0:
320,192,35335,1,0,0:0:0:0:
192,192,35493,1,0,0:0:0:0:
64,192,35493,128,0,35572:0:0:0:0:
320,192,35651,1,0,0:0:0:0:
64,192,35651,128,0,35690:0:0:0:0:
448,192,35809,1,0,0:0:0:0:
64,192,35809,128,0,35848:0:0:0:0:
64,192,35967,1,0,0:0:0:0:
192,192,35967,128,0,36046:0:0:0:0:
320,192,36125,1,0,0:0:0:0:
192,192,36125,128,0,36164:0:0:0:0:
448,192,36282,1,0,0:0:0:0:
192,192,36282,128,0,36322:0:0:0:0:
192,192,36440,1,0,0:0:0:0:
64,192,36440,128,0,36519:0:0:0:0:
320,192,36598,1,0,0:0:0:0:
64,192,36598,128,0,36638:0:0:0:0:
448,192,36756,1,0,0:0:0:0:
64,192,36756,128,0,36796:0:0:0:0:
64,192,36914,1,0,0:0:0:0:
192,192,36914,128,0,36993:0:0:0:0:
320,192,37072,1,0,0:0:0:0:
192,192,37072,128,0,37111:0:0:0:0:
448,192,37230,1,0,0:0:0:0:
192,192,37230,128,0,37269:0:0:0:0:
64,192,37388,1,0,0:0:0:0:
320,192,37388,128,0,37467:0:0:0:0:
192,192,37546,1,0,0:0:0:0:
320,192,37546,128,0,37585:0:0:0:0:
320,192,37703,1,0,0:0:0:0:
448,192,37703,128,0,37782:0:0:0:0:
192,192,37861,1,0,0:0:0:0:
448,192,37861,128,0,37901:0:0:0:0:
64,192,38019,1,0,0:0:0:0:
320,192,38019,128,0,38098:0:0:0:0:
192,192,38177,1,0,0:0:0:0:
320,192,38177,128,0,38217:0:0:0:0:
448,192,38335,1,0,0:0:0:0:
320,192,38335,128,0,38375:0:0:0:0:
64,192,38493,1,0,0:0:0:0:
448,192,38493,128,0,38572:0:0:0:0:
192,192,38651,1,0,0:0:0:0:
448,192,38651,128,0,38690:0:0:0:0:
320,192,38809,1,0,0:0:0:0:
448,192,38809,128,0,38848:0:0:0:0:
64,192,38967,1,0,0:0:0:0:
320,192,38967,128,0,39046:0:0:0:0:
192,192,39125,1,0,0:0:0:0:
320,192,39125,128,0,39164:0:0:0:0:
448,192,39282,1,0,0:0:0:0:
320,192,39282,128,0,39322:0:0:0:0:
64,192,39440,1,0,0:0:0:0:
192,192,39440,128,0,39519:0:0:0:0:
320,192,39598,1,0,0:0:0:0:
192,192,39598,128,0,39638:0:0:0:0:
448,192,39756,1,0,0:0:0:0:
192,192,39756,128,0,39796:0:0:0:0:
64,192,39914,1,0,0:0:0:0:
320,192,39914,128,0,39993:0:0:0:0:
320,192,40072,1,0,0:0:0:0:
64,192,40072,128,0,40151:0:0:0:0:
448,192,40230,1,0,0:0:0:0:
192,192,40230,128,0,40309:0:0:0:0:
320,192,40388,1,0,0:0:0:0:
64,192,40388,128,0,40467:0:0:0:0:
320,192,40546,1,0,0:0:0:0:
448,192,40546,1,0,0:0:0:0:
192,192,40546,1,0,0:0:0:0:
192,192,40703,1,0,0:0:0:0:
448,192,40861,1,0,0:0:0:0:
64,192,41019,1,0,0:0:0:0:
192,192,41177,1,0,0:0:0:0:
448,192,41335,1,0,0:0:0:0:
64,192,41493,1,0,0:0:0:0:
192,192,41493,1,0,0:0:0:0:
320,192,41493,1,0,0:0:0:0:
192,192,41651,1,0,0:0:0:0:
448,192,41809,1,0,0:0:0:0:
64,192,41967,1,0,0:0:0:0:
192,192,42125,1,0,0:0:0:0:
320,192,42125,1,0,0:0:0:0:
448,192,42125,1,0,0:0:0:0:
448,192,42282,1,0,0:0:0:0:
64,192,42440,1,0,0:0:0:0:
192,192,42598,1,0,0:0:0:0:
448,192,42756,1,0,0:0:0:0:
320,192,42914,1,0,0:0:0:0:
64,192,43072,1,0,0:0:0:0:
192,192,43072,1,0,0:0:0:0:
448,192,43072,1,0,0:0:0:0:
192,192,43230,1,0,0:0:0:0:
448,192,43388,1,0,0:0:0:0:
64,192,43546,1,0,0:0:0:0:
192,192,43703,1,0,0:0:0:0:
448,192,43861,1,0,0:0:0:0:
64,192,44019,1,0,0:0:0:0:
320,192,44019,1,0,0:0:0:0:
192,192,44019,1,0,0:0:0:0:
192,192,44177,1,0,0:0:0:0:
448,192,44335,1,0,0:0:0:0:
64,192,44493,1,0,0:0:0:0:
192,192,44651,1,0,0:0:0:0:
320,192,44651,1,0,0:0:0:0:
448,192,44651,1,0,0:0:0:0:
448,192,44809,1,0,0:0:0:0:
64,192,44967,1,0,0:0:0:0:
192,192,45125,1,0,0:0:0:0:
448,192,45282,1,0,0:0:0:0:
320,192,45440,1,0,0:0:0:0:
64,192,45598,1,0,0:0:0:0:
192,192,45598,1,0,0:0:0:0:
448,192,45598,1,0,0:0:0:0:
192,192,45756,1,0,0:0:0:0:
448,192,45914,1,0,0:0:0:0:
64,192,46072,1,0,0:0:0:0:
192,192,46230,1,0,0:0:0:0:
448,192,46388,1,0,0:0:0:0:
64,192,46546,1,0,0:0:0:0:
320,192,46546,1,0,0:0:0:0:
192,192,46546,1,0,0:0:0:0:
192,192,46703,1,0,0:0:0:0:
448,192,46861,1,0,0:0:0:0:
64,192,47019,1,0,0:0:0:0:
192,192,47177,1,0,0:0:0:0:
320,192,47177,1,0,0:0:0:0:
448,192,47177,1,0,0:0:0:0:
448,192,47335,1,0,0:0:0:0:
64,192,47493,1,0,0:0:0:0:
192,192,47651,1,0,0:0:0:0:
448,192,47809,1,0,0:0:0:0:
320,192,47967,1,0,0:0:0:0:
64,192,48125,1,0,0:0:0:0:
192,192,48125,1,0,0:0:0:0:
448,192,48125,1,0,0:0:0:0:
192,192,48282,1,0,0:0:0:0:
448,192,48440,1,0,0:0:0:0:
64,192,48598,1,0,0:0:0:0:
192,192,48756,1,0,0:0:0:0:
448,192,48914,1,0,0:0:0:0:
64,192,49072,1,0,0:0:0:0:
192,192,49072,1,0,0:0:0:0:
320,192,49072,1,0,0:0:0:0:
192,192,49230,1,0,0:0:0:0:
448,192,49388,1,0,0:0:0:0:
64,192,49546,1,0,0:0:0:0:
192,192,49703,1,0,0:0:0:0:
320,192,49703,1,0,0:0:0:0:
448,192,49703,1,0,0:0:0:0:
448,192,49861,1,0,0:0:0:0:
64,192,50019,1,0,0:0:0:0:
192,192,50177,1,0,0:0:0:0:
448,192,50335,1,0,0:0:0:0:
192,192,50493,1,0,0:0:0:0:
64,192,50651,128,0,50809:0:0:0:0:
320,192,50651,1,0,0:0:0:0:
320,192,50809,1,0,0:0:0:0:
448,192,50967,128,0,51125:0:0:0:0:
192,192,50967,1,0,0:0:0:0:
192,192,51125,1,0,0:0:0:0:
64,192,51282,128,0,51440:0:0:0:0:
320,192,51282,1,0,0:0:0:0:
448,192,51440,1,0,0:0:0:0:
320,192,51598,128,0,51756:0:0:0:0:
192,192,51598,1,0,0:0:0:0:
64,192,51756,1,0,0:0:0:0:
320,192,51914,1,0,0:0:0:0:
64,192,51914,128,0,52072:0:0:0:0:
320,192,52072,1,0,0:0:0:0:
192,192,52230,1,0,0:0:0:0:
448,192,52230,128,0,52388:0:0:0:0:
192,192,52388,1,0,0:0:0:0:
320,192,52546,1,0,0:0:0:0:
64,192,52546,128,0,52703:0:0:0:0:
448,192,52703,1,0,0:0:0:0:
192,192,52861,1,0,0:0:0:0:
320,192,52861,128,0,53019:0:0:0:0:
64,192,53019,1,0,0:0:0:0:
64,192,53177,128,0,53335:0:0:0:0:
320,192,53177,1,0,0:0:0:0:
320,192,53335,1,0,0:0:0:0:
448,192,53493,128,0,53651:0:0:0:0:
192,192,53493,1,0,0:0:0:0:
192,192,53651,1,0,0:0:0:0:
64,192,53809,128,0,53967:0:0:0:0:
320,192,53809,1,0,0:0:0:0:
448,192,53967,1,0,0:0:0:0:
320,192,54125,128,0,54282:0:0:0:0:
192,192,54125,1,0,0:0:0:0:
64,192,54282,1,0,0:0:0:0:
64,192,54440,128,0,54598:0:0:0:0:
320,192,54440,1,0,0:0:0:0:
320,192,54598,1,0,0:0:0:0:
448,192,54756,128,0,54914:0:0:0:0:
192,192,54756,1,0,0:0:0:0:
192,192,54914,1,0,0:0:0:0:
64,192,55072,128,0,55230:0:0:0:0:
320,192,55072,1,0,0:0:0:0:
448,192,55230,1,0,0:0:0:0:
320,192,55388,128,0,55546:0:0:0:0:
192,192,55388,1,0,0:0:0:0:
64,192,55546,1,0,0:0:0:0:
192,192,55703,1,0,0:0:0:0:
64,192,55703,128,0,55782:0:0:0:0:
192,192,55861,5,0,0:0:0:0:
448,192,55861,1,0,0:0:0:0:
320,192,56019,1,0,0:0:0:0:
448,192,56019,128,0,56098:0:0:0:0:
320,192,56177,1,0,0:0:0:0:
64,192,56177,1,0,0:0:0:0:
64,192,56335,1,0,0:0:0:0:
192,192,56335,128,0,56414:0:0:0:0:
448,192,56493,1,0,0:0:0:0:
320,192,56493,1,0,0:0:0:0:
448,192,56651,1,0,0:0:0:0:
192,192,56651,128,0,56730:0:0:0:0:
64,192,56809,1,0,0:0:0:0:
320,192,56809,1,0,0:0:0:0:
192,192,56967,5,0,0:0:0:0:
64,192,56967,128,0,57006:0:0:0:0:
448,192,57046,1,0,0:0:0:0:
320,192,57046,1,0,0:0:0:0:
192,192,57125,1,0,0:0:0:0:
64,192,57125,128,0,57164:0:0:0:0:
320,192,57203,1,0,0:0:0:0:
448,192,57203,1,0,0:0:0:0:
64,192,57282,1,0,0:0:0:0:
192,192,57282,128,0,57322:0:0:0:0:
448,192,57361,1,0,0:0:0:0:
320,192,57361,1,0,0:0:0:0:
64,192,57440,1,0,0:0:0:0:
192,192,57440,128,0,57480:0:0:0:0:
320,192,57519,1,0,0:0:0:0:
448,192,57519,1,0,0:0:0:0:
448,192,57598,1,0,0:0:0:0:
320,192,57598,128,0,57638:0:0:0:0:
64,192,57677,1,0,0:0:0:0:
192,192,57677,1,0,0:0:0:0:
448,192,57756,1,0,0:0:0:0:
320,192,57756,128,0,57796:0:0:0:0:
64,192,57835,1,0,0:0:0:0:
192,192,57835,1,0,0:0:0:0:
320,192,57914,1,0,0:0:0:0:
448,192,57914,128,0,57953:0:0:0:0:
192,192,57993,1,0,0:0:0:0:
64,192,57993,1,0,0:0:0:0:
320,192,58072,1,0,0:0:0:0:
448,192,58072,128,0,58111:0:0:0:0:
192,192,58151,1,0,0:0:0:0:
64,192,58151,1,0,0:0:0:0:
448,192,58230,1,0,0:0:0:0:
320,192,58230,1,0,0:0:0:0:
192,192,58388,128,0,58467:0:0:0:0:
192,192,58861,128,0,58940:0:0:0:0:
192,192,59019,128,0,59098:0:0:0:0:
192,192,59177,128,0,59256:0:0:0:0:
192,192,59335,128,0,59414:0:0:0:0:
192,192,59493,128,0,59532:0:0:0:0:
320,192,59572,128,0,59611:0:0:0:0:
192,192,59651,128,0,59690:0:0:0:0:
320,192,59730,128,0,59769:0:0:0:0:
192,192,59809,128,0,59848:0:0:0:0:
320,192,59888,128,0,59927:0:0:0:0:
192,192,59967,128,0,60006:0:0:0:0:
320,192,60046,128,0,60085:0:0:0:0:
192,192,60125,1,0,0:0:0:0:
448,192,60125,1,0,0:0:0:0:
64,192,60125,1,0,0:0:0:0:
320,192,60440,1,0,0:0:0:0:
192,192,60440,128,0,60756:0:0:0:0:
64,192,60440,128,0,60756:0:0:0:0:
448,192,60756,128,0,61151:0:0:0:0:
320,192,60914,128,0,61230:0:0:0:0:
192,192,61032,128,0,61309:0:0:0:0:
64,192,61111,128,0,61348:0:0:0:0:
448,192,61190,128,0,61388:0:0:0:0:
320,192,61269,128,0,61388:0:0:0:0:
192,192,61348,128,0,61388:0:0:0:0:
64,192,61388,128,0,61467:0:0:0:0:
64,192,61546,1,0,0:0:0:0:
192,192,61703,128,0,61743:0:0:0:0:
448,192,61703,128,0,61822:0:0:0:0:
320,192,61703,128,0,61782:0:0:0:0:
192,192,61861,1,0,0:0:0:0:
64,192,61861,1,0,0:0:0:0:
448,192,62019,128,0,62138:0:0:0:0:
320,192,62019,128,0,62098:0:0:0:0:
192,192,62019,128,0,62059:0:0:0:0:
320,192,62177,128,0,62217:0:0:0:0:
192,192,62177,128,0,62256:0:0:0:0:
64,192,62177,128,0,62296:0:0:0:0:
320,192,62335,128,0,62414:0:0:0:0:
192,192,62335,128,0,62375:0:0:0:0:
448,192,62335,128,0,62453:0:0:0:0:
64,192,62493,128,0,62611:0:0:0:0:
320,192,62493,128,0,62532:0:0:0:0:
192,192,62493,128,0,62572:0:0:0:0:
320,192,62651,1,0,0:0:0:0:
448,192,62651,1,0,0:0:0:0:
192,192,62809,1,0,0:0:0:0:
192,192,62888,1,0,0:0:0:0:
320,192,62967,1,0,0:0:0:0:
192,192,63125,1,0,0:0:0:0:
448,192,63203,1,0,0:0:0:0:
448,192,63282,128,0,63677:0:0:0:0:
320,192,63440,128,0,63756:0:0:0:0:
192,192,63559,128,0,63835:0:0:0:0:
64,192,63638,128,0,63875:0:0:0:0:
448,192,63717,128,0,63914:0:0:0:0:
320,192,63796,128,0,63914:0:0:0:0:
192,192,63875,128,0,63914:0:0:0:0:
64,192,63914,128,0,63993:0:0:0:0:
64,192,64072,1,0,0:0:0:0:
192,192,64230,128,0,64269:0:0:0:0:
448,192,64230,128,0,64348:0:0:0:0:
320,192,64230,128,0,64309:0:0:0:0:
192,192,64388,1,0,0:0:0:0:
64,192,64388,1,0,0:0:0:0:
448,192,64546,128,0,64664:0:0:0:0:
320,192,64546,128,0,64625:0:0:0:0:
192,192,64546,128,0,64585:0:0:0:0:
320,192,64703,128,0,64743:0:0:0:0:
192,192,64703,128,0,64782:0:0:0:0:
64,192,64703,128,0,64822:0:0:0:0:
320,192,64861,128,0,64940:0:0:0:0:
192,192,64861,128,0,64901:0:0:0:0:
448,192,64861,128,0,64980:0:0:0:0:
64,192,65019,128,0,65138:0:0:0:0:
320,192,65019,128,0,65059:0:0:0:0:
192,192,65019,128,0,65098:0:0:0:0:
320,192,65177,1,0,0:0:0:0:
448,192,65177,1,0,0:0:0:0:
192,192,65335,128,0,65414:0:0:0:0:
192,192,65651,128,0,65730:0:0:0:0:
64,192,65730,1,0,0:0:0:0:
448,192,65809,128,0,66203:0:0:0:0:
320,192,65967,128,0,66282:0:0:0:0:
192,192,66085,128,0,66361:0:0:0:0:
64,192,66164,128,0,66401:0:0:0:0:
448,192,66243,128,0,66440:0:0:0:0:
320,192,66322,128,0,66440:0:0:0:0:
192,192,66401,128,0,66440:0:0:0:0:
64,192,66440,128,0,66519:0:0:0:0:
64,192,66598,1,0,0:0:0:0:
192,192,66756,128,0,66796:0:0:0:0:
448,192,66756,128,0,66875:0:0:0:0:
320,192,66756,128,0,66835:0:0:0:0:
192,192,66914,1,0,0:0:0:0:
64,192,66914,1,0,0:0:0:0:
448,192,67072,128,0,67190:0:0:0:0:
320,192,67072,128,0,67151:0:0:0:0:
192,192,67072,128,0,67111:0:0:0:0:
320,192,67230,128,0,67269:0:0:0:0:
192,192,67230,128,0,67309:0:0:0:0:
64,192,67230,128,0,67348:0:0:0:0:
320,192,67388,128,0,67467:0:0:0:0:
192,192,67388,128,0,67427:0:0:0:0:
448,192,67388,128,0,67506:0:0:0:0:
64,192,67546,128,0,67664:0:0:0:0:
320,192,67546,128,0,67585:0:0:0:0:
192,192,67546,128,0,67625:0:0:0:0:
320,192,67703,1,0,0:0:0:0:
448,192,67703,1,0,0:0:0:0:
192,192,67861,1,0,0:0:0:0:
192,192,67940,1,0,0:0:0:0:
320,192,68019,1,0,0:0:0:0:
192,192,68177,1,0,0:0:0:0:
448,192,68256,1,0,0:0:0:0:
448,192,68335,128,0,68730:0:0:0:0:
320,192,68493,128,0,68809:0:0:0:0:
192,192,68611,128,0,68888:0:0:0:0:
64,192,68690,128,0,68927:0:0:0:0:
448,192,68769,128,0,68967:0:0:0:0:
320,192,68848,128,0,68967:0:0:0:0:
192,192,68927,128,0,68967:0:0:0:0:
64,192,68967,128,0,69046:0:0:0:0:
64,192,69125,1,0,0:0:0:0:
192,192,69282,128,0,69322:0:0:0:0:
448,192,69282,128,0,69401:0:0:0:0:
320,192,69282,128,0,69361:0:0:0:0:
192,192,69440,1,0,0:0:0:0:
64,192,69440,1,0,0:0:0:0:
448,192,69598,128,0,69717:0:0:0:0:
320,192,69598,128,0,69677:0:0:0:0:
192,192,69598,128,0,69638:0:0:0:0:
320,192,69756,128,0,69796:0:0:0:0:
192,192,69756,128,0,69835:0:0:0:0:
64,192,69756,128,0,69875:0:0:0:0:
320,192,69914,128,0,69993:0:0:0:0:
192,192,69914,128,0,69953:0:0:0:0:
448,192,69914,128,0,70032:0:0:0:0:
64,192,70072,128,0,70190:0:0:0:0:
320,192,70072,128,0,70111:0:0:0:0:
192,192,70072,128,0,70151:0:0:0:0:
320,192,70230,1,0,0:0:0:0:
448,192,70230,128,0,70546:0:0:0:0:
64,192,70388,1,0,0:0:0:0:
192,192,70546,128,0,70861:0:0:0:0:
320,192,70703,1,0,0:0:0:0:
448,192,70782,1,0,0:0:0:0:
64,192,70861,128,0,71256:0:0:0:0:
192,192,71019,128,0,71335:0:0:0:0:
320,192,71138,128,0,71414:0:0:0:0:
448,192,71217,128,0,71453:0:0:0:0:
64,192,71296,128,0,71493:0:0:0:0:
192,192,71375,128,0,71493:0:0:0:0:
320,192,71453,128,0,71493:0:0:0:0:
448,192,71493,128,0,71572:0:0:0:0:
448,192,71651,1,0,0:0:0:0:
320,192,71809,128,0,71888:0:0:0:0:
448,192,71809,128,0,71927:0:0:0:0:
192,192,71809,128,0,71848:0:0:0:0:
64,192,71967,1,0,0:0:0:0:
192,192,71967,1,0,0:0:0:0:
192,192,72125,128,0,72164:0:0:0:0:
320,192,72125,128,0,72203:0:0:0:0:
448,192,72125,128,0,72243:0:0:0:0:
64,192,72282,128,0,72401:0:0:0:0:
192,192,72282,128,0,72361:0:0:0:0:
320,192,72282,128,0,72322:0:0:0:0:
448,192,72440,128,0,72559:0:0:0:0:
192,192,72440,128,0,72480:0:0:0:0:
320,192,72440,128,0,72519:0:0:0:0:
192,192,72598,128,0,72677:0:0:0:0:
320,192,72598,128,0,72638:0:0:0:0:
64,192,72598,128,0,72717:0:0:0:0:
448,192,72756,1,0,0:0:0:0:
320,192,72756,1,0,0:0:0:0:
192,192,72914,1,0,0:0:0:0:
192,192,72993,1,0,0:0:0:0:
320,192,73072,1,0,0:0:0:0:
192,192,73230,1,0,0:0:0:0:
448,192,73309,1,0,0:0:0:0:
448,192,73388,128,0,73782:0:0:0:0:
320,192,73546,128,0,73861:0:0:0:0:
192,192,73664,128,0,73940:0:0:0:0:
64,192,73743,128,0,73980:0:0:0:0:
448,192,73822,128,0,74019:0:0:0:0:
320,192,73901,128,0,74019:0:0:0:0:
192,192,73980,128,0,74019:0:0:0:0:
64,192,74019,128,0,74098:0:0:0:0:
64,192,74177,1,0,0:0:0:0:
320,192,74335,128,0,74414:0:0:0:0:
448,192,74335,128,0,74453:0:0:0:0:
192,192,74335,128,0,74375:0:0:0:0:
64,192,74493,1,0,0:0:0:0:
192,192,74493,1,0,0:0:0:0:
192,192,74651,128,0,74690:0:0:0:0:
320,192,74651,128,0,74730:0:0:0:0:
448,192,74651,128,0,74769:0:0:0:0:
64,192,74809,128,0,74927:0:0:0:0:
192,192,74809,128,0,74888:0:0:0:0:
320,192,74809,128,0,74848:0:0:0:0:
448,192,74967,128,0,75085:0:0:0:0:
192,192,74967,128,0,75006:0:0:0:0:
320,192,74967,128,0,75046:0:0:0:0:
192,192,75125,128,0,75203:0:0:0:0:
320,192,75125,128,0,75164:0:0:0:0:
64,192,75125,128,0,75243:0:0:0:0:
448,192,75282,1,0,0:0:0:0:
320,192,75282,1,0,0:0:0:0:
192,192,75440,128,0,75519:0:0:0:0:
192,192,75756,128,0,75835:0:0:0:0:
64,192,75835,1,0,0:0:0:0:
320,192,75914,128,0,76032:0:0:0:0:
320,192,76072,128,0,76151:0:0:0:0:
64,192,76151,1,0,0:0:0:0:
320,192,76230,128,0,76269:0:0:0:0:
448,192,76388,128,0,76506:0:0:0:0:
192,192,76388,1,0,0:0:0:0:
448,192,76546,128,0,76625:0:0:0:0:
192,192,76546,1,0,0:0:0:0:
64,192,76546,1,0,0:0:0:0:
448,192,76703,128,0,76743:0:0:0:0:
64,192,76703,1,0,0:0:0:0:
192,192,76861,128,0,76980:0:0:0:0:
320,192,76861,1,0,0:0:0:0:
192,192,77019,128,0,77098:0:0:0:0:
448,192,77098,1,0,0:0:0:0:
192,192,77177,128,0,77217:0:0:0:0:
320,192,77335,128,0,77453:0:0:0:0:
64,192,77414,1,0,0:0:0:0:
320,192,77493,128,0,77572:0:0:0:0:
192,192,77493,1,0,0:0:0:0:
320,192,77651,128,0,77690:0:0:0:0:
64,192,77651,1,0,0:0:0:0:
192,192,77809,128,0,77927:0:0:0:0:
64,192,77809,1,0,0:0:0:0:
448,192,77809,1,0,0:0:0:0:
192,192,77967,128,0,78046:0:0:0:0:
448,192,77967,1,0,0:0:0:0:
448,192,78125,128,0,78243:0:0:0:0:
448,192,78282,128,0,78361:0:0:0:0:
64,192,78282,1,0,0:0:0:0:
192,192,78361,1,0,0:0:0:0:
320,192,78440,128,0,78559:0:0:0:0:
320,192,78598,128,0,78677:0:0:0:0:
64,192,78677,1,0,0:0:0:0:
320,192,78756,128,0,78796:0:0:0:0:
192,192,78756,1,0,0:0:0:0:
448,192,78914,128,0,79032:0:0:0:0:
448,192,79072,128,0,79151:0:0:0:0:
192,192,79072,1,0,0:0:0:0:
64,192,79072,1,0,0:0:0:0:
448,192,79230,128,0,79269:0:0:0:0:
192,192,79388,128,0,79506:0:0:0:0:
320,192,79388,1,0,0:0:0:0:
192,192,79546,128,0,79625:0:0:0:0:
448,192,79625,1,0,0:0:0:0:
192,192,79703,128,0,79743:0:0:0:0:
64,192,79861,128,0,79980:0:0:0:0:
192,192,79940,1,0,0:0:0:0:
64,192,80019,128,0,80098:0:0:0:0:
320,192,80019,1,0,0:0:0:0:
448,192,80019,1,0,0:0:0:0:
64,192,80177,128,0,80217:0:0:0:0:
320,192,80177,1,0,0:0:0:0:
192,192,80335,1,0,0:0:0:0:
448,192,80335,1,0,0:0:0:0:
320,192,80335,1,0,0:0:0:0:
448,192,80493,1,0,0:0:0:0:
192,192,80651,1,0,0:0:0:0:
64,192,80651,1,0,0:0:0:0:
192,192,80809,1,0,0:0:0:0:
64,192,80888,1,0,0:0:0:0:
448,192,80967,128,0,81361:0:0:0:0:
320,192,81125,128,0,81440:0:0:0:0:
192,192,81243,128,0,81519:0:0:0:0:
64,192,81322,128,0,81559:0:0:0:0:
448,192,81401,128,0,81598:0:0:0:0:
320,192,81480,128,0,81598:0:0:0:0:
192,192,81559,128,0,81598:0:0:0:0:
64,192,81598,128,0,81677:0:0:0:0:
64,192,81756,1,0,0:0:0:0:
192,192,81914,128,0,81953:0:0:0:0:
448,192,81914,128,0,82032:0:0:0:0:
320,192,81914,128,0,81993:0:0:0:0:
192,192,82072,1,0,0:0:0:0:
64,192,82072,1,0,0:0:0:0:
448,192,82230,128,0,82348:0:0:0:0:
320,192,82230,128,0,82309:0:0:0:0:
192,192,82230,128,0,82269:0:0:0:0:
320,192,82388,128,0,82427:0:0:0:0:
192,192,82388,128,0,82467:0:0:0:0:
64,192,82388,128,0,82506:0:0:0:0:
320,192,82546,128,0,82625:0:0:0:0:
192,192,82546,128,0,82585:0:0:0:0:
448,192,82546,128,0,82664:0:0:0:0:
64,192,82703,128,0,82822:0:0:0:0:
320,192,82703,128,0,82743:0:0:0:0:
192,192,82703,128,0,82782:0:0:0:0:
320,192,82861,1,0,0:0:0:0:
448,192,82861,1,0,0:0:0:0:
192,192,83019,1,0,0:0:0:0:
192,192,83098,1,0,0:0:0:0:
320,192,83177,1,0,0:0:0:0:
192,192,83335,1,0,0:0:0:0:
448,192,83414,1,0,0:0:0:0:
448,192,83493,128,0,83888:0:0:0:0:
320,192,83651,128,0,83967:0:0:0:0:
192,192,83769,128,0,84046:0:0:0:0:
64,192,83848,128,0,84085:0:0:0:0:
448,192,83927,128,0,84125:0:0:0:0:
320,192,84006,128,0,84125:0:0:0:0:
192,192,84085,128,0,84125:0:0:0:0:
64,192,84125,128,0,84203:0:0:0:0:
64,192,84282,1,0,0:0:0:0:
192,192,84440,128,0,84480:0:0:0:0:
448,192,84440,128,0,84559:0:0:0:0:
320,192,84440,128,0,84519:0:0:0:0:
192,192,84598,1,0,0:0:0:0:
64,192,84598,1,0,0:0:0:0:
448,192,84756,128,0,84875:0:0:0:0:
320,192,84756,128,0,84835:0:0:0:0:
192,192,84756,128,0,84796:0:0:0:0:
320,192,84914,128,0,84953:0:0:0:0:
192,192,84914,128,0,84993:0:0:0:0:
64,192,84914,128,0,85032:0:0:0:0:
320,192,85072,128,0,85151:0:0:0:0:
192,192,85072,128,0,85111:0:0:0:0:
448,192,85072,128,0,85190:0:0:0:0:
64,192,85230,128,0,85348:0:0:0:0:
320,192,85230,128,0,85269:0:0:0:0:
192,192,85230,128,0,85309:0:0:0:0:
320,192,85388,1,0,0:0:0:0:
448,192,85388,1,0,0:0:0:0:
192,192,85546,128,0,85625:0:0:0:0:
192,192,85861,128,0,85940:0:0:0:0:
64,192,85940,1,0,0:0:0:0:
448,192,86019,128,0,86414:0:0:0:0:
320,192,86177,128,0,86493:0:0:0:0:
192,192,86296,128,0,86572:0:0:0:0:
64,192,86375,128,0,86611:0:0:0:0:
448,192,86453,128,0,86651:0:0:0:0:
320,192,86532,128,0,86651:0:0:0:0:
192,192,86611,128,0,86651:0:0:0:0:
64,192,86651,128,0,86730:0:0:0:0:
64,192,86809,1,0,0:0:0:0:
192,192,86967,128,0,87006:0:0:0:0:
448,192,86967,128,0,87085:0:0:0:0:
320,192,86967,128,0,87046:0:0:0:0:
192,192,87125,1,0,0:0:0:0:
64,192,87125,1,0,0:0:0:0:
448,192,87282,128,0,87401:0:0:0:0:
320,192,87282,128,0,87361:0:0:0:0:
192,192,87282,128,0,87322:0:0:0:0:
320,192,87440,128,0,87480:0:0:0:0:
192,192,87440,128,0,87519:0:0:0:0:
64,192,87440,128,0,87559:0:0:0:0:
320,192,87598,128,0,87677:0:0:0:0:
192,192,87598,128,0,87638:0:0:0:0:
448,192,87598,128,0,87717:0:0:0:0:
64,192,87756,128,0,87875:0:0:0:0:
320,192,87756,128,0,87796:0:0:0:0:
192,192,87756,128,0,87835:0:0:0:0:
320,192,87914,1,0,0:0:0:0:
448,192,87914,1,0,0:0:0:0:
192,192,88072,1,0,0:0:0:0:
192,192,88151,1,0,0:0:0:0:
320,192,88230,1,0,0:0:0:0:
192,192,88388,1,0,0:0:0:0:
448,192,88467,1,0,0:0:0:0:
448,192,88546,128,0,88940:0:0:0:0:
320,192,88703,128,0,89019:0:0:0:0:
192,192,88822,128,0,89098:0:0:0:0:
64,192,88901,128,0,89138:0:0:0:0:
448,192,88980,128,0,89177:0:0:0:0:
320,192,89059,128,0,89177:0:0:0:0:
192,192,89138,128,0,89177:0:0:0:0:
64,192,89177,128,0,89256:0:0:0:0:
64,192,89335,1,0,0:0:0:0:
192,192,89493,128,0,89532:0:0:0:0:
448,192,89493,128,0,89611:0:0:0:0:
320,192,89493,128,0,89572:0:0:0:0:
192,192,89651,1,0,0:0:0:0:
64,192,89651,1,0,0:0:0:0:
448,192,89809,128,0,89927:0:0:0:0:
320,192,89809,128,0,89888:0:0:0:0:
192,192,89809,128,0,89848:0:0:0:0:
320,192,89967,128,0,90006:0:0:0:0:
192,192,89967,128,0,90046:0:0:0:0:
64,192,89967,128,0,90085:0:0:0:0:
320,192,90125,128,0,90203:0:0:0:0:
192,192,90125,128,0,90164:0:0:0:0:
448,192,90125,128,0,90243:0:0:0:0:
64,192,90282,128,0,90401:0:0:0:0:
320,192,90282,128,0,90322:0:0:0:0:
192,192,90282,128,0,90361:0:0:0:0:
320,192,90440,1,0,0:0:0:0:
448,192,90440,128,0,90756:0:0:0:0:
64,192,90598,1,0,0:0:0:0:
192,192,90756,128,0,91072:0:0:0:0:
320,192,90914,1,0,0:0:0:0:
448,192,90993,1,0,0:0:0:0:
64,192,91072,128,0,91467:0:0:0:0:
192,192,91230,128,0,91546:0:0:0:0:
320,192,91348,128,0,91625:0:0:0:0:
448,192,91427,128,0,91664:0:0:0:0:
64,192,91506,128,0,91703:0:0:0:0:
192,192,91585,128,0,91703:0:0:0:0:
320,192,91664,128,0,91703:0:0:0:0:
448,192,91703,128,0,91782:0:0:0:0:
448,192,91861,1,0,0:0:0:0:
320,192,92019,128,0,92098:0:0:0:0:
448,192,92019,128,0,92138:0:0:0:0:
192,192,92019,128,0,92059:0:0:0:0:
64,192,92177,1,0,0:0:0:0:
192,192,92177,1,0,0:0:0:0:
192,192,92335,128,0,92375:0:0:0:0:
320,192,92335,128,0,92414:0:0:0:0:
448,192,92335,128,0,92453:0:0:0:0:
64,192,92493,128,0,92611:0:0:0:0:
192,192,92493,128,0,92572:0:0:0:0:
320,192,92493,128,0,92532:0:0:0:0:
448,192,92651,128,0,92769:0:0:0:0:
192,192,92651,128,0,92690:0:0:0:0:
320,192,92651,128,0,92730:0:0:0:0:
192,192,92809,128,0,92888:0:0:0:0:
320,192,92809,128,0,92848:0:0:0:0:
64,192,92809,128,0,92927:0:0:0:0:
448,192,92967,1,0,0:0:0:0:
320,192,92967,1,0,0:0:0:0:
192,192,93125,1,0,0:0:0:0:
192,192,93203,1,0,0:0:0:0:
320,192,93282,1,0,0:0:0:0:
192,192,93440,1,0,0:0:0:0:
448,192,93519,1,0,0:0:0:0:
448,192,93598,128,0,93993:0:0:0:0:
320,192,93756,128,0,94072:0:0:0:0:
192,192,93875,128,0,94151:0:0:0:0:
64,192,93953,128,0,94190:0:0:0:0:
448,192,94032,128,0,94230:0:0:0:0:
320,192,94111,128,0,94230:0:0:0:0:
192,192,94190,128,0,94230:0:0:0:0:
64,192,94230,128,0,94309:0:0:0:0:
64,192,94388,1,0,0:0:0:0:
320,192,94546,128,0,94625:0:0:0:0:
448,192,94546,128,0,94664:0:0:0:0:
192,192,94546,128,0,94585:0:0:0:0:
64,192,94703,1,0,0:0:0:0:
192,192,94703,1,0,0:0:0:0:
192,192,94861,128,0,94901:0:0:0:0:
320,192,94861,128,0,94940:0:0:0:0:
448,192,94861,128,0,94980:0:0:0:0:
64,192,95019,128,0,95138:0:0:0:0:
192,192,95019,128,0,95098:0:0:0:0:
320,192,95019,128,0,95059:0:0:0:0:
448,192,95177,128,0,95296:0:0:0:0:
192,192,95177,128,0,95217:0:0:0:0:
320,192,95177,128,0,95256:0:0:0:0:
192,192,95335,128,0,95414:0:0:0:0:
320,192,95335,128,0,95375:0:0:0:0:
64,192,95335,128,0,95453:0:0:0:0:
448,192,95493,1,0,0:0:0:0:
320,192,95493,1,0,0:0:0:0:
192,192,95651,128,0,95730:0:0:0:0:
192,192,95967,128,0,96046:0:0:0:0:
64,192,96046,1,0,0:0:0:0:
320,192,96125,128,0,96243:0:0:0:0:
320,192,96282,128,0,96361:0:0:0:0:
64,192,96361,1,0,0:0:0:0:
320,192,96440,128,0,96480:0:0:0:0:
448,192,96598,128,0,96717:0:0:0:0:
192,192,96598,1,0,0:0:0:0:
448,192,96756,128,0,96835:0:0:0:0:
192,192,96756,1,0,0:0:0:0:
64,192,96756,1,0,0:0:0:0:
448,192,96914,128,0,96953:0:0:0:0:
64,192,96914,1,0,0:0:0:0:
192,192,97072,128,0,97190:0:0:0:0:
320,192,97072,1,0,0:0:0:0:
192,192,97230,128,0,97309:0:0:0:0:
448,192,97309,1,0,0:0:0:0:
192,192,97388,128,0,97427:0:0:0:0:
320,192,97546,128,0,97664:0:0:0:0:
64,192,97625,1,0,0:0:0:0:
320,192,97703,128,0,97782:0:0:0:0:
192,192,97703,1,0,0:0:0:0:
320,192,97861,128,0,97901:0:0:0:0:
64,192,97861,1,0,0:0:0:0:
192,192,98019,128,0,98138:0:0:0:0:
64,192,98019,1,0,0:0:0:0:
448,192,98019,1,0,0:0:0:0:
192,192,98177,128,0,98256:0:0:0:0:
448,192,98177,1,0,0:0:0:0:
448,192,98335,128,0,98453:0:0:0:0:
448,192,98493,128,0,98572:0:0:0:0:
64,192,98493,1,0,0:0:0:0:
192,192,98572,1,0,0:0:0:0:
320,192,98651,128,0,98769:0:0:0:0:
320,192,98809,128,0,98888:0:0:0:0:
64,192,98888,1,0,0:0:0:0:
320,192,98967,128,0,99006:0:0:0:0:
192,192,98967,1,0,0:0:0:0:
448,192,99125,128,0,99243:0:0:0:0:
448,192,99282,128,0,99361:0:0:0:0:
192,192,99282,1,0,0:0:0:0:
64,192,99282,1,0,0:0:0:0:
448,192,99440,128,0,99480:0:0:0:0:
192,192,99598,128,0,99717:0:0:0:0:
320,192,99598,1,0,0:0:0:0:
192,192,99756,128,0,99835:0:0:0:0:
448,192,99835,1,0,0:0:0:0:
192,192,99914,128,0,99953:0:0:0:0:
64,192,100072,128,0,100190:0:0:0:0:
192,192,100151,1,0,0:0:0:0:
64,192,100230,128,0,100309:0:0:0:0:
320,192,100230,1,0,0:0:0:0:
448,192,100230,1,0,0:0:0:0:
64,192,100388,128,0,100427:0:0:0:0:
320,192,100388,1,0,0:0:0:0:
192,192,100546,1,0,0:0:0:0:
448,192,100546,1,0,0:0:0:0:
320,192,100546,1,0,0:0:0:0:
448,192,100703,1,0,0:0:0:0:
192,192,100703,1,0,0:0:0:0:
64,192,100861,1,0,0:0:0:0:
320,192,100861,1,0,0:0:0:0:
192,192,101019,1,0,0:0:0:0:
64,192,101019,1,0,0:0:0:0:
192,192,101177,128,0,101256:0:0:0:0:
192,192,101335,128,0,101375:0:0:0:0:
192,192,101493,128,0,101532:0:0:0:0:
320,192,101651,128,0,101730:0:0:0:0:
320,192,101809,128,0,101848:0:0:0:0:
320,192,101967,128,0,102006:0:0:0:0:
192,192,102125,128,0,102203:0:0:0:0:
192,192,102282,128,0,102322:0:0:0:0:
192,192,102440,128,0,102480:0:0:0:0:
448,192,102598,128,0,102677:0:0:0:0:
448,192,102756,128,0,102796:0:0:0:0:
448,192,102914,128,0,102953:0:0:0:0:
192,192,103072,128,0,103151:0:0:0:0:
192,192,103230,128,0,103269:0:0:0:0:
64,192,103388,128,0,103467:0:0:0:0:
64,192,103546,128,0,103585:0:0:0:0:
192,192,103703,128,0,103782:0:0:0:0:
192,192,103861,128,0,103901:0:0:0:0:
192,192,104019,128,0,104059:0:0:0:0:
192,192,104177,128,0,104217:0:0:0:0:
192,192,104335,128,0,104375:0:0:0:0:
192,192,104493,128,0,104532:0:0:0:0:
192,192,104651,128,0,104690:0:0:0:0:
192,192,104809,128,0,104848:0:0:0:0:
192,192,104967,128,0,105006:0:0:0:0:
192,192,105125,128,0,105164:0:0:0:0:
192,192,105282,128,0,105322:0:0:0:0:
192,192,105440,128,0,105480:0:0:0:0:
320,192,105598,128,0,105835:0:0:0:0:
320,192,105914,128,0,106151:0:0:0:0:
64,192,106230,128,0,106309:0:0:0:0:
64,192,106388,128,0,106427:0:0:0:0:
64,192,106546,128,0,106585:0:0:0:0:
192,192,106703,128,0,106782:0:0:0:0:
192,192,106861,128,0,106901:0:0:0:0:
192,192,107019,128,0,107059:0:0:0:0:
64,192,107177,128,0,107256:0:0:0:0:
64,192,107335,128,0,107375:0:0:0:0:
64,192,107493,128,0,107532:0:0:0:0:
192,192,107651,128,0,107730:0:0:0:0:
192,192,107809,128,0,107848:0:0:0:0:
192,192,107967,128,0,108006:0:0:0:0:
320,192,108125,128,0,108203:0:0:0:0:
320,192,108282,128,0,108322:0:0:0:0:
448,192,108440,128,0,108519:0:0:0:0:
448,192,108598,128,0,108638:0:0:0:0:
320,192,108756,128,0,108835:0:0:0:0:
320,192,108914,128,0,108953:0:0:0:0:
320,192,109072,128,0,109111:0:0:0:0:
448,192,109230,128,0,109309:0:0:0:0:
448,192,109388,128,0,109427:0:0:0:0:
448,192,109546,128,0,109585:0:0:0:0:
320,192,109703,128,0,109782:0:0:0:0:
320,192,109861,128,0,109901:0:0:0:0:
320,192,110019,128,0,110059:0:0:0:0:
192,192,110177,128,0,110256:0:0:0:0:
192,192,110335,128,0,110375:0:0:0:0:
192,192,110493,128,0,110532:0:0:0:0:
320,192,110651,128,0,110730:0:0:0:0:
64,192,110809,128,0,110888:0:0:0:0:
192,192,110967,128,0,111046:0:0:0:0:
64,192,111125,128,0,111203:0:0:0:0:
192,192,111282,128,0,111361:0:0:0:0:
320,192,111282,1,0,0:0:0:0:
192,192,111440,128,0,111480:0:0:0:0:
64,192,111440,1,0,0:0:0:0:
192,192,111598,128,0,111638:0:0:0:0:
448,192,111598,1,0,0:0:0:0:
320,192,111756,128,0,111835:0:0:0:0:
64,192,111756,1,0,0:0:0:0:
320,192,111914,128,0,111953:0:0:0:0:
192,192,111914,1,0,0:0:0:0:
320,192,112072,128,0,112111:0:0:0:0:
448,192,112072,1,0,0:0:0:0:
192,192,112230,128,0,112309:0:0:0:0:
64,192,112230,1,0,0:0:0:0:
192,192,112388,128,0,112427:0:0:0:0:
320,192,112388,1,0,0:0:0:0:
192,192,112546,128,0,112585:0:0:0:0:
448,192,112546,1,0,0:0:0:0:
448,192,112703,128,0,112782:0:0:0:0:
64,192,112703,1,0,0:0:0:0:
448,192,112861,128,0,112901:0:0:0:0:
192,192,112861,1,0,0:0:0:0:
448,192,113019,128,0,113059:0:0:0:0:
320,192,113019,1,0,0:0:0:0:
192,192,113177,128,0,113256:0:0:0:0:
64,192,113177,1,0,0:0:0:0:
192,192,113335,128,0,113375:0:0:0:0:
320,192,113335,1,0,0:0:0:0:
64,192,113493,128,0,113572:0:0:0:0:
448,192,113493,1,0,0:0:0:0:
64,192,113651,128,0,113690:0:0:0:0:
320,192,113651,1,0,0:0:0:0:
192,192,113809,128,0,113888:0:0:0:0:
64,192,113809,1,0,0:0:0:0:
192,192,113967,128,0,114006:0:0:0:0:
320,192,113967,1,0,0:0:0:0:
192,192,114125,128,0,114164:0:0:0:0:
448,192,114125,1,0,0:0:0:0:
192,192,114282,128,0,114322:0:0:0:0:
64,192,114282,1,0,0:0:0:0:
192,192,114440,128,0,114480:0:0:0:0:
320,192,114440,1,0,0:0:0:0:
192,192,114598,128,0,114638:0:0:0:0:
448,192,114598,1,0,0:0:0:0:
192,192,114756,128,0,114796:0:0:0:0:
64,192,114756,1,0,0:0:0:0:
192,192,114914,128,0,114953:0:0:0:0:
320,192,114914,1,0,0:0:0:0:
448,192,115072,1,0,0:0:0:0:
64,192,115230,1,0,0:0:0:0:
192,192,115388,1,0,0:0:0:0:
448,192,115546,1,0,0:0:0:0:
64,192,115703,1,0,0:0:0:0:
192,192,115861,1,0,0:0:0:0:
448,192,116019,1,0,0:0:0:0:
320,192,116177,1,0,0:0:0:0:
64,192,116335,128,0,116414:0:0:0:0:
192,192,116335,1,0,0:0:0:0:
64,192,116493,128,0,116532:0:0:0:0:
320,192,116493,1,0,0:0:0:0:
64,192,116651,128,0,116690:0:0:0:0:
448,192,116651,1,0,0:0:0:0:
192,192,116809,128,0,116888:0:0:0:0:
64,192,116809,1,0,0:0:0:0:
192,192,116967,128,0,117006:0:0:0:0:
320,192,116967,1,0,0:0:0:0:
192,192,117125,128,0,117164:0:0:0:0:
448,192,117125,1,0,0:0:0:0:
64,192,117282,128,0,117361:0:0:0:0:
192,192,117282,1,0,0:0:0:0:
64,192,117440,128,0,117480:0:0:0:0:
320,192,117440,1,0,0:0:0:0:
64,192,117598,128,0,117638:0:0:0:0:
448,192,117598,1,0,0:0:0:0:
192,192,117756,128,0,117835:0:0:0:0:
64,192,117756,1,0,0:0:0:0:
192,192,117914,128,0,117953:0:0:0:0:
320,192,117914,1,0,0:0:0:0:
192,192,118072,128,0,118111:0:0:0:0:
448,192,118072,1,0,0:0:0:0:
320,192,118230,128,0,118309:0:0:0:0:
64,192,118230,1,0,0:0:0:0:
320,192,118388,128,0,118427:0:0:0:0:
192,192,118388,1,0,0:0:0:0:
448,192,118546,128,0,118625:0:0:0:0:
320,192,118546,1,0,0:0:0:0:
448,192,118703,128,0,118743:0:0:0:0:
192,192,118703,1,0,0:0:0:0:
320,192,118861,128,0,118940:0:0:0:0:
64,192,118861,1,0,0:0:0:0:
320,192,119019,128,0,119059:0:0:0:0:
192,192,119019,1,0,0:0:0:0:
320,192,119177,128,0,119217:0:0:0:0:
448,192,119177,1,0,0:0:0:0:
448,192,119335,128,0,119414:0:0:0:0:
64,192,119335,1,0,0:0:0:0:
448,192,119493,128,0,119532:0:0:0:0:
192,192,119493,1,0,0:0:0:0:
448,192,119651,128,0,119690:0:0:0:0:
320,192,119651,1,0,0:0:0:0:
320,192,119809,128,0,119888:0:0:0:0:
64,192,119809,1,0,0:0:0:0:
320,192,119967,128,0,120006:0:0:0:0:
192,192,119967,1,0,0:0:0:0:
320,192,120125,128,0,120164:0:0:0:0:
448,192,120125,1,0,0:0:0:0:
192,192,120282,128,0,120361:0:0:0:0:
64,192,120282,1,0,0:0:0:0:
192,192,120440,128,0,120480:0:0:0:0:
320,192,120440,1,0,0:0:0:0:
192,192,120598,128,0,120638:0:0:0:0:
448,192,120598,1,0,0:0:0:0:
320,192,120756,128,0,120835:0:0:0:0:
64,192,120756,1,0,0:0:0:0:
64,192,120914,128,0,120993:0:0:0:0:
320,192,120914,1,0,0:0:0:0:
192,192,121072,128,0,121151:0:0:0:0:
448,192,121072,1,0,0:0:0:0:
64,192,121230,128,0,121309:0:0:0:0:
320,192,121230,1,0,0:0:0:0:
64,192,121388,128,0,121861:0:0:0:0:
448,192,121388,1,0,0:0:0:0:
192,192,121546,1,0,0:0:0:0:
320,192,121703,1,0,0:0:0:0:
192,192,121782,128,0,121940:0:0:0:0:
320,192,121861,128,0,122335:0:0:0:0:
448,192,121861,1,0,0:0:0:0:
64,192,122019,1,0,0:0:0:0:
448,192,122177,1,0,0:0:0:0:
192,192,122256,128,0,122414:0:0:0:0:
64,192,122335,128,0,122809:0:0:0:0:
448,192,122493,1,0,0:0:0:0:
320,192,122651,1,0,0:0:0:0:
192,192,122730,128,0,122848:0:0:0:0:
320,192,122769,128,0,122888:0:0:0:0:
448,192,122809,128,0,123282:0:0:0:0:
192,192,122967,1,0,0:0:0:0:
64,192,123125,1,0,0:0:0:0:
320,192,123282,128,0,123598:0:0:0:0:
192,192,123282,1,0,0:0:0:0:
448,192,123440,1,0,0:0:0:0:
192,192,123598,128,0,123914:0:0:0:0:
64,192,123598,1,0,0:0:0:0:
448,192,123756,1,0,0:0:0:0:
64,192,123914,128,0,125809:0:0:0:0:
320,192,123914,1,0,0:0:0:0:
192,192,124072,1,0,0:0:0:0:
448,192,124230,1,0,0:0:0:0:
320,192,124388,1,0,0:0:0:0:
192,192,124546,1,0,0:0:0:0:
320,192,124703,1,0,0:0:0:0:
448,192,124861,1,0,0:0:0:0:
320,192,125019,1,0,0:0:0:0:
192,192,125177,1,0,0:0:0:0:
320,192,125335,1,0,0:0:0:0:
448,192,125493,1,0,0:0:0:0:
320,192,125651,1,0,0:0:0:0:
192,192,125809,1,0,0:0:0:0:
320,192,125967,1,0,0:0:0:0:
448,192,126125,1,0,0:0:0:0:
192,192,126282,1,0,0:0:0:0:
64,192,126440,128,0,126914:0:0:0:0:
320,192,126440,1,0,0:0:0:0:
448,192,126598,1,0,0:0:0:0:
320,192,126756,1,0,0:0:0:0:
192,192,126835,128,0,126914:0:0:0:0:
320,192,126914,128,0,127388:0:0:0:0:
448,192,126914,1,0,0:0:0:0:
192,192,127072,1,0,0:0:0:0:
64,192,127230,1,0,0:0:0:0:
192,192,127309,128,0,127388:0:0:0:0:
64,192,127388,128,0,127861:0:0:0:0:
448,192,127388,1,0,0:0:0:0:
448,192,127546,1,0,0:0:0:0:
320,192,127703,1,0,0:0:0:0:
192,192,127782,128,0,127861:0:0:0:0:
320,192,127861,128,0,128335:0:0:0:0:
448,192,127861,1,0,0:0:0:0:
192,192,128019,1,0,0:0:0:0:
64,192,128177,1,0,0:0:0:0:
192,192,128335,128,0,128651:0:0:0:0:
448,192,128335,1,0,0:0:0:0:
64,192,128493,1,0,0:0:0:0:
320,192,128572,128,0,128651:0:0:0:0:
448,192,128651,128,0,128967:0:0:0:0:
64,192,128651,1,0,0:0:0:0:
192,192,128809,1,0,0:0:0:0:
320,192,128967,128,0,129440:0:0:0:0:
192,192,128967,1,0,0:0:0:0:
448,192,129125,1,0,0:0:0:0:
64,192,129282,1,0,0:0:0:0:
448,192,129440,128,0,129914:0:0:0:0:
192,192,129440,1,0,0:0:0:0:
64,192,129598,1,0,0:0:0:0:
192,192,129756,1,0,0:0:0:0:
320,192,129914,128,0,130388:0:0:0:0:
64,192,129914,1,0,0:0:0:0:
448,192,130072,1,0,0:0:0:0:
64,192,130230,1,0,0:0:0:0:
192,192,130388,128,0,130861:0:0:0:0:
448,192,130388,1,0,0:0:0:0:
320,192,130546,1,0,0:0:0:0:
64,192,130703,1,0,0:0:0:0:
320,192,130861,128,0,131019:0:0:0:0:
448,192,130861,1,0,0:0:0:0:
448,192,131019,128,0,131177:0:0:0:0:
192,192,131019,1,0,0:0:0:0:
320,192,131138,128,0,131177:0:0:0:0:
192,192,131177,128,0,131335:0:0:0:0:
64,192,131177,1,0,0:0:0:0:
320,192,131335,1,0,0:0:0:0:
64,192,131335,128,0,131414:0:0:0:0:
64,192,131493,128,0,131967:0:0:0:0:
448,192,131493,1,0,0:0:0:0:
192,192,131493,1,0,0:0:0:0:
192,192,131651,128,0,131730:0:0:0:0:
320,192,131809,1,0,0:0:0:0:
192,192,131888,128,0,132046:0:0:0:0:
320,192,131967,128,0,132440:0:0:0:0:
448,192,131967,128,0,132046:0:0:0:0:
64,192,132125,1,0,0:0:0:0:
448,192,132282,128,0,132361:0:0:0:0:
192,192,132361,128,0,132519:0:0:0:0:
64,192,132440,128,0,132914:0:0:0:0:
448,192,132598,128,0,132677:0:0:0:0:
320,192,132756,1,0,0:0:0:0:
192,192,132835,128,0,132953:0:0:0:0:
320,192,132875,128,0,132993:0:0:0:0:
448,192,132914,128,0,133388:0:0:0:0:
192,192,133072,1,0,0:0:0:0:
64,192,133230,128,0,133309:0:0:0:0:
320,192,133388,128,0,133703:0:0:0:0:
192,192,133388,1,0,0:0:0:0:
448,192,133546,128,0,133625:0:0:0:0:
192,192,133703,128,0,134019:0:0:0:0:
64,192,133703,1,0,0:0:0:0:
448,192,133861,128,0,133940:0:0:0:0:
64,192,134019,128,0,135914:0:0:0:0:
320,192,134019,1,0,0:0:0:0:
448,192,134019,1,0,0:0:0:0:
192,192,134177,128,0,134256:0:0:0:0:
448,192,134335,1,0,0:0:0:0:
320,192,134493,128,0,134572:0:0:0:0:
192,192,134651,1,0,0:0:0:0:
320,192,134809,128,0,134888:0:0:0:0:
448,192,134967,1,0,0:0:0:0:
320,192,135125,128,0,135203:0:0:0:0:
192,192,135282,1,0,0:0:0:0:
320,192,135440,128,0,135519:0:0:0:0:
448,192,135598,1,0,0:0:0:0:
320,192,135756,128,0,135835:0:0:0:0:
192,192,135914,1,0,0:0:0:0:
320,192,136072,128,0,136151:0:0:0:0:
448,192,136230,1,0,0:0:0:0:
192,192,136388,128,0,136467:0:0:0:0:
64,192,136546,128,0,137019:0:0:0:0:
320,192,136546,1,0,0:0:0:0:
192,192,136546,1,0,0:0:0:0:
448,192,136703,128,0,136782:0:0:0:0:
320,192,136861,1,0,0:0:0:0:
192,192,136940,128,0,137019:0:0:0:0:
320,192,137019,128,0,137493:0:0:0:0:
448,192,137019,128,0,137098:0:0:0:0:
192,192,137177,1,0,0:0:0:0:
64,192,137335,128,0,137414:0:0:0:0:
192,192,137414,128,0,137493:0:0:0:0:
64,192,137493,128,0,137967:0:0:0:0:
448,192,137493,1,0,0:0:0:0:
448,192,137651,128,0,137730:0:0:0:0:
320,192,137809,1,0,0:0:0:0:
448,192,137809,1,0,0:0:0:0:
192,192,137888,128,0,137967:0:0:0:0:
320,192,137967,128,0,138440:0:0:0:0:
448,192,137967,128,0,138046:0:0:0:0:
192,192,138125,1,0,0:0:0:0:
64,192,138282,128,0,138361:0:0:0:0:
192,192,138440,128,0,138756:0:0:0:0:
448,192,138440,1,0,0:0:0:0:
64,192,138598,128,0,138677:0:0:0:0:
320,192,138677,128,0,138756:0:0:0:0:
448,192,138756,128,0,139072:0:0:0:0:
64,192,138756,1,0,0:0:0:0:
192,192,138914,128,0,138993:0:0:0:0:
320,192,139072,128,0,139546:0:0:0:0:
192,192,139072,1,0,0:0:0:0:
64,192,139072,1,0,0:0:0:0:
448,192,139230,128,0,139309:0:0:0:0:
64,192,139388,1,0,0:0:0:0:
448,192,139546,128,0,140019:0:0:0:0:
192,192,139546,128,0,139625:0:0:0:0:
64,192,139703,1,0,0:0:0:0:
192,192,139703,1,0,0:0:0:0:
192,192,139861,128,0,139940:0:0:0:0:
320,192,140019,128,0,140493:0:0:0:0:
64,192,140019,1,0,0:0:0:0:
448,192,140177,128,0,140256:0:0:0:0:
64,192,140335,1,0,0:0:0:0:
192,192,140335,1,0,0:0:0:0:
192,192,140493,128,0,140967:0:0:0:0:
448,192,140493,128,0,140572:0:0:0:0:
320,192,140651,1,0,0:0:0:0:
448,192,140651,1,0,0:0:0:0:
64,192,140809,128,0,140888:0:0:0:0:
320,192,140967,128,0,141125:0:0:0:0:
448,192,140967,1,0,0:0:0:0:
64,192,140967,1,0,0:0:0:0:
448,192,141125,128,0,141282:0:0:0:0:
192,192,141125,128,0,141203:0:0:0:0:
320,192,141243,128,0,141282:0:0:0:0:
192,192,141282,128,0,141440:0:0:0:0:
64,192,141282,1,0,0:0:0:0:
64,192,141440,128,0,141598:0:0:0:0:
320,192,141440,128,0,141519:0:0:0:0:
192,192,141598,1,0,0:0:0:0:
448,192,141598,1,0,0:0:0:0:
320,192,141598,1,0,0:0:0:0:
448,192,141756,1,0,0:0:0:0:
448,192,141914,1,0,0:0:0:0:
64,192,141914,1,0,0:0:0:0:
448,192,142072,1,0,0:0:0:0:
448,192,142230,1,0,0:0:0:0:
192,192,142230,1,0,0:0:0:0:
448,192,142388,1,0,0:0:0:0:
64,192,142388,1,0,0:0:0:0:
448,192,142546,1,0,0:0:0:0:
64,192,142546,1,0,0:0:0:0:
448,192,142703,1,0,0:0:0:0:
192,192,142703,1,0,0:0:0:0:
64,192,142861,1,0,0:0:0:0:
320,192,142861,1,0,0:0:0:0:
64,192,143019,1,0,0:0:0:0:
64,192,143177,1,0,0:0:0:0:
448,192,143177,1,0,0:0:0:0:
64,192,143335,1,0,0:0:0:0:
64,192,143493,1,0,0:0:0:0:
320,192,143493,1,0,0:0:0:0:
64,192,143651,1,0,0:0:0:0:
448,192,143651,1,0,0:0:0:0:
64,192,143809,1,0,0:0:0:0:
448,192,143809,1,0,0:0:0:0:
64,192,143967,1,0,0:0:0:0:
320,192,143967,1,0,0:0:0:0:
448,192,144125,1,0,0:0:0:0:
192,192,144125,1,0,0:0:0:0:
448,192,144282,1,0,0:0:0:0:
448,192,144440,1,0,0:0:0:0:
64,192,144440,1,0,0:0:0:0:
448,192,144598,1,0,0:0:0:0:
448,192,144756,1,0,0:0:0:0:
192,192,144756,1,0,0:0:0:0:
448,192,144914,1,0,0:0:0:0:
64,192,144914,1,0,0:0:0:0:
448,192,145072,1,0,0:0:0:0:
64,192,145072,1,0,0:0:0:0:
448,192,145230,1,0,0:0:0:0:
192,192,145230,1,0,0:0:0:0:
64,192,145388,1,0,0:0:0:0:
320,192,145388,1,0,0:0:0:0:
64,192,145546,1,0,0:0:0:0:
64,192,145703,1,0,0:0:0:0:
448,192,145703,1,0,0:0:0:0:
64,192,145861,1,0,0:0:0:0:
64,192,146019,1,0,0:0:0:0:
320,192,146019,1,0,0:0:0:0:
64,192,146177,1,0,0:0:0:0:
448,192,146177,1,0,0:0:0:0:
320,192,146256,1,0,0:0:0:0:
64,192,146335,1,0,0:0:0:0:
448,192,146335,1,0,0:0:0:0:
64,192,146493,1,0,0:0:0:0:
448,192,146493,1,0,0:0:0:0:
448,192,146651,1,0,0:0:0:0:
320,192,146651,1,0,0:0:0:0:
320,192,146809,1,0,0:0:0:0:
192,192,146967,1,0,0:0:0:0:
64,192,146967,1,0,0:0:0:0:
64,192,147125,1,0,0:0:0:0:
192,192,147282,1,0,0:0:0:0:
448,192,147282,1,0,0:0:0:0:
448,192,147440,1,0,0:0:0:0:
320,192,147598,1,0,0:0:0:0:
64,192,147598,1,0,0:0:0:0:
64,192,147756,1,0,0:0:0:0:
320,192,147914,1,0,0:0:0:0:
448,192,147914,1,0,0:0:0:0:
448,192,148072,1,0,0:0:0:0:
192,192,148072,1,0,0:0:0:0:
64,192,148230,1,0,0:0:0:0:
192,192,148230,1,0,0:0:0:0:
64,192,148388,1,0,0:0:0:0:
320,192,148388,1,0,0:0:0:0:
192,192,148546,1,0,0:0:0:0:
320,192,148546,1,0,0:0:0:0:
192,192,148703,1,0,0:0:0:0:
448,192,148703,1,0,0:0:0:0:
64,192,148782,1,0,0:0:0:0:
448,192,148861,1,0,0:0:0:0:
320,192,148861,1,0,0:0:0:0:
192,192,148940,1,0,0:0:0:0:
64,192,149019,1,0,0:0:0:0:
320,192,149019,1,0,0:0:0:0:
192,192,149335,128,0,149414:0:0:0:0:
192,192,149809,128,0,149888:0:0:0:0:
192,192,149967,128,0,150046:0:0:0:0:
192,192,150125,128,0,150203:0:0:0:0:
192,192,150282,128,0,150361:0:0:0:0:
192,192,150440,128,0,150480:0:0:0:0:
320,192,150519,128,0,150559:0:0:0:0:
192,192,150598,128,0,150638:0:0:0:0:
320,192,150677,128,0,150717:0:0:0:0:
192,192,150756,128,0,150796:0:0:0:0:
320,192,150835,128,0,150875:0:0:0:0:
192,192,150914,128,0,150953:0:0:0:0:
320,192,150993,128,0,151032:0:0:0:0:
192,192,151072,1,0,0:0:0:0:
448,192,151072,1,0,0:0:0:0:
64,192,151072,1,0,0:0:0:0:
192,192,151388,128,0,151703:0:0:0:0:
448,192,151388,128,0,151703:0:0:0:0:
320,192,151703,128,0,151743:0:0:0:0:
64,192,151703,128,0,151782:0:0:0:0:
192,192,151861,128,0,151901:0:0:0:0:
448,192,151861,128,0,151940:0:0:0:0:
320,192,152019,128,0,152098:0:0:0:0:
448,192,152019,128,0,152098:0:0:0:0:
64,192,152019,128,0,152059:0:0:0:0:
320,192,152177,128,0,152217:0:0:0:0:
64,192,152177,128,0,152256:0:0:0:0:
192,192,152335,128,0,152414:0:0:0:0:
320,192,152335,128,0,152414:0:0:0:0:
448,192,152335,128,0,152375:0:0:0:0:
192,192,152493,128,0,152532:0:0:0:0:
448,192,152493,128,0,152572:0:0:0:0:
64,192,152651,128,0,152730:0:0:0:0:
320,192,152651,128,0,152690:0:0:0:0:
192,192,152651,128,0,152730:0:0:0:0:
192,192,152809,128,0,152888:0:0:0:0:
320,192,152809,128,0,152888:0:0:0:0:
192,192,152967,128,0,153006:0:0:0:0:
448,192,152967,128,0,153046:0:0:0:0:
320,192,152967,128,0,153046:0:0:0:0:
320,192,153125,128,0,153164:0:0:0:0:
64,192,153125,128,0,153203:0:0:0:0:
320,192,153282,128,0,153361:0:0:0:0:
192,192,153282,128,0,153361:0:0:0:0:
64,192,153282,128,0,153322:0:0:0:0:
448,192,153440,128,0,153519:0:0:0:0:
192,192,153440,128,0,153480:0:0:0:0:
64,192,153598,128,0,153677:0:0:0:0:
320,192,153598,128,0,153638:0:0:0:0:
192,192,153598,128,0,153677:0:0:0:0:
192,192,153756,128,0,153835:0:0:0:0:
320,192,153756,128,0,153835:0:0:0:0:
192,192,153914,128,0,153953:0:0:0:0:
448,192,153914,128,0,153993:0:0:0:0:
320,192,153914,128,0,153993:0:0:0:0:
320,192,154072,128,0,154151:0:0:0:0:
192,192,154072,128,0,154151:0:0:0:0:
64,192,154230,128,0,154309:0:0:0:0:
320,192,154230,128,0,154269:0:0:0:0:
192,192,154230,128,0,154309:0:0:0:0:
192,192,154388,128,0,154467:0:0:0:0:
448,192,154388,128,0,154467:0:0:0:0:
320,192,154546,128,0,154585:0:0:0:0:
448,192,154546,128,0,154625:0:0:0:0:
192,192,154546,128,0,154625:0:0:0:0:
64,192,154703,128,0,154782:0:0:0:0:
320,192,154703,128,0,154743:0:0:0:0:
192,192,154861,128,0,154940:0:0:0:0:
448,192,154861,128,0,154940:0:0:0:0:
64,192,154861,128,0,154901:0:0:0:0:
448,192,155019,128,0,155098:0:0:0:0:
320,192,155019,128,0,155059:0:0:0:0:
320,192,155177,128,0,155217:0:0:0:0:
64,192,155177,128,0,155256:0:0:0:0:
192,192,155177,128,0,155256:0:0:0:0:
448,192,155335,128,0,155414:0:0:0:0:
192,192,155335,128,0,155414:0:0:0:0:
320,192,155493,128,0,155532:0:0:0:0:
448,192,155493,128,0,155572:0:0:0:0:
192,192,155493,128,0,155572:0:0:0:0:
64,192,155651,128,0,155730:0:0:0:0:
320,192,155651,128,0,155690:0:0:0:0:
192,192,155809,128,0,155888:0:0:0:0:
448,192,155809,128,0,155888:0:0:0:0:
64,192,155809,128,0,155848:0:0:0:0:
448,192,155967,128,0,156046:0:0:0:0:
320,192,155967,128,0,156006:0:0:0:0:
320,192,156125,128,0,156164:0:0:0:0:
64,192,156125,128,0,156203:0:0:0:0:
192,192,156125,128,0,156203:0:0:0:0:
448,192,156282,128,0,156361:0:0:0:0:
192,192,156282,128,0,156361:0:0:0:0:
320,192,156440,128,0,156480:0:0:0:0:
448,192,156440,128,0,156519:0:0:0:0:
192,192,156440,128,0,156519:0:0:0:0:
192,192,156598,128,0,156677:0:0:0:0:
448,192,156598,128,0,156677:0:0:0:0:
64,192,156756,128,0,156835:0:0:0:0:
192,192,156756,128,0,156796:0:0:0:0:
320,192,156756,128,0,156835:0:0:0:0:
192,192,156914,128,0,156993:0:0:0:0:
320,192,156914,128,0,156993:0:0:0:0:
320,192,157072,128,0,157111:0:0:0:0:
448,192,157072,128,0,157151:0:0:0:0:
192,192,157072,128,0,157151:0:0:0:0:
64,192,157230,128,0,157309:0:0:0:0:
192,192,157230,128,0,157269:0:0:0:0:
192,192,157388,128,0,157467:0:0:0:0:
320,192,157388,128,0,157467:0:0:0:0:
64,192,157388,128,0,157427:0:0:0:0:
320,192,157546,128,0,157585:0:0:0:0:
448,192,157546,128,0,157625:0:0:0:0:
192,192,157703,128,0,157743:0:0:0:0:
64,192,157703,128,0,157782:0:0:0:0:
320,192,157703,128,0,157782:0:0:0:0:
320,192,157861,128,0,157940:0:0:0:0:
192,192,157861,128,0,157940:0:0:0:0:
448,192,158019,128,0,158098:0:0:0:0:
320,192,158019,128,0,158059:0:0:0:0:
192,192,158019,128,0,158098:0:0:0:0:
64,192,158177,128,0,158256:0:0:0:0:
192,192,158177,128,0,158217:0:0:0:0:
192,192,158335,128,0,158414:0:0:0:0:
320,192,158335,128,0,158414:0:0:0:0:
64,192,158335,128,0,158375:0:0:0:0:
320,192,158493,128,0,158532:0:0:0:0:
448,192,158493,128,0,158572:0:0:0:0:
192,192,158651,128,0,158690:0:0:0:0:
64,192,158651,128,0,158730:0:0:0:0:
320,192,158651,128,0,158730:0:0:0:0:
320,192,158809,128,0,158888:0:0:0:0:
192,192,158809,128,0,158888:0:0:0:0:
448,192,158967,128,0,159046:0:0:0:0:
320,192,158967,128,0,159006:0:0:0:0:
192,192,158967,128,0,159046:0:0:0:0:
192,192,159125,128,0,159203:0:0:0:0:
320,192,159125,128,0,159203:0:0:0:0:
64,192,159282,128,0,159361:0:0:0:0:
192,192,159282,128,0,159322:0:0:0:0:
320,192,159282,128,0,159361:0:0:0:0:
64,192,159440,128,0,159519:0:0:0:0:
320,192,159440,128,0,159519:0:0:0:0:
320,192,159598,128,0,159638:0:0:0:0:
448,192,159598,128,0,159677:0:0:0:0:
192,192,159598,128,0,159677:0:0:0:0:
64,192,159756,128,0,159835:0:0:0:0:
192,192,159756,128,0,159796:0:0:0:0:
64,192,159914,128,0,159993:0:0:0:0:
320,192,159914,128,0,159993:0:0:0:0:
448,192,159914,128,0,159953:0:0:0:0:
448,192,160072,128,0,160151:0:0:0:0:
320,192,160072,128,0,160111:0:0:0:0:
192,192,160230,128,0,160269:0:0:0:0:
64,192,160230,128,0,160309:0:0:0:0:
320,192,160230,128,0,160309:0:0:0:0:
320,192,160388,128,0,160467:0:0:0:0:
64,192,160388,128,0,160467:0:0:0:0:
192,192,160546,128,0,160585:0:0:0:0:
320,192,160546,128,0,160625:0:0:0:0:
448,192,160546,128,0,160625:0:0:0:0:
192,192,160703,128,0,160743:0:0:0:0:
64,192,160703,128,0,160782:0:0:0:0:
320,192,160861,128,0,160940:0:0:0:0:
64,192,160861,128,0,160940:0:0:0:0:
192,192,160861,128,0,160901:0:0:0:0:
320,192,161019,128,0,161098:0:0:0:0:
192,192,161019,128,0,161059:0:0:0:0:
64,192,161177,128,0,161256:0:0:0:0:
192,192,161177,128,0,161217:0:0:0:0:
448,192,161177,128,0,161256:0:0:0:0:
64,192,161335,128,0,161414:0:0:0:0:
320,192,161335,128,0,161414:0:0:0:0:
192,192,161493,128,0,161532:0:0:0:0:
320,192,161493,128,0,161572:0:0:0:0:
448,192,161493,128,0,161572:0:0:0:0:
320,192,161651,128,0,161730:0:0:0:0:
448,192,161651,128,0,161690:0:0:0:0:
192,192,161809,128,0,161848:0:0:0:0:
64,192,161809,128,0,161888:0:0:0:0:
192,192,161967,128,0,162006:0:0:0:0:
448,192,161967,128,0,162046:0:0:0:0:
320,192,162125,128,0,162203:0:0:0:0:
448,192,162125,128,0,162203:0:0:0:0:
64,192,162125,128,0,162164:0:0:0:0:
320,192,162282,128,0,162322:0:0:0:0:
64,192,162282,128,0,162361:0:0:0:0:
192,192,162440,128,0,162519:0:0:0:0:
320,192,162440,128,0,162519:0:0:0:0:
448,192,162440,128,0,162480:0:0:0:0:
192,192,162598,128,0,162638:0:0:0:0:
448,192,162598,128,0,162677:0:0:0:0:
64,192,162756,128,0,162835:0:0:0:0:
320,192,162756,128,0,162796:0:0:0:0:
192,192,162756,128,0,162835:0:0:0:0:
192,192,162914,128,0,162993:0:0:0:0:
320,192,162914,128,0,162993:0:0:0:0:
192,192,163072,128,0,163111:0:0:0:0:
448,192,163072,128,0,163151:0:0:0:0:
320,192,163072,128,0,163151:0:0:0:0:
320,192,163230,128,0,163269:0:0:0:0:
64,192,163230,128,0,163309:0:0:0:0:
320,192,163388,128,0,163467:0:0:0:0:
192,192,163388,128,0,163467:0:0:0:0:
64,192,163388,128,0,163427:0:0:0:0:
448,192,163546,128,0,163625:0:0:0:0:
192,192,163546,128,0,163585:0:0:0:0:
64,192,163703,128,0,163782:0:0:0:0:
320,192,163703,128,0,163743:0:0:0:0:
192,192,163703,128,0,163782:0:0:0:0:
192,192,163861,128,0,163940:0:0:0:0:
320,192,163861,128,0,163940:0:0:0:0:
192,192,164019,128,0,164059:0:0:0:0:
448,192,164019,128,0,164098:0:0:0:0:
320,192,164019,128,0,164098:0:0:0:0:
320,192,164177,128,0,164256:0:0:0:0:
192,192,164177,128,0,164256:0:0:0:0:
64,192,164335,128,0,164414:0:0:0:0:
320,192,164335,128,0,164375:0:0:0:0:
192,192,164335,128,0,164414:0:0:0:0:
192,192,164493,128,0,164572:0:0:0:0:
448,192,164493,128,0,164572:0:0:0:0:
320,192,164651,128,0,164690:0:0:0:0:
448,192,164651,128,0,164730:0:0:0:0:
192,192,164651,128,0,164730:0:0:0:0:
64,192,164809,128,0,164888:0:0:0:0:
320,192,164809,128,0,164848:0:0:0:0:
192,192,164967,128,0,165046:0:0:0:0:
448,192,164967,128,0,165046:0:0:0:0:
64,192,164967,128,0,165006:0:0:0:0:
448,192,165125,128,0,165203:0:0:0:0:
320,192,165125,128,0,165164:0:0:0:0:
320,192,165282,128,0,165322:0:0:0:0:
64,192,165282,128,0,165361:0:0:0:0:
192,192,165282,128,0,165361:0:0:0:0:
448,192,165440,128,0,165519:0:0:0:0:
192,192,165440,128,0,165519:0:0:0:0:
320,192,165598,128,0,165638:0:0:0:0:
448,192,165598,128,0,165677:0:0:0:0:
192,192,165598,128,0,165677:0:0:0:0:
64,192,165756,128,0,165835:0:0:0:0:
320,192,165756,128,0,165796:0:0:0:0:
192,192,165914,128,0,165993:0:0:0:0:
448,192,165914,128,0,165993:0:0:0:0:
64,192,165914,128,0,165953:0:0:0:0:
448,192,166072,128,0,166151:0:0:0:0:
320,192,166072,128,0,166111:0:0:0:0:
320,192,166230,128,0,166269:0:0:0:0:
64,192,166230,128,0,166309:0:0:0:0:
192,192,166230,128,0,166309:0:0:0:0:
448,192,166388,128,0,166467:0:0:0:0:
192,192,166388,128,0,166467:0:0:0:0:
320,192,166546,128,0,166585:0:0:0:0:
448,192,166546,128,0,166625:0:0:0:0:
192,192,166546,128,0,166625:0:0:0:0:
192,192,166703,128,0,166782:0:0:0:0:
448,192,166703,128,0,166782:0:0:0:0:
64,192,166861,128,0,166940:0:0:0:0:
192,192,166861,128,0,166901:0:0:0:0:
320,192,166861,128,0,166940:0:0:0:0:
192,192,167019,128,0,167098:0:0:0:0:
320,192,167019,128,0,167098:0:0:0:0:
320,192,167177,128,0,167217:0:0:0:0:
448,192,167177,128,0,167256:0:0:0:0:
192,192,167177,128,0,167256:0:0:0:0:
64,192,167335,128,0,167414:0:0:0:0:
192,192,167335,128,0,167375:0:0:0:0:
192,192,167493,128,0,167572:0:0:0:0:
320,192,167493,128,0,167572:0:0:0:0:
64,192,167493,128,0,167532:0:0:0:0:
320,192,167651,128,0,167690:0:0:0:0:
448,192,167651,128,0,167730:0:0:0:0:
192,192,167809,128,0,167848:0:0:0:0:
64,192,167809,128,0,167888:0:0:0:0:
320,192,167809,128,0,167888:0:0:0:0:
320,192,167967,128,0,168046:0:0:0:0:
192,192,167967,128,0,168046:0:0:0:0:
448,192,168125,128,0,168203:0:0:0:0:
320,192,168125,128,0,168164:0:0:0:0:
192,192,168125,128,0,168203:0:0:0:0:
64,192,168282,128,0,168361:0:0:0:0:
192,192,168282,128,0,168322:0:0:0:0:
192,192,168440,128,0,168519:0:0:0:0:
320,192,168440,128,0,168519:0:0:0:0:
64,192,168440,128,0,168480:0:0:0:0:
320,192,168598,128,0,168638:0:0:0:0:
448,192,168598,128,0,168677:0:0:0:0:
192,192,168756,128,0,168796:0:0:0:0:
64,192,168756,128,0,168835:0:0:0:0:
320,192,168756,128,0,168835:0:0:0:0:
320,192,168914,128,0,168993:0:0:0:0:
192,192,168914,128,0,168993:0:0:0:0:
448,192,169072,128,0,169151:0:0:0:0:
320,192,169072,128,0,169111:0:0:0:0:
192,192,169072,128,0,169151:0:0:0:0:
192,192,169230,128,0,169309:0:0:0:0:
320,192,169230,128,0,169309:0:0:0:0:
64,192,169388,128,0,169467:0:0:0:0:
192,192,169388,128,0,169427:0:0:0:0:
320,192,169388,128,0,169467:0:0:0:0:
64,192,169546,128,0,169625:0:0:0:0:
320,192,169546,128,0,169625:0:0:0:0:
320,192,169703,128,0,169743:0:0:0:0:
448,192,169703,128,0,169782:0:0:0:0:
192,192,169703,128,0,169782:0:0:0:0:
64,192,169861,128,0,169940:0:0:0:0:
192,192,169861,128,0,169901:0:0:0:0:
64,192,170019,128,0,170098:0:0:0:0:
320,192,170019,128,0,170098:0:0:0:0:
448,192,170019,128,0,170059:0:0:0:0:
448,192,170177,128,0,170256:0:0:0:0:
320,192,170177,128,0,170217:0:0:0:0:
192,192,170335,128,0,170375:0:0:0:0:
64,192,170335,128,0,170414:0:0:0:0:
320,192,170335,128,0,170414:0:0:0:0:
320,192,170493,128,0,170572:0:0:0:0:
64,192,170493,128,0,170572:0:0:0:0:
192,192,170651,1,0,0:0:0:0:
320,192,170651,1,0,0:0:0:0:
448,192,170651,1,0,0:0:0:0:
192,192,170809,1,0,0:0:0:0:
320,192,170809,1,0,0:0:0:0:
448,192,170809,1,0,0:0:0:0:
192,192,170967,1,0,0:0:0:0:
64,192,170967,1,0,0:0:0:0:
64,192,171046,1,0,0:0:0:0:
192,192,171046,1,0,0:0:0:0:
320,192,171125,1,0,0:0:0:0:
448,192,171125,1,0,0:0:0:0:
448,192,171203,1,0,0:0:0:0:
320,192,171203,1,0,0:0:0:0:
64,192,171282,1,0,0:0:0:0:
192,192,171282,1,0,0:0:0:0:
64,192,171361,1,0,0:0:0:0:
320,192,171361,1,0,0:0:0:0:
192,192,171440,1,0,0:0:0:0:
448,192,171440,1,0,0:0:0:0:
320,192,171519,1,0,0:0:0:0:
448,192,171519,1,0,0:0:0:0:
320,192,171598,1,0,0:0:0:0:
192,192,171598,1,0,0:0:0:0:
64,192,171598,1,0,0:0:0:0:
192,192,171756,1,0,0:0:0:0:
64,192,171914,128,0,172388:0:0:0:0:
192,192,171914,128,0,171993:0:0:0:0:
320,192,171914,128,0,171953:0:0:0:0:
192,192,172072,128,0,172151:0:0:0:0:
448,192,172072,128,0,172151:0:0:0:0:
320,192,172230,128,0,172269:0:0:0:0:
448,192,172230,128,0,172309:0:0:0:0:
320,192,172388,128,0,172861:0:0:0:0:
192,192,172388,128,0,172467:0:0:0:0:
64,192,172546,128,0,172625:0:0:0:0:
448,192,172546,128,0,172625:0:0:0:0:
192,192,172703,128,0,172743:0:0:0:0:
448,192,172703,128,0,172782:0:0:0:0:
64,192,172861,128,0,173335:0:0:0:0:
192,192,172861,128,0,172901:0:0:0:0:
192,192,173019,128,0,173098:0:0:0:0:
448,192,173019,128,0,173098:0:0:0:0:
448,192,173177,128,0,173256:0:0:0:0:
320,192,173177,128,0,173217:0:0:0:0:
448,192,173335,128,0,173809:0:0:0:0:
192,192,173335,128,0,173414:0:0:0:0:
64,192,173493,128,0,173572:0:0:0:0:
320,192,173493,128,0,173572:0:0:0:0:
320,192,173651,128,0,173730:0:0:0:0:
192,192,173651,128,0,173690:0:0:0:0:
320,192,173809,128,0,174125:0:0:0:0:
64,192,173809,128,0,173888:0:0:0:0:
64,192,173967,128,0,174046:0:0:0:0:
448,192,173967,128,0,174046:0:0:0:0:
192,192,174125,128,0,174440:0:0:0:0:
448,192,174125,128,0,174203:0:0:0:0:
320,192,174282,128,0,174361:0:0:0:0:
64,192,174282,128,0,174361:0:0:0:0:
64,192,174440,128,0,176335:0:0:0:0:
320,192,174440,128,0,174480:0:0:0:0:
192,192,174598,128,0,174677:0:0:0:0:
448,192,174598,128,0,174677:0:0:0:0:
448,192,174756,128,0,174835:0:0:0:0:
320,192,174756,128,0,174796:0:0:0:0:
192,192,174914,128,0,174993:0:0:0:0:
320,192,174914,128,0,174953:0:0:0:0:
192,192,175072,128,0,175151:0:0:0:0:
448,192,175072,128,0,175151:0:0:0:0:
320,192,175230,128,0,175269:0:0:0:0:
448,192,175230,128,0,175309:0:0:0:0:
320,192,175388,128,0,175427:0:0:0:0:
192,192,175388,128,0,175467:0:0:0:0:
192,192,175546,128,0,175625:0:0:0:0:
448,192,175546,128,0,175625:0:0:0:0:
320,192,175703,128,0,175743:0:0:0:0:
448,192,175703,128,0,175782:0:0:0:0:
192,192,175861,128,0,175940:0:0:0:0:
320,192,175861,128,0,175901:0:0:0:0:
448,192,176019,128,0,176098:0:0:0:0:
192,192,176019,128,0,176098:0:0:0:0:
448,192,176177,128,0,176256:0:0:0:0:
320,192,176177,128,0,176217:0:0:0:0:
320,192,176335,128,0,176375:0:0:0:0:
192,192,176335,128,0,176414:0:0:0:0:
192,192,176493,128,0,176572:0:0:0:0:
448,192,176493,128,0,176572:0:0:0:0:
320,192,176651,128,0,176690:0:0:0:0:
448,192,176651,128,0,176730:0:0:0:0:
320,192,176809,128,0,176888:0:0:0:0:
192,192,176809,128,0,176888:0:0:0:0:
64,192,176967,128,0,177440:0:0:0:0:
192,192,176967,128,0,177006:0:0:0:0:
192,192,177125,128,0,177203:0:0:0:0:
448,192,177125,128,0,177203:0:0:0:0:
320,192,177282,128,0,177322:0:0:0:0:
448,192,177282,128,0,177361:0:0:0:0:
320,192,177440,128,0,177914:0:0:0:0:
192,192,177440,128,0,177519:0:0:0:0:
64,192,177598,128,0,177677:0:0:0:0:
448,192,177598,128,0,177677:0:0:0:0:
448,192,177756,128,0,177835:0:0:0:0:
192,192,177756,128,0,177796:0:0:0:0:
64,192,177914,128,0,178388:0:0:0:0:
192,192,177914,128,0,177953:0:0:0:0:
192,192,178072,128,0,178151:0:0:0:0:
448,192,178072,128,0,178151:0:0:0:0:
448,192,178230,128,0,178309:0:0:0:0:
320,192,178230,128,0,178269:0:0:0:0:
320,192,178388,128,0,178861:0:0:0:0:
192,192,178388,128,0,178467:0:0:0:0:
64,192,178546,128,0,178625:0:0:0:0:
448,192,178546,128,0,178625:0:0:0:0:
448,192,178703,128,0,178782:0:0:0:0:
192,192,178703,128,0,178743:0:0:0:0:
192,192,178861,128,0,179177:0:0:0:0:
64,192,178861,128,0,178940:0:0:0:0:
448,192,179019,128,0,179098:0:0:0:0:
64,192,179019,128,0,179098:0:0:0:0:
448,192,179177,128,0,179493:0:0:0:0:
320,192,179177,128,0,179217:0:0:0:0:
192,192,179335,128,0,179414:0:0:0:0:
320,192,179335,128,0,179414:0:0:0:0:
320,192,179493,128,0,179967:0:0:0:0:
64,192,179493,128,0,179572:0:0:0:0:
64,192,179651,128,0,179730:0:0:0:0:
448,192,179651,128,0,179730:0:0:0:0:
448,192,179809,128,0,179888:0:0:0:0:
192,192,179809,128,0,179848:0:0:0:0:
448,192,179967,128,0,180440:0:0:0:0:
64,192,179967,128,0,180046:0:0:0:0:
64,192,180125,128,0,180203:0:0:0:0:
320,192,180125,128,0,180203:0:0:0:0:
192,192,180282,128,0,180322:0:0:0:0:
320,192,180282,128,0,180361:0:0:0:0:
320,192,180440,128,0,180914:0:0:0:0:
64,192,180440,128,0,180519:0:0:0:0:
64,192,180598,128,0,180677:0:0:0:0:
448,192,180598,128,0,180677:0:0:0:0:
448,192,180756,128,0,180835:0:0:0:0:
192,192,180756,128,0,180796:0:0:0:0:
192,192,180914,128,0,181388:0:0:0:0:
64,192,180914,128,0,180993:0:0:0:0:
64,192,181072,128,0,181151:0:0:0:0:
448,192,181072,128,0,181151:0:0:0:0:
320,192,181230,128,0,181269:0:0:0:0:
448,192,181230,128,0,181309:0:0:0:0:
320,192,181388,128,0,181546:0:0:0:0:
64,192,181388,128,0,181467:0:0:0:0:
448,192,181546,128,0,181703:0:0:0:0:
192,192,181546,128,0,181625:0:0:0:0:
192,192,181703,128,0,181861:0:0:0:0:
320,192,181703,128,0,181782:0:0:0:0:
64,192,181861,128,0,181940:0:0:0:0:
448,192,181861,128,0,181940:0:0:0:0:
64,192,182019,128,0,182493:0:0:0:0:
192,192,182019,128,0,182098:0:0:0:0:
320,192,182019,128,0,182059:0:0:0:0:
448,192,182019,1,0,0:0:0:0:
192,192,182177,128,0,182256:0:0:0:0:
448,192,182177,128,0,182256:0:0:0:0:
320,192,182335,128,0,182375:0:0:0:0:
448,192,182335,128,0,182414:0:0:0:0:
192,192,182335,1,0,0:0:0:0:
320,192,182493,128,0,182967:0:0:0:0:
192,192,182493,128,0,182572:0:0:0:0:
64,192,182651,128,0,182730:0:0:0:0:
448,192,182651,128,0,182730:0:0:0:0:
192,192,182651,1,0,0:0:0:0:
192,192,182809,128,0,182848:0:0:0:0:
448,192,182809,128,0,182888:0:0:0:0:
64,192,182967,128,0,183440:0:0:0:0:
192,192,182967,128,0,183006:0:0:0:0:
448,192,182967,1,0,0:0:0:0:
192,192,183125,128,0,183203:0:0:0:0:
448,192,183125,128,0,183203:0:0:0:0:
448,192,183282,128,0,183361:0:0:0:0:
320,192,183282,128,0,183322:0:0:0:0:
192,192,183282,1,0,0:0:0:0:
448,192,183440,128,0,183914:0:0:0:0:
192,192,183440,128,0,183519:0:0:0:0:
64,192,183598,128,0,183677:0:0:0:0:
320,192,183598,128,0,183677:0:0:0:0:
192,192,183598,1,0,0:0:0:0:
320,192,183756,128,0,183835:0:0:0:0:
192,192,183756,128,0,183796:0:0:0:0:
320,192,183914,128,0,184230:0:0:0:0:
64,192,183914,128,0,183993:0:0:0:0:
192,192,183914,1,0,0:0:0:0:
64,192,184072,128,0,184151:0:0:0:0:
448,192,184072,128,0,184151:0:0:0:0:
192,192,184230,128,0,184546:0:0:0:0:
448,192,184230,128,0,184309:0:0:0:0:
64,192,184230,1,0,0:0:0:0:
320,192,184388,128,0,184467:0:0:0:0:
64,192,184388,128,0,184467:0:0:0:0:
64,192,184546,128,0,186440:0:0:0:0:
320,192,184546,128,0,184585:0:0:0:0:
448,192,184546,1,0,0:0:0:0:
192,192,184703,128,0,184782:0:0:0:0:
448,192,184703,128,0,184782:0:0:0:0:
448,192,184861,128,0,184940:0:0:0:0:
320,192,184861,128,0,184901:0:0:0:0:
192,192,184861,1,0,0:0:0:0:
192,192,185019,128,0,185098:0:0:0:0:
320,192,185019,128,0,185059:0:0:0:0:
192,192,185177,128,0,185256:0:0:0:0:
448,192,185177,128,0,185256:0:0:0:0:
320,192,185177,1,0,0:0:0:0:
320,192,185335,128,0,185375:0:0:0:0:
448,192,185335,128,0,185414:0:0:0:0:
320,192,185493,128,0,185532:0:0:0:0:
192,192,185493,128,0,185572:0:0:0:0:
448,192,185493,1,0,0:0:0:0:
192,192,185651,128,0,185730:0:0:0:0:
448,192,185651,128,0,185730:0:0:0:0:
320,192,185809,128,0,185848:0:0:0:0:
448,192,185809,128,0,185888:0:0:0:0:
192,192,185809,1,0,0:0:0:0:
192,192,185967,128,0,186046:0:0:0:0:
320,192,185967,128,0,186006:0:0:0:0:
448,192,186125,128,0,186203:0:0:0:0:
192,192,186125,128,0,186203:0:0:0:0:
320,192,186125,1,0,0:0:0:0:
448,192,186282,128,0,186361:0:0:0:0:
320,192,186282,128,0,186322:0:0:0:0:
320,192,186440,128,0,186480:0:0:0:0:
192,192,186440,128,0,186519:0:0:0:0:
448,192,186440,1,0,0:0:0:0:
192,192,186598,128,0,186677:0:0:0:0:
448,192,186598,128,0,186677:0:0:0:0:
64,192,186677,1,0,0:0:0:0:
320,192,186756,128,0,186796:0:0:0:0:
448,192,186756,128,0,186835:0:0:0:0:
192,192,186756,1,0,0:0:0:0:
320,192,186914,128,0,186993:0:0:0:0:
192,192,186914,128,0,186993:0:0:0:0:
64,192,187072,128,0,187546:0:0:0:0:
192,192,187072,128,0,187111:0:0:0:0:
448,192,187072,1,0,0:0:0:0:
192,192,187230,128,0,187309:0:0:0:0:
448,192,187230,128,0,187309:0:0:0:0:
320,192,187388,128,0,187427:0:0:0:0:
448,192,187388,128,0,187467:0:0:0:0:
192,192,187388,1,0,0:0:0:0:
320,192,187546,128,0,188019:0:0:0:0:
192,192,187546,128,0,187625:0:0:0:0:
64,192,187703,128,0,187782:0:0:0:0:
448,192,187703,128,0,187782:0:0:0:0:
192,192,187703,1,0,0:0:0:0:
448,192,187861,128,0,187940:0:0:0:0:
192,192,187861,128,0,187901:0:0:0:0:
64,192,188019,128,0,188493:0:0:0:0:
192,192,188019,128,0,188059:0:0:0:0:
448,192,188019,1,0,0:0:0:0:
192,192,188177,128,0,188256:0:0:0:0:
448,192,188177,128,0,188256:0:0:0:0:
448,192,188335,128,0,188414:0:0:0:0:
320,192,188335,128,0,188375:0:0:0:0:
192,192,188335,1,0,0:0:0:0:
320,192,188493,128,0,188967:0:0:0:0:
192,192,188493,128,0,188572:0:0:0:0:
64,192,188651,128,0,188730:0:0:0:0:
448,192,188651,128,0,188730:0:0:0:0:
192,192,188651,1,0,0:0:0:0:
448,192,188809,128,0,188888:0:0:0:0:
192,192,188809,128,0,188848:0:0:0:0:
192,192,188967,128,0,189282:0:0:0:0:
64,192,188967,128,0,189046:0:0:0:0:
448,192,188967,1,0,0:0:0:0:
448,192,189125,128,0,189203:0:0:0:0:
64,192,189125,128,0,189203:0:0:0:0:
448,192,189282,128,0,189598:0:0:0:0:
320,192,189282,128,0,189322:0:0:0:0:
64,192,189282,1,0,0:0:0:0:
192,192,189440,128,0,189519:0:0:0:0:
320,192,189440,128,0,189519:0:0:0:0:
320,192,189598,128,0,190072:0:0:0:0:
448,192,190072,128,0,190546:0:0:0:0:
320,192,190546,128,0,191019:0:0:0:0:
64,192,190546,1,0,0:0:0:0:
192,192,191019,128,0,191493:0:0:0:0:
64,192,191177,1,0,0:0:0:0:
320,192,191493,128,0,191651:0:0:0:0:
64,192,191493,1,0,0:0:0:0:
448,192,191493,1,0,0:0:0:0:
448,192,191651,128,0,191809:0:0:0:0:
192,192,191809,128,0,191967:0:0:0:0:
320,192,191809,128,0,192125:0:0:0:0:
64,192,191967,128,0,192046:0:0:0:0:
192,192,192006,128,0,192125:0:0:0:0:
64,192,192085,128,0,192125:0:0:0:0:
448,192,192125,128,0,192519:0:0:0:0:
320,192,192282,128,0,192598:0:0:0:0:
192,192,192401,128,0,192677:0:0:0:0:
64,192,192480,128,0,192717:0:0:0:0:
448,192,192559,128,0,192756:0:0:0:0:
320,192,192638,128,0,192756:0:0:0:0:
192,192,192717,128,0,192756:0:0:0:0:
64,192,192756,128,0,192835:0:0:0:0:
64,192,192914,1,0,0:0:0:0:
192,192,193072,128,0,193111:0:0:0:0:
448,192,193072,128,0,193190:0:0:0:0:
320,192,193072,128,0,193151:0:0:0:0:
192,192,193230,1,0,0:0:0:0:
64,192,193230,1,0,0:0:0:0:
448,192,193388,128,0,193506:0:0:0:0:
320,192,193388,128,0,193467:0:0:0:0:
192,192,193388,128,0,193427:0:0:0:0:
320,192,193546,128,0,193585:0:0:0:0:
192,192,193546,128,0,193625:0:0:0:0:
64,192,193546,128,0,193664:0:0:0:0:
320,192,193703,128,0,193782:0:0:0:0:
192,192,193703,128,0,193743:0:0:0:0:
448,192,193703,128,0,193822:0:0:0:0:
64,192,193861,128,0,193980:0:0:0:0:
320,192,193861,128,0,193901:0:0:0:0:
192,192,193861,128,0,193940:0:0:0:0:
320,192,194019,1,0,0:0:0:0:
448,192,194019,1,0,0:0:0:0:
192,192,194177,1,0,0:0:0:0:
192,192,194256,1,0,0:0:0:0:
320,192,194335,1,0,0:0:0:0:
192,192,194493,1,0,0:0:0:0:
448,192,194572,1,0,0:0:0:0:
448,192,194651,128,0,195046:0:0:0:0:
320,192,194809,128,0,195125:0:0:0:0:
192,192,194927,128,0,195203:0:0:0:0:
64,192,195006,128,0,195243:0:0:0:0:
448,192,195085,128,0,195282:0:0:0:0:
320,192,195164,128,0,195282:0:0:0:0:
192,192,195243,128,0,195282:0:0:0:0:
64,192,195282,128,0,195361:0:0:0:0:
64,192,195440,1,0,0:0:0:0:
192,192,195598,128,0,195638:0:0:0:0:
448,192,195598,128,0,195717:0:0:0:0:
320,192,195598,128,0,195677:0:0:0:0:
192,192,195756,1,0,0:0:0:0:
64,192,195756,1,0,0:0:0:0:
448,192,195914,128,0,196032:0:0:0:0:
320,192,195914,128,0,195993:0:0:0:0:
192,192,195914,128,0,195953:0:0:0:0:
320,192,196072,128,0,196111:0:0:0:0:
192,192,196072,128,0,196151:0:0:0:0:
64,192,196072,128,0,196190:0:0:0:0:
320,192,196230,128,0,196309:0:0:0:0:
192,192,196230,128,0,196269:0:0:0:0:
448,192,196230,128,0,196348:0:0:0:0:
64,192,196388,128,0,196506:0:0:0:0:
320,192,196388,128,0,196427:0:0:0:0:
192,192,196388,128,0,196467:0:0:0:0:
320,192,196546,1,0,0:0:0:0:
448,192,196546,1,0,0:0:0:0:
192,192,196703,128,0,196782:0:0:0:0:
192,192,197019,128,0,197098:0:0:0:0:
64,192,197098,1,0,0:0:0:0:
448,192,197177,128,0,197572:0:0:0:0:
320,192,197335,128,0,197651:0:0:0:0:
192,192,197453,128,0,197730:0:0:0:0:
64,192,197532,128,0,197769:0:0:0:0:
448,192,197611,128,0,197809:0:0:0:0:
320,192,197690,128,0,197809:0:0:0:0:
192,192,197769,128,0,197809:0:0:0:0:
64,192,197809,128,0,197888:0:0:0:0:
64,192,197967,1,0,0:0:0:0:
192,192,198125,128,0,198164:0:0:0:0:
448,192,198125,128,0,198243:0:0:0:0:
320,192,198125,128,0,198203:0:0:0:0:
192,192,198282,1,0,0:0:0:0:
64,192,198282,1,0,0:0:0:0:
448,192,198440,128,0,198559:0:0:0:0:
320,192,198440,128,0,198519:0:0:0:0:
192,192,198440,128,0,198480:0:0:0:0:
320,192,198598,128,0,198638:0:0:0:0:
192,192,198598,128,0,198677:0:0:0:0:
64,192,198598,128,0,198717:0:0:0:0:
320,192,198756,128,0,198835:0:0:0:0:
192,192,198756,128,0,198796:0:0:0:0:
448,192,198756,128,0,198875:0:0:0:0:
64,192,198914,128,0,199032:0:0:0:0:
320,192,198914,128,0,198953:0:0:0:0:
192,192,198914,128,0,198993:0:0:0:0:
320,192,199072,1,0,0:0:0:0:
448,192,199072,1,0,0:0:0:0:
192,192,199230,1,0,0:0:0:0:
192,192,199309,1,0,0:0:0:0:
320,192,199388,1,0,0:0:0:0:
192,192,199546,1,0,0:0:0:0:
448,192,199625,1,0,0:0:0:0:
448,192,199703,128,0,200098:0:0:0:0:
320,192,199861,128,0,200177:0:0:0:0:
192,192,199980,128,0,200256:0:0:0:0:
64,192,200059,128,0,200296:0:0:0:0:
448,192,200138,128,0,200335:0:0:0:0:
320,192,200217,128,0,200335:0:0:0:0:
192,192,200296,128,0,200335:0:0:0:0:
64,192,200335,128,0,200414:0:0:0:0:
64,192,200493,1,0,0:0:0:0:
192,192,200651,128,0,200690:0:0:0:0:
448,192,200651,128,0,200769:0:0:0:0:
320,192,200651,128,0,200730:0:0:0:0:
192,192,200809,1,0,0:0:0:0:
64,192,200809,1,0,0:0:0:0:
448,192,200967,128,0,201085:0:0:0:0:
320,192,200967,128,0,201046:0:0:0:0:
192,192,200967,128,0,201006:0:0:0:0:
320,192,201125,128,0,201164:0:0:0:0:
192,192,201125,128,0,201203:0:0:0:0:
64,192,201125,128,0,201243:0:0:0:0:
320,192,201282,128,0,201361:0:0:0:0:
192,192,201282,128,0,201322:0:0:0:0:
448,192,201282,128,0,201401:0:0:0:0:
64,192,201440,128,0,201559:0:0:0:0:
320,192,201440,128,0,201480:0:0:0:0:
192,192,201440,128,0,201519:0:0:0:0:
320,192,201598,1,0,0:0:0:0:
448,192,201598,128,0,201914:0:0:0:0:
64,192,201756,1,0,0:0:0:0:
192,192,201914,128,0,202230:0:0:0:0:
320,192,202072,1,0,0:0:0:0:
448,192,202151,1,0,0:0:0:0:
64,192,202230,128,0,202625:0:0:0:0:
192,192,202388,128,0,202703:0:0:0:0:
320,192,202506,128,0,202782:0:0:0:0:
448,192,202585,128,0,202822:0:0:0:0:
64,192,202664,128,0,202861:0:0:0:0:
192,192,202743,128,0,202861:0:0:0:0:
320,192,202822,128,0,202861:0:0:0:0:
448,192,202861,128,0,202940:0:0:0:0:
448,192,203019,1,0,0:0:0:0:
320,192,203177,128,0,203256:0:0:0:0:
448,192,203177,128,0,203296:0:0:0:0:
192,192,203177,128,0,203217:0:0:0:0:
64,192,203335,1,0,0:0:0:0:
192,192,203335,1,0,0:0:0:0:
192,192,203493,128,0,203532:0:0:0:0:
320,192,203493,128,0,203572:0:0:0:0:
448,192,203493,128,0,203611:0:0:0:0:
64,192,203651,128,0,203769:0:0:0:0:
192,192,203651,128,0,203730:0:0:0:0:
320,192,203651,128,0,203690:0:0:0:0:
448,192,203809,128,0,203927:0:0:0:0:
192,192,203809,128,0,203848:0:0:0:0:
320,192,203809,128,0,203888:0:0:0:0:
192,192,203967,128,0,204046:0:0:0:0:
320,192,203967,128,0,204006:0:0:0:0:
64,192,203967,128,0,204085:0:0:0:0:
448,192,204125,1,0,0:0:0:0:
320,192,204125,1,0,0:0:0:0:
192,192,204282,1,0,0:0:0:0:
192,192,204361,1,0,0:0:0:0:
320,192,204440,1,0,0:0:0:0:
192,192,204598,1,0,0:0:0:0:
448,192,204677,1,0,0:0:0:0:
448,192,204756,128,0,205151:0:0:0:0:
320,192,204914,128,0,205230:0:0:0:0:
192,192,205032,128,0,205309:0:0:0:0:
64,192,205111,128,0,205348:0:0:0:0:
448,192,205190,128,0,205388:0:0:0:0:
320,192,205269,128,0,205388:0:0:0:0:
192,192,205348,128,0,205388:0:0:0:0:
64,192,205388,128,0,205467:0:0:0:0:
64,192,205546,1,0,0:0:0:0:
320,192,205703,128,0,205782:0:0:0:0:
448,192,205703,128,0,205822:0:0:0:0:
192,192,205703,128,0,205743:0:0:0:0:
64,192,205861,1,0,0:0:0:0:
192,192,205861,1,0,0:0:0:0:
192,192,206019,128,0,206059:0:0:0:0:
320,192,206019,128,0,206098:0:0:0:0:
448,192,206019,128,0,206138:0:0:0:0:
64,192,206177,128,0,206296:0:0:0:0:
192,192,206177,128,0,206256:0:0:0:0:
320,192,206177,128,0,206217:0:0:0:0:
448,192,206335,128,0,206453:0:0:0:0:
192,192,206335,128,0,206375:0:0:0:0:
320,192,206335,128,0,206414:0:0:0:0:
192,192,206493,128,0,206572:0:0:0:0:
320,192,206493,128,0,206532:0:0:0:0:
64,192,206493,128,0,206611:0:0:0:0:
448,192,206651,1,0,0:0:0:0:
320,192,206651,1,0,0:0:0:0:
192,192,206809,128,0,206888:0:0:0:0:
192,192,207125,128,0,207203:0:0:0:0:
64,192,207203,1,0,0:0:0:0:
320,192,207282,128,0,207401:0:0:0:0:
320,192,207440,128,0,207519:0:0:0:0:
64,192,207519,1,0,0:0:0:0:
320,192,207598,128,0,207638:0:0:0:0:
448,192,207756,128,0,207875:0:0:0:0:
192,192,207756,1,0,0:0:0:0:
448,192,207914,128,0,207993:0:0:0:0:
192,192,207914,1,0,0:0:0:0:
64,192,207914,1,0,0:0:0:0:
448,192,208072,128,0,208111:0:0:0:0:
64,192,208072,1,0,0:0:0:0:
192,192,208230,128,0,208348:0:0:0:0:
320,192,208230,1,0,0:0:0:0:
192,192,208388,128,0,208467:0:0:0:0:
448,192,208467,1,0,0:0:0:0:
192,192,208546,128,0,208585:0:0:0:0:
320,192,208703,128,0,208822:0:0:0:0:
64,192,208782,1,0,0:0:0:0:
320,192,208861,128,0,208940:0:0:0:0:
192,192,208861,1,0,0:0:0:0:
320,192,209019,128,0,209059:0:0:0:0:
64,192,209019,1,0,0:0:0:0:
192,192,209177,128,0,209296:0:0:0:0:
64,192,209177,1,0,0:0:0:0:
448,192,209177,1,0,0:0:0:0:
192,192,209335,128,0,209414:0:0:0:0:
448,192,209335,1,0,0:0:0:0:
448,192,209493,128,0,209611:0:0:0:0:
448,192,209651,128,0,209730:0:0:0:0:
64,192,209651,1,0,0:0:0:0:
192,192,209730,1,0,0:0:0:0:
320,192,209809,128,0,209927:0:0:0:0:
320,192,209967,128,0,210046:0:0:0:0:
64,192,210046,1,0,0:0:0:0:
320,192,210125,128,0,210164:0:0:0:0:
192,192,210125,1,0,0:0:0:0:
448,192,210282,128,0,210401:0:0:0:0:
448,192,210440,128,0,210519:0:0:0:0:
192,192,210440,1,0,0:0:0:0:
64,192,210440,1,0,0:0:0:0:
448,192,210598,128,0,210638:0:0:0:0:
192,192,210756,128,0,210875:0:0:0:0:
320,192,210756,1,0,0:0:0:0:
192,192,210914,128,0,210993:0:0:0:0:
448,192,210993,1,0,0:0:0:0:
192,192,211072,128,0,211111:0:0:0:0:
64,192,211230,128,0,211348:0:0:0:0:
192,192,211309,1,0,0:0:0:0:
64,192,211388,128,0,211467:0:0:0:0:
320,192,211388,1,0,0:0:0:0:
448,192,211388,1,0,0:0:0:0:
64,192,211546,128,0,211585:0:0:0:0:
320,192,211546,1,0,0:0:0:0:
448,192,211703,128,0,211782:0:0:0:0:
320,192,211861,128,0,211940:0:0:0:0:
192,192,212019,128,0,212098:0:0:0:0:
64,192,212177,128,0,212256:0:0:0:0:
192,192,212335,128,0,212414:0:0:0:0:
320,192,212335,1,0,0:0:0:0:
192,192,212493,128,0,212532:0:0:0:0:
64,192,212493,1,0,0:0:0:0:
320,192,212572,1,0,0:0:0:0:
192,192,212651,128,0,212690:0:0:0:0:
448,192,212651,1,0,0:0:0:0:
320,192,212809,128,0,212888:0:0:0:0:
64,192,212809,1,0,0:0:0:0:
320,192,212967,128,0,213006:0:0:0:0:
192,192,212967,1,0,0:0:0:0:
64,192,212967,1,0,0:0:0:0:
320,192,213125,128,0,213164:0:0:0:0:
448,192,213125,1,0,0:0:0:0:
192,192,213282,128,0,213361:0:0:0:0:
320,192,213282,1,0,0:0:0:0:
192,192,213440,128,0,213480:0:0:0:0:
64,192,213440,1,0,0:0:0:0:
192,192,213598,128,0,213638:0:0:0:0:
320,192,213598,1,0,0:0:0:0:
448,192,213756,128,0,213835:0:0:0:0:
64,192,213756,1,0,0:0:0:0:
320,192,213835,1,0,0:0:0:0:
448,192,213914,128,0,213953:0:0:0:0:
192,192,213914,1,0,0:0:0:0:
448,192,214072,128,0,214111:0:0:0:0:
320,192,214072,1,0,0:0:0:0:
192,192,214230,128,0,214309:0:0:0:0:
320,192,214230,1,0,0:0:0:0:
448,192,214230,1,0,0:0:0:0:
192,192,214388,128,0,214427:0:0:0:0:
320,192,214388,1,0,0:0:0:0:
64,192,214546,128,0,214625:0:0:0:0:
64,192,214703,128,0,214743:0:0:0:0:
320,192,214703,1,0,0:0:0:0:
448,192,214782,1,0,0:0:0:0:
192,192,214861,128,0,214940:0:0:0:0:
64,192,214861,1,0,0:0:0:0:
192,192,215019,128,0,215059:0:0:0:0:
448,192,215098,1,0,0:0:0:0:
192,192,215177,128,0,215217:0:0:0:0:
320,192,215177,1,0,0:0:0:0:
192,192,215335,128,0,215375:0:0:0:0:
64,192,215335,1,0,0:0:0:0:
192,192,215493,128,0,215532:0:0:0:0:
320,192,215493,1,0,0:0:0:0:
448,192,215493,1,0,0:0:0:0:
192,192,215651,128,0,215690:0:0:0:0:
64,192,215651,1,0,0:0:0:0:
192,192,215809,128,0,215848:0:0:0:0:
320,192,215809,1,0,0:0:0:0:
192,192,215967,128,0,216006:0:0:0:0:
64,192,215967,1,0,0:0:0:0:
192,192,216125,128,0,216164:0:0:0:0:
448,192,216125,1,0,0:0:0:0:
192,192,216282,128,0,216322:0:0:0:0:
320,192,216282,1,0,0:0:0:0:
64,192,216361,1,0,0:0:0:0:
192,192,216440,128,0,216480:0:0:0:0:
448,192,216440,1,0,0:0:0:0:
192,192,216598,128,0,216638:0:0:0:0:
320,192,216598,1,0,0:0:0:0:
64,192,216756,1,0,0:0:0:0:
448,192,216756,1,0,0:0:0:0:
192,192,216914,1,0,0:0:0:0:
448,192,217072,1,0,0:0:0:0:
320,192,217230,1,0,0:0:0:0:
320,192,217309,1,0,0:0:0:0:
64,192,217388,128,0,217467:0:0:0:0:
192,192,217388,1,0,0:0:0:0:
64,192,217546,128,0,217585:0:0:0:0:
320,192,217546,1,0,0:0:0:0:
448,192,217625,1,0,0:0:0:0:
64,192,217703,128,0,217743:0:0:0:0:
320,192,217703,1,0,0:0:0:0:
192,192,217861,128,0,217940:0:0:0:0:
448,192,217861,1,0,0:0:0:0:
192,192,218019,128,0,218059:0:0:0:0:
320,192,218019,1,0,0:0:0:0:
64,192,218019,1,0,0:0:0:0:
192,192,218177,128,0,218217:0:0:0:0:
448,192,218177,1,0,0:0:0:0:
64,192,218335,128,0,218414:0:0:0:0:
320,192,218335,1,0,0:0:0:0:
64,192,218493,128,0,218532:0:0:0:0:
192,192,218493,1,0,0:0:0:0:
64,192,218651,128,0,218690:0:0:0:0:
320,192,218651,1,0,0:0:0:0:
192,192,218809,128,0,218888:0:0:0:0:
448,192,218809,1,0,0:0:0:0:
320,192,218888,1,0,0:0:0:0:
192,192,218967,128,0,219006:0:0:0:0:
64,192,218967,1,0,0:0:0:0:
192,192,219125,128,0,219164:0:0:0:0:
448,192,219125,1,0,0:0:0:0:
320,192,219282,128,0,219361:0:0:0:0:
64,192,219282,1,0,0:0:0:0:
192,192,219282,1,0,0:0:0:0:
320,192,219440,128,0,219480:0:0:0:0:
448,192,219440,1,0,0:0:0:0:
448,192,219598,128,0,219677:0:0:0:0:
192,192,219598,1,0,0:0:0:0:
448,192,219756,128,0,219796:0:0:0:0:
192,192,219756,1,0,0:0:0:0:
64,192,219835,1,0,0:0:0:0:
320,192,219914,128,0,219993:0:0:0:0:
192,192,219914,1,0,0:0:0:0:
320,192,220072,128,0,220111:0:0:0:0:
192,192,220151,1,0,0:0:0:0:
320,192,220230,128,0,220269:0:0:0:0:
64,192,220230,1,0,0:0:0:0:
448,192,220388,128,0,220467:0:0:0:0:
192,192,220388,1,0,0:0:0:0:
448,192,220546,128,0,220585:0:0:0:0:
64,192,220546,1,0,0:0:0:0:
192,192,220546,1,0,0:0:0:0:
448,192,220703,128,0,220743:0:0:0:0:
320,192,220703,1,0,0:0:0:0:
320,192,220861,128,0,220940:0:0:0:0:
64,192,220861,1,0,0:0:0:0:
320,192,221019,128,0,221059:0:0:0:0:
448,192,221019,1,0,0:0:0:0:
320,192,221177,128,0,221217:0:0:0:0:
64,192,221177,1,0,0:0:0:0:
192,192,221335,128,0,221414:0:0:0:0:
448,192,221335,1,0,0:0:0:0:
320,192,221414,1,0,0:0:0:0:
192,192,221493,128,0,221532:0:0:0:0:
448,192,221493,1,0,0:0:0:0:
192,192,221651,128,0,221690:0:0:0:0:
64,192,221651,1,0,0:0:0:0:
320,192,221809,128,0,221888:0:0:0:0:
448,192,221809,1,0,0:0:0:0:
64,192,221967,128,0,222046:0:0:0:0:
192,192,221967,1,0,0:0:0:0:
192,192,222125,128,0,222203:0:0:0:0:
320,192,222125,1,0,0:0:0:0:
64,192,222282,128,0,222361:0:0:0:0:
448,192,222282,1,0,0:0:0:0:
320,192,222361,1,0,0:0:0:0:
192,192,222440,128,0,222519:0:0:0:0:
192,192,222598,128,0,222638:0:0:0:0:
192,192,222756,128,0,222796:0:0:0:0:
320,192,222914,128,0,222993:0:0:0:0:
320,192,223072,128,0,223111:0:0:0:0:
320,192,223230,128,0,223269:0:0:0:0:
192,192,223388,128,0,223467:0:0:0:0:
192,192,223546,128,0,223585:0:0:0:0:
192,192,223703,128,0,223743:0:0:0:0:
448,192,223861,128,0,223940:0:0:0:0:
448,192,224019,128,0,224059:0:0:0:0:
448,192,224177,128,0,224217:0:0:0:0:
192,192,224335,128,0,224414:0:0:0:0:
192,192,224493,128,0,224532:0:0:0:0:
64,192,224651,128,0,224730:0:0:0:0:
64,192,224809,128,0,224848:0:0:0:0:
192,192,224967,128,0,225046:0:0:0:0:
192,192,225125,128,0,225164:0:0:0:0:
192,192,225282,128,0,225322:0:0:0:0:
192,192,225440,128,0,225480:0:0:0:0:
192,192,225598,128,0,225638:0:0:0:0:
192,192,225756,128,0,225796:0:0:0:0:
192,192,225914,128,0,225953:0:0:0:0:
192,192,226072,128,0,226111:0:0:0:0:
192,192,226230,128,0,226269:0:0:0:0:
192,192,226388,128,0,226427:0:0:0:0:
192,192,226546,128,0,226585:0:0:0:0:
192,192,226703,128,0,226743:0:0:0:0:
64,192,226861,1,0,0:0:0:0:
192,192,227019,1,0,0:0:0:0:
448,192,227177,1,0,0:0:0:0:
320,192,227335,1,0,0:0:0:0:
64,192,227493,128,0,227572:0:0:0:0:
64,192,227651,128,0,227690:0:0:0:0:
64,192,227809,128,0,227848:0:0:0:0:
192,192,227967,128,0,228046:0:0:0:0:
192,192,228125,128,0,228164:0:0:0:0:
192,192,228282,128,0,228322:0:0:0:0:
64,192,228440,128,0,228519:0:0:0:0:
64,192,228598,128,0,228638:0:0:0:0:
64,192,228756,128,0,228796:0:0:0:0:
192,192,228914,128,0,228993:0:0:0:0:
192,192,229072,128,0,229111:0:0:0:0:
192,192,229230,128,0,229269:0:0:0:0:
320,192,229388,128,0,229467:0:0:0:0:
320,192,229546,128,0,229585:0:0:0:0:
448,192,229703,128,0,229782:0:0:0:0:
448,192,229861,128,0,229901:0:0:0:0:
320,192,230019,128,0,230098:0:0:0:0:
320,192,230177,128,0,230217:0:0:0:0:
320,192,230335,128,0,230375:0:0:0:0:
448,192,230493,128,0,230572:0:0:0:0:
448,192,230651,128,0,230690:0:0:0:0:
448,192,230809,128,0,230848:0:0:0:0:
320,192,230967,128,0,231046:0:0:0:0:
320,192,231125,128,0,231164:0:0:0:0:
320,192,231282,128,0,231322:0:0:0:0:
192,192,231440,128,0,231519:0:0:0:0:
192,192,231598,128,0,231638:0:0:0:0:
192,192,231756,128,0,231796:0:0:0:0:
320,192,231914,128,0,231993:0:0:0:0:
64,192,232072,128,0,232151:0:0:0:0:
192,192,232230,128,0,232309:0:0:0:0:
64,192,232388,128,0,232467:0:0:0:0:
320,192,232546,1,0,0:0:0:0:
320,192,232703,1,0,0:0:0:0:
192,192,232782,128,0,232861:0:0:0:0:
320,192,232861,1,0,0:0:0:0:
320,192,233019,1,0,0:0:0:0:
192,192,233098,128,0,233177:0:0:0:0:
320,192,233177,1,0,0:0:0:0:
320,192,233335,1,0,0:0:0:0:
192,192,233414,128,0,233493:0:0:0:0:
320,192,233493,1,0,0:0:0:0:
320,192,233651,1,0,0:0:0:0:
192,192,233730,128,0,233809:0:0:0:0:
320,192,233809,1,0,0:0:0:0:
320,192,233967,1,0,0:0:0:0:
192,192,234046,128,0,234125:0:0:0:0:
320,192,234125,1,0,0:0:0:0:
320,192,234282,1,0,0:0:0:0:
192,192,234361,128,0,234440:0:0:0:0:
320,192,234440,1,0,0:0:0:0:
320,192,234598,1,0,0:0:0:0:
192,192,234677,128,0,234756:0:0:0:0:
320,192,234756,1,0,0:0:0:0:
320,192,234914,1,0,0:0:0:0:
192,192,234993,128,0,235072:0:0:0:0:
