osu file format v14

[General]
AudioFilename: sideflip (tpz Despair Remix).mp3
AudioLeadIn: 0
PreviewTime: 81276
Countdown: 0
SampleSet: Soft
StackLeniency: 0.5
Mode: 0
LetterboxInBreaks: 0
WidescreenStoryboard: 0

[Editor]
DistanceSpacing: 1.3
BeatDivisor: 4
GridSize: 4
TimelineZoom: 2.4

[Metadata]
Title:sideflip (tpz Despair Remix)
TitleUnicode:sideflip (tpz Despair Remix)
Artist:C-Show
ArtistUnicode:C-Show
Creator:DeRandom Otaku
Version:Hard
Source:
Tags:kakattekoyeah tpaz t+pazolite Don't waste me! snownino_ -_Frontier_- shockolatte
BeatmapID:1739923
BeatmapSetID:804233

[Difficulty]
HPDrainRate:4.8
CircleSize:3.8
OverallDifficulty:6
ApproachRate:8
SliderMultiplier:1.5
SliderTickRate:1

[Events]
//Background and Video events
0,0,"bg.jpg",0,0
//Break Periods
2,41055,50210
//Storyboard Layer 0 (Background)
//Storyboard Layer 1 (Fail)
//Storyboard Layer 2 (Pass)
//Storyboard Layer 3 (Foreground)
//Storyboard Sound Samples

[TimingPoints]
434,315.789473684211,4,2,1,35,1,0
434,-133.333333333333,4,2,1,35,0,0
20644,-166.666666666667,4,2,1,45,0,0
23328,-166.666666666667,4,2,1,10,0,0
25697,-166.666666666667,4,2,1,45,0,0
33434,-166.666666666667,4,2,1,10,0,0
35802,-166.666666666667,4,2,1,45,0,0
50960,-117.647058823529,4,2,1,65,0,0
58539,-117.647058823529,4,2,1,45,0,0
61065,-100,4,2,1,85,0,1
71170,-125,4,2,1,85,0,1
71802,-100,4,2,1,85,0,1
76223,-117.647058823529,4,2,1,85,0,0
81276,-100,4,2,1,85,0,1
91381,-125,4,2,1,85,0,1
92012,-100,4,2,1,85,0,1
96434,-125,4,2,1,85,0,0
101486,-166.666666666667,4,2,1,55,0,0
104170,-166.666666666667,4,2,1,10,0,0
106539,-166.666666666667,4,2,1,55,0,0
114276,-166.666666666667,4,2,1,10,0,0
116644,-166.666666666667,4,2,1,55,0,0
121697,-142.857142857143,4,2,1,50,0,0
124381,-142.857142857143,4,2,1,10,0,0
126749,-142.857142857143,4,2,1,50,0,0
134486,-142.857142857143,4,2,1,10,0,0
136855,-142.857142857143,4,2,1,55,0,0
139381,-142.857142857143,4,2,1,60,0,0
141907,-142.857142857143,4,2,1,55,0,0
148223,-117.647058823529,4,2,1,55,0,0
151381,-117.647058823529,4,2,1,65,0,0
152012,-95.2380952380952,4,2,1,95,0,1
172144,-95.2380952380952,4,2,1,5,0,1
172223,-95.2380952380952,4,2,1,95,0,1
189907,-100,4,2,1,95,0,0
190855,-100,4,2,1,85,0,0
191802,-117.647058823529,4,2,1,85,0,0
192355,-117.647058823529,4,2,1,10,0,0
192434,-100,4,2,1,85,0,1
202539,-125,4,2,1,85,0,1
203170,-100,4,2,1,85,0,1
207591,-117.647058823529,4,2,1,85,0,0
212170,-133.333333333333,4,2,1,70,0,0
212644,-117.647058823529,4,2,1,55,0,0
222749,-166.666666666667,4,2,1,35,0,0
225434,-166.666666666667,4,2,1,5,0,0
227802,-166.666666666667,4,2,1,35,0,0
233012,-166.666666666667,4,2,1,5,0,0

[Colours]
Combo1 : 228,92,225
Combo2 : 0,128,192
Combo3 : 128,128,255
Combo4 : 192,192,192

[HitObjects]
34,315,434,6,0,P|80:299|143:311,1,112.500004291535,2|0,0:0|0:0,0:0:0:0:
207,341,907,2,0,P|261:352|314:336,1,112.500004291535,0|0,0:0|0:0,0:0:0:0:
379,370,1381,2,0,P|365:326|377:262,1,112.500004291535,0|0,0:0|0:0,0:0:0:0:
429,209,1855,2,0,P|441:154|426:101,1,112.500004291535,0|0,0:0|0:0,0:0:0:0:
380,44,2328,2,0,P|353:49|313:51,1,56.2500021457673,0|0,0:0|0:0,0:0:0:0:
252,34,2644,2,0,P|223:35|196:41,1,56.2500021457673,0|0,0:0|0:0,0:0:0:0:
128,13,2960,6,0,P|150:55|128:117,1,112.500004291535,2|0,0:0|0:0,0:0:0:0:
81,169,3434,2,0,P|61:220|83:270,1,112.500004291535,0|0,0:0|0:0,0:0:0:0:
130,326,3907,2,0,P|168:305|235:305,1,112.500004291535,0|0,0:0|0:0,0:0:0:0:
295,347,4381,2,0,P|350:350|400:326,1,112.500004291535,0|0,0:0|0:0,0:0:0:0:
452,274,4855,2,0,P|444:242|446:208,1,56.2500021457673,0|0,0:0|0:0,0:0:0:0:
493,165,5170,2,0,P|492:136|485:109,1,56.2500021457673,0|0,0:0|0:0,0:0:0:0:
451,44,5486,6,0,P|403:25|325:35,1,112.500004291535,2|0,0:0|0:0,0:0:0:0:
291,80,5960,2,0,P|235:83|183:64,1,112.500004291535,0|0,0:0|0:0,0:0:0:0:
130,13,6434,2,0,L|132:138,1,112.500004291535,0|0,0:0|0:0,0:0:0:0:
61,145,6907,2,0,L|63:270,1,112.500004291535,0|0,0:0|0:0,0:0:0:0:
65,331,7381,2,0,P|90:336|135:329,1,56.2500021457673,0|0,0:0|0:0,0:0:0:0:
182,293,7697,2,0,P|209:290|237:295,1,56.2500021457673,0|0,0:0|0:0,0:0:0:0:
287,349,8012,6,0,L|286:228,1,112.500004291535,2|0,0:0|0:0,0:0:0:0:
234,184,8486,2,0,L|234:71,1,112.500004291535,0|0,0:0|0:0,0:0:0:0:
286,19,8960,2,0,P|342:20|389:60,1,112.500004291535,0|0,0:0|0:0,0:0:0:0:
332,105,9434,2,0,P|375:138|431:139,1,112.500004291535,0|0,0:0|0:0,0:0:0:0:
503,126,9907,2,0,L|497:199,1,56.2500021457673,0|0,0:0|0:0,0:0:0:0:
435,220,10223,2,0,L|439:276,1,56.2500021457673,0|0,0:0|0:0,0:0:0:0:
465,344,10539,6,0,P|424:320|363:332,1,112.500004291535,2|0,0:0|0:0,0:0:0:0:
294,358,11012,2,0,P|268:309|282:255,1,112.500004291535,0|0,0:0|0:0,0:0:0:0:
325,196,11486,2,0,P|338:142|313:93,1,112.500004291535,0|0,0:0|0:0,0:0:0:0:
244,120,11960,2,0,P|190:133|141:108,1,112.500004291535
100,46,12434,2,0,P|66:46|37:61,1,56.2500021457673,0|0,0:0|0:0,0:0:0:0:
15,121,12749,1,0,0:0:0:0:
15,121,12907,1,0,0:0:0:0:
66,172,13065,6,0,P|59:208|57:289,1,112.500004291535,2|0,0:0|0:0,0:0:0:0:
1,332,13539,2,0,P|57:332|112:341,1,112.500004291535,0|0,0:0|0:0,0:0:0:0:
182,362,14012,2,0,P|238:361|293:352,1,112.500004291535,0|0,0:0|0:0,0:0:0:0:
362,377,14486,2,0,P|341:335|368:269,1,112.500004291535,0|0,0:0|0:0,0:0:0:0:
413,224,14960,2,0,P|414:196|405:169,1,56.2500021457673,0|0,0:0|0:0,0:0:0:0:
367,106,15276,1,0,0:0:0:0:
367,106,15434,1,0,0:0:0:0:
328,167,15591,6,0,P|272:145|220:146,1,112.500004291535,2|0,0:0|0:0,0:0:0:0:
178,206,16065,2,0,L|164:78,1,112.500004291535,0|0,0:0|0:0,0:0:0:0:
93,108,16539,2,0,L|105:219,1,112.500004291535,0|0,0:0|0:0,0:0:0:0:
155,273,17012,2,0,P|199:247|264:250,1,112.500004291535,0|0,0:0|0:0,0:0:0:0:
330,266,17486,2,0,P|334:238|344:212,1,56.2500021457673,0|0,0:0|0:0,0:0:0:0:
377,146,17802,1,0,0:0:0:0:
377,146,17960,1,0,0:0:0:0:
426,85,18118,6,0,B|392:64|392:64|306:73,1,112.500004291535,2|0,0:0|0:0,0:0:0:0:
270,125,18591,2,0,P|270:73|219:28,1,112.500004291535,0|0,0:0|0:0,0:0:0:0:
156,31,19065,2,0,P|116:69|115:124,1,112.500004291535,0|0,0:0|0:0,0:0:0:0:
155,186,19539,2,0,L|143:312,1,112.500004291535,0|0,0:0|0:0,0:0:0:0:
184,359,20012,2,0,P|212:352|246:353,1,56.2500021457673,0|0,0:0|0:0,0:0:0:0:
318,368,20328,1,0,0:0:0:0:
318,368,20486,1,0,0:0:0:0:
290,286,20644,6,0,B|290:238|290:238|304:200|304:200|304:139,1,134.999995880127,2|2,0:0|0:0,0:0:0:0:
160,10,21591,2,0,B|160:56|160:56|174:94|174:94|174:142,1,134.999995880127,2|2,0:0|0:0,0:0:0:0:
174,345,22539,2,0,P|130:344|95:306,2,89.9999972534181,2|2|2,0:0|0:0|0:0,0:0:0:0:
256,192,23328,12,0,25381,0:0:0:0:
174,345,25697,6,0,B|249:321|233:371|313:346,1,134.999995880127,2|2,0:0|0:0,0:0:0:0:
448,204,26644,2,0,B|375:181|391:231|316:207,1,134.999995880127,2|2,0:0|0:0,0:0:0:0:
173,64,27591,2,0,P|190:108|165:161,1,89.9999972534181,2|2,0:0|0:0,0:0:0:0:
81,243,28223,6,0,B|103:282|103:282|89:373,1,134.999995880127,2|2,0:0|0:0,0:0:0:0:
181,192,29170,2,0,B|159:153|159:153|173:62,1,134.999995880127,2|2,0:0|0:0,0:0:0:0:
363,134,30118,2,0,L|307:129,1,44.999998626709,2|2,0:0|0:0,0:0:0:0:
261,182,30434,2,0,L|216:186,1,44.999998626709,2|2,0:0|0:0,0:0:0:0:
148,142,30749,6,0,P|187:192|151:247,1,134.999995880127,2|2,0:0|0:0,0:0:0:0:
321,360,31697,2,0,P|287:306|326:256,1,134.999995880127,2|2,0:0|0:0,0:0:0:0:
469,112,32644,2,0,P|469:74|440:31,2,89.9999972534181,2|2|2,0:0|0:0|0:0,0:0:0:0:
256,192,33434,12,0,35486,0:0:0:0:
469,112,35802,6,0,L|324:103,1,134.999995880127,2|2,0:0|0:0,0:0:0:0:
190,246,36749,2,0,L|45:237,1,134.999995880127,2|2,0:0|0:0,0:0:0:0:
244,310,37697,2,0,P|268:275|269:219,1,89.9999972534181,2|2,0:0|0:0,0:0:0:0:
202,116,38328,6,0,B|181:157|181:157|189:245,1,134.999995880127,2|2,0:0|0:0,0:0:0:0:
392,263,39276,2,0,B|413:222|413:222|404:133,1,134.999995880127,2|2,0:0|0:0,0:0:0:0:
162,112,40223,2,0,P|132:116|102:114,1,44.999998626709,2|2,0:0|0:0,0:0:0:0:
42,96,40539,2,0,P|38:118|38:140,1,44.999998626709,2|2,0:0|0:0,0:0:0:0:
93,200,40855,5,2,1:2:0:0:
93,200,50960,5,0,1:0:0:0:
255,165,51276,1,0,1:0:0:0:
102,227,51591,1,0,1:0:0:0:
264,192,51907,1,0,1:0:0:0:
353,331,52223,5,0,1:0:0:0:
191,296,52539,1,0,1:0:0:0:
344,358,52854,1,0,1:0:0:0:
182,323,53170,1,0,1:0:0:0:
255,165,53486,5,0,1:0:0:0:
417,200,53802,1,0,1:0:0:0:
264,138,54117,1,0,1:0:0:0:
426,173,54433,1,0,1:0:0:0:
373,15,54749,5,0,1:0:0:0:
264,138,55065,1,0,1:0:0:0:
391,32,55381,1,0,1:0:0:0:
282,155,55697,1,0,1:0:0:0:
398,271,56012,6,0,P|368:282|325:281,1,63.7500012159348,0|0,1:0|1:0,0:0:0:0:
268,247,56328,2,0,P|236:248|206:259,1,63.7500012159348,0|0,1:0|1:0,0:0:0:0:
132,280,56644,2,0,P|131:246|148:203,1,63.7500012159348,0|0,1:0|1:0,0:0:0:0:
193,163,56960,2,0,P|194:129|177:86,1,63.7500012159348,0|0,1:0|1:0,0:0:0:0:
175,24,57276,6,0,L|216:29,3,31.8750006079674,0|0|0|0,1:0|1:0|1:0|1:0,0:0:0:0:
242,42,57591,2,0,L|273:38,3,31.8750006079674,0|0|0|0,1:0|1:0|1:0|1:0,0:0:0:0:
311,27,57907,2,0,L|352:32,3,31.8750006079674,0|0|0|0,1:0|1:0|1:0|1:0,0:0:0:0:
377,47,58223,1,0,1:0:0:0:
367,68,58301,1,0,1:0:0:0:
362,92,58380,1,0,1:0:0:0:
361,116,58459,1,0,1:0:0:0:
364,139,58539,6,0,P|375:166|370:208,1,63.7500012159348,2|2,1:2|0:0,0:0:0:0:
372,201,59170,1,2,0:0:0:0:
313,142,59328,1,2,0:0:0:0:
230,142,59486,1,2,0:0:0:0:
171,83,59644,1,2,0:0:0:0:
112,24,59802,2,0,L|77:24,3,31.8750006079674,2|2|2|2,0:0|0:0|0:0|0:0,0:0:0:0:
50,53,60118,2,0,L|50:84,3,31.8750006079674,2|2|2|2,0:0|0:0|0:0|0:0,0:0:0:0:
50,126,60434,1,2,1:2:0:0:
203,64,60749,1,2,0:3:0:0:
203,259,61065,6,0,B|272:289|272:289|343:271|343:271|414:301,1,225,4|0,1:0|0:0,0:0:0:0:
500,346,61697,2,0,P|494:309|503:266,1,75,8|0,0:0|0:0,0:0:0:0:
442,194,62012,1,2,1:2:0:0:
442,194,62170,1,0,0:0:0:0:
354,237,62328,6,0,P|345:200|355:151,1,75,2|2,0:0|0:0,0:0:0:0:
378,70,62644,2,0,P|341:65|304:74,1,75,2|2,1:2|0:0,0:0:0:0:
256,159,62960,1,8,0:0:0:0:
207,74,63118,2,0,P|170:65|134:70,2,75,0|0|0,0:0|0:0|0:0,0:0:0:0:
256,159,63591,6,0,B|254:234|254:234|104:219,1,225,0|0,1:0|0:0,0:0:0:0:
6,218,64223,2,0,P|20:257|15:303,1,75,8|0,0:0|0:0,0:0:0:0:
88,359,64539,1,2,1:2:0:0:
88,359,64697,1,0,0:0:0:0:
168,303,64855,6,0,L|245:313,1,75,2|2,0:0|0:0,0:0:0:0:
324,364,65170,2,0,L|398:354,1,75,2|2,1:2|0:0,0:0:0:0:
467,284,65486,1,8,0:0:0:0:
398,215,65644,2,0,P|398:175|414:138,1,75,0|0,0:0|0:0,0:0:0:0:
442,50,65960,1,0,0:0:0:0:
442,50,66039,1,0,0:0:0:0:
442,50,66118,6,0,B|368:82|297:46|297:46|319:86|301:134,1,225,0|0,1:0|0:0,0:0:0:0:
236,187,66749,2,0,P|247:222|241:268,1,75,8|0,0:0|0:0,0:0:0:0:
220,354,67065,1,2,1:2:0:0:
220,354,67223,1,0,0:0:0:0:
148,287,67381,6,0,L|52:289,1,75,2|2,0:0|0:0,0:0:0:0:
63,190,67697,2,0,L|137:188,1,75,2|2,1:2|0:0,0:0:0:0:
236,187,68012,1,8,0:0:0:0:
186,102,68170,2,0,P|186:68|207:32,2,75,0|0|0,0:0|0:0|0:0,0:0:0:0:
139,188,68644,6,0,B|158:243|143:298|143:298|203:329|260:288,1,225,0|0,1:0|0:0,0:0:0:0:
340,253,69276,2,0,P|330:289|329:334,1,75,8|0,0:0|0:0,0:0:0:0:
412,375,69591,1,2,1:2:0:0:
412,375,69749,1,0,0:0:0:0:
495,326,69907,6,0,P|494:289|484:253,1,75,2|2,0:0|0:0,0:0:0:0:
414,183,70223,2,0,P|415:145|425:109,1,75,2|2,1:2|0:0,0:0:0:0:
498,44,70539,2,0,P|446:77|366:54,1,150,8|0,0:0|0:0,0:0:0:0:
277,12,71012,1,0,0:0:0:0:
208,80,71170,6,0,B|223:115|223:115|216:138|216:138|246:190|214:251,1,180,2|0,0:0|0:0,0:0:0:0:
148,323,71802,2,0,P|177:346|226:348,1,75,8|0,0:0|0:0,0:0:0:0:
297,298,72118,1,2,1:2:0:0:
297,298,72276,1,0,0:0:0:0:
379,349,72434,6,0,P|415:344|444:321,1,75,2|2,0:0|0:0,0:0:0:0:
485,232,72749,2,0,P|455:208|419:204,1,75,2|2,1:2|0:0,0:0:0:0:
322,218,73065,1,8,0:0:0:0:
243,160,73223,2,0,L|246:76,2,75,0|0|0,0:0|0:0|0:0,0:0:0:0:
181,236,73697,6,0,B|112:178|43:229|43:229|86:238|111:286,1,225,0|0,1:2|0:0,0:0:0:0:
61,358,74328,2,0,P|104:371|143:361,1,75,8|0,0:0|0:0,0:0:0:0:
221,323,74644,1,2,1:2:0:0:
221,323,74802,1,0,0:0:0:0:
181,236,74960,6,0,L|190:140,1,75,2|2,0:0|0:0,0:0:0:0:
266,102,75276,2,0,L|273:176,1,75,2|2,1:2|0:0,0:0:0:0:
288,272,75591,1,8,0:0:0:0:
363,210,75749,2,0,P|406:210|439:232,1,75,0|0,0:0|0:0,0:0:0:0:
473,314,76065,1,0,0:0:0:0:
473,314,76144,1,0,0:0:0:0:
473,314,76223,6,0,L|479:121,1,191.250003647804,0|0,1:0|0:0,0:0:0:0:
454,43,76855,2,0,P|424:59|404:88,1,63.7500012159348,8|0,0:0|0:0,0:0:0:0:
374,158,77170,6,0,B|281:105|276:195|181:136,2,191.250003647804,0|2|8,1:0|0:0|0:0,0:0:0:0:
443,204,78276,1,0,0:0:0:0:
372,247,78434,2,0,L|377:314,1,63.7500012159348,0|0,0:0|0:0,0:0:0:0:
306,355,78749,6,0,P|242:355|213:243,1,191.250003647804,0|0,1:0|0:0,0:0:0:0:
246,173,79381,2,0,P|213:165|180:169,1,63.7500012159348,8|0,0:0|0:0,0:0:0:0:
124,226,79697,6,0,B|149:166|124:102|124:102|112:137|76:163,2,191.250003647804,0|0|8,1:0|0:0|0:0,0:0:0:0:
117,308,80802,2,0,P|147:300|181:312,1,63.7500012159348,0|0,0:0|1:0,0:0:0:0:
250,350,81118,1,0,0:0:0:0:
250,350,81197,1,0,0:0:0:0:
250,350,81276,6,0,B|227:307|227:307|255:209|255:209|289:177|328:197,1,225,4|0,1:0|0:0,0:0:0:0:
399,255,81907,2,0,P|417:221|416:180,1,75,8|0,0:0|0:0,0:0:0:0:
359,105,82223,1,2,1:2:0:0:
359,105,82381,1,0,0:0:0:0:
323,194,82539,6,0,L|245:180,1,75,2|2,0:0|0:0,0:0:0:0:
179,111,82855,2,0,L|105:124,1,75,2|2,1:2|0:0,0:0:0:0:
10,147,83170,1,8,0:0:0:0:
79,215,83328,2,0,P|80:258|62:295,1,75,0|0,0:0|0:0,0:0:0:0:
13,368,83644,1,0,0:0:0:0:
110,358,83802,6,0,B|146:342|183:362|183:362|237:298|325:338,1,225,0|0,1:0|0:0,0:0:0:0:
411,364,84434,2,0,B|421:329|421:329|414:282,1,75,8|0,0:0|0:0,0:0:0:0:
376,201,84749,1,2,1:2:0:0:
376,201,84907,1,0,0:0:0:0:
288,243,85065,6,0,B|278:207|278:207|287:156,1,75,2|2,0:0|0:0,0:0:0:0:
326,81,85381,2,0,B|290:71|290:71|252:77,1,75,2|2,1:2|0:0,0:0:0:0:
185,149,85697,1,8,0:0:0:0:
117,77,85855,2,0,B|80:71|80:71|44:81,1,75,0|0,0:0|0:0,0:0:0:0:
85,170,86170,1,0,0:0:0:0:
85,170,86249,1,0,0:0:0:0:
85,170,86328,6,0,B|117:248|83:315|83:315|122:295|161:312,1,225,0|0,1:0|0:0,0:0:0:0:
240,358,86960,2,0,P|251:323|245:281,1,75,8|0,0:0|0:0,0:0:0:0:
228,188,87276,1,2,1:2:0:0:
228,188,87434,1,0,0:0:0:0:
319,220,87591,6,0,P|355:214|393:220,1,75,2|2,0:0|0:0,0:0:0:0:
482,259,87907,2,0,P|487:222|481:185,1,75,2|2,1:2|0:0,0:0:0:0:
406,122,88223,1,8,0:0:0:0:
470,48,88381,2,0,P|435:28|392:28,1,75,0|0,0:0|0:0,0:0:0:0:
320,81,88697,1,0,0:0:0:0:
246,16,88855,6,0,B|317:136|202:113|275:249,1,225,0|0,1:0|0:0,0:0:0:0:
300,321,89486,2,0,P|263:310|225:320,1,75,8|0,0:0|0:0,0:0:0:0:
141,363,89802,1,2,1:2:0:0:
141,363,89960,1,0,0:0:0:0:
54,319,90118,6,0,B|47:282|47:282|61:242,1,75,2|2,0:0|0:0,0:0:0:0:
128,177,90434,2,0,B|135:140|135:140|121:100,1,75,2|2,1:2|0:0,0:0:0:0:
46,44,90749,2,0,B|118:52|118:52|124:47|124:47|223:59,1,150,8|0,0:0|0:0,0:0:0:0:
262,124,91223,1,0,0:0:0:0:
335,59,91381,6,0,B|360:113|360:113|337:234,1,180,2|0,0:0|0:0,0:0:0:0:
278,309,92012,2,0,P|306:328|352:327,1,75,8|0,0:0|0:0,0:0:0:0:
427,273,92328,1,2,1:2:0:0:
427,273,92486,1,0,0:0:0:0:
337,231,92644,6,0,L|352:153,1,75,2|2,0:0|0:0,0:0:0:0:
281,87,92960,2,0,L|266:160,1,75,2|2,1:2|0:0,0:0:0:0:
197,230,93276,1,8,0:0:0:0:
128,161,93434,2,0,P|89:161|54:180,1,75,0|0,0:0|0:0,0:0:0:0:
13,264,93749,1,0,0:0:0:0:
111,249,93907,6,0,B|118:293|101:322|101:322|179:291|157:345|256:315,1,225,0|0,1:2|0:0,0:0:0:0:
343,296,94539,2,0,B|340:221,1,75,8|0,0:0|0:0,0:0:0:0:
270,151,94855,1,2,1:2:0:0:
270,151,95012,1,0,0:0:0:0:
338,82,95170,6,0,L|426:88,1,75,2|2,0:0|0:0,0:0:0:0:
450,177,95486,2,0,L|375:171,1,75,2|2,1:2|0:0,0:0:0:0:
270,151,95802,1,8,0:0:0:0:
201,219,95960,2,0,P|214:254|206:304,1,75,0|0,0:0|0:0,0:0:0:0:
146,364,96276,1,0,0:0:0:0:
146,364,96355,1,0,0:0:0:0:
146,364,96434,6,0,B|208:334|208:334|327:353,1,180,0|0,1:0|0:0,0:0:0:0:
394,364,97065,2,0,L|387:290,1,60,8|0,0:0|0:0,0:0:0:0:
325,256,97381,6,0,B|419:304|407:221|518:276,2,180,0|0|8,1:0|0:0|0:0,0:0:0:0:
255,220,98486,1,0,0:0:0:0:
319,175,98644,2,0,L|311:102,1,60,0|0,0:0|0:0,0:0:0:0:
302,37,98960,6,0,B|235:40|235:40|206:57|206:57|108:61,1,180,0|0,1:0|0:0,0:0:0:0:
48,61,99591,2,0,P|43:91|45:137,1,60,8|0,0:0|0:0,0:0:0:0:
81,189,99907,2,0,B|203:179|203:179|170:229,2,180,0|0|8,1:0|0:0|0:0,0:0:0:0:
25,244,101012,1,0,0:0:0:0:
97,272,101170,2,0,P|97:308|87:339,1,60,0|0,1:0|0:0,0:0:0:0:
160,367,101486,6,0,P|217:333|273:373,1,134.999995880127,6|2,0:0|0:0,0:0:0:0:
413,222,102434,2,0,P|356:256|300:216,1,134.999995880127,2|2,0:0|0:0,0:0:0:0:
160,79,103381,2,0,P|200:96|240:78,2,89.9999972534181,2|2|2,0:0|0:0|0:0,0:0:0:0:
256,192,104170,12,0,106223,0:0:0:0:
160,79,106539,6,0,B|140:117|140:117|158:214,1,134.999995880127,2|2,0:0|0:0,0:0:0:0:
300,350,107486,2,0,B|320:312|320:312|302:215,1,134.999995880127,2|2,0:0|0:0,0:0:0:0:
160,79,108434,2,0,L|69:88,1,89.9999972534181,2|2,0:0|0:0,0:0:0:0:
77,222,109065,6,0,B|166:214|166:214|154:278,1,134.999995880127,2|2,0:0|0:0,0:0:0:0:
263,85,110012,2,0,B|254:129|254:129|343:121,1,134.999995880127,2|2,0:0|0:0,0:0:0:0:
487,265,110960,2,0,P|475:291|468:323,1,44.999998626709,2|2,0:0|0:0,0:0:0:0:
407,357,111276,2,0,P|400:335|390:315,1,44.999998626709,2|2,0:0|0:0,0:0:0:0:
343,249,111591,6,0,P|293:284|231:248,1,134.999995880127,2|2,0:0|0:0,0:0:0:0:
61,80,112539,2,0,P|111:115|173:79,1,134.999995880127,2|2,0:0|0:0,0:0:0:0:
406,26,113486,2,0,B|400:67|400:67|405:77|405:77|396:128,2,89.9999972534181,2|2|2,0:0|0:0|0:0,0:0:0:0:
256,192,114276,12,0,116328,0:0:0:0:
398,114,116644,6,0,B|359:96|359:96|313:106|313:106|270:84,1,134.999995880127,2|2,0:0|0:0,0:0:0:0:
129,228,117591,2,0,B|169:248|169:248|215:238|215:238|254:256,1,134.999995880127,2|2,0:0|0:0,0:0:0:0:
443,330,118539,2,0,P|455:294|437:237,1,89.9999972534181,2|2,0:0|0:0,0:0:0:0:
398,114,119170,6,0,P|333:131|252:142,1,134.999995880127,2|2,0:0|0:0,0:0:0:0:
78,218,120118,2,0,P|144:227|210:244,1,134.999995880127,2|2,0:0|0:0,0:0:0:0:
382,351,121065,2,0,P|386:325|380:289,1,44.999998626709,2|2,0:0|0:0,0:0:0:0:
355,230,121381,2,0,P|353:207|357:185,1,44.999998626709,2|2,0:0|0:0,0:0:0:0:
386,99,121697,6,0,P|346:78|282:78,1,104.999996795654,6|0,1:2|0:0,0:0:0:0:
206,99,122170,2,0,P|226:142|209:196,1,104.999996795654,2|0,0:0|0:0,0:0:0:0:
132,229,122644,2,0,P|112:272|129:326,1,104.999996795654,2|0,0:0|0:0,0:0:0:0:
198,371,123118,2,0,P|229:348|303:348,1,104.999996795654,2|0,0:0|0:0,0:0:0:0:
376,357,123591,2,0,P|379:326|372:291,1,52.4999983978272,2|0,0:0|0:0,0:0:0:0:
314,247,123907,2,0,P|311:216|318:181,1,52.4999983978272,2|0,0:0|0:0,0:0:0:0:
324,111,124223,1,2,0:0:0:0:
256,192,124381,12,0,126434,0:0:0:0:
324,111,126749,6,0,L|201:122,1,104.999996795654,2|0,0:0|0:0,0:0:0:0:
219,204,127223,2,0,L|342:215,1,104.999996795654,2|0,0:0|0:0,0:0:0:0:
383,272,127697,2,0,P|404:233|393:169,1,104.999996795654,2|0,0:0|0:0,0:0:0:0:
336,115,128170,2,0,P|315:154|326:218,1,104.999996795654,2|0,0:0|0:0,0:0:0:0:
383,272,128644,2,0,L|443:278,1,52.4999983978272,2|0,0:0|0:0,0:0:0:0:
425,361,128960,2,2,L|372:355,1,52.4999983978272,2|0,0:0|0:0,0:0:0:0:
304,305,129276,6,0,B|270:306|270:306|244:332|195:334,1,104.999996795654,2|0,0:0|0:0,0:0:0:0:
125,309,129749,2,0,P|133:266|123:202,1,104.999996795654,2|0,0:0|0:0,0:0:0:0:
78,134,130223,2,0,P|119:156|179:133,1,104.999996795654,2|0,0:0|0:0,0:0:0:0:
225,74,130697,2,0,P|266:52|326:75,1,104.999996795654,2|0,0:0|0:0,0:0:0:0:
394,104,131170,2,0,P|383:127|382:162,1,52.4999983978272,2|2,0:0|0:0,0:0:0:0:
397,236,131486,1,2,0:0:0:0:
397,236,131644,1,2,0:0:0:0:
449,301,131802,6,0,B|401:278|401:278|342:312,1,104.999996795654,6|0,1:2|0:0,0:0:0:0:
283,347,132276,2,0,B|229:341|229:341|198:299,1,104.999996795654,2|0,0:0|0:0,0:0:0:0:
258,240,132749,2,0,B|228:199|228:199|174:193,1,104.999996795654,2|0,0:0|0:0,0:0:0:0:
103,238,133223,2,0,B|80:190|80:190|105:145,1,104.999996795654,2|0,0:0|0:0,0:0:0:0:
142,69,133697,2,0,P|172:80|195:80,1,52.4999983978272,2|0,0:0|0:0,0:0:0:0:
251,20,134012,2,0,P|277:21|301:31,1,52.4999983978272,2|0,0:0|0:0,0:0:0:0:
372,77,134328,1,6,1:2:0:0:
256,192,134486,12,0,136539,0:0:0:0:
372,77,136855,6,0,L|379:202,1,104.999996795654,6|0,1:2|0:0,0:0:0:0:
414,257,137328,2,0,P|375:234|314:245,1,104.999996795654,2|0,0:0|0:0,0:0:0:0:
249,291,137802,2,0,P|198:300|152:276,1,104.999996795654,2|4,0:0|1:2,0:0:0:0:
83,227,138276,2,0,P|96:177|77:116,1,104.999996795654,2|0,0:0|0:0,0:0:0:0:
45,51,138749,2,0,P|74:42|99:44,1,52.4999983978272,2|0,0:0|0:0,0:0:0:0:
172,79,139065,2,0,P|198:79|222:71,1,52.4999983978272,2|0,0:0|0:0,0:0:0:0:
292,23,139381,6,0,L|403:32,1,104.999996795654,6|0,1:2|0:0,0:0:0:0:
466,79,139855,2,0,B|445:107|445:107|450:186,1,104.999996795654,2|0,0:0|0:0,0:0:0:0:
492,249,140328,2,0,B|464:228|464:228|385:233,1,104.999996795654,2|4,0:0|1:2,0:0:0:0:
334,292,140802,2,0,B|264:296|264:296|236:275,1,104.999996795654,2|0,0:0|0:0,0:0:0:0:
161,235,141276,2,0,P|167:206|162:175,1,52.4999983978272,6|2,1:2|0:0,0:0:0:0:
105,124,141591,1,6,1:2:0:0:
105,124,141749,1,2,0:0:0:0:
215,117,141907,5,4,1:2:0:0:
142,314,142223,1,0,0:0:0:0:
240,128,142539,1,0,0:0:0:0:
167,325,142855,1,0,0:0:0:0:
286,22,143170,5,2,0:0:0:0:
359,219,143486,1,0,0:0:0:0:
261,33,143802,1,0,0:0:0:0:
334,230,144118,1,0,0:0:0:0:
117,303,144434,5,2,0:0:0:0:
190,106,144750,1,0,0:0:0:0:
142,314,145066,1,0,0:0:0:0:
215,117,145382,1,0,0:0:0:0:
416,316,145697,5,2,0:0:0:0:
219,243,146013,1,0,0:0:0:0:
427,291,146329,1,0,0:0:0:0:
230,218,146645,1,0,0:0:0:0:
419,188,146960,6,0,B|428:233|428:233|422:250|422:250|428:306,1,104.999996795654,2|2,0:0|0:0,0:0:0:0:
370,346,147434,1,0,0:0:0:0:
313,289,147591,2,0,P|261:289|214:310,1,104.999996795654,2|2,0:0|0:0,0:0:0:0:
148,354,148065,1,0,0:0:0:0:
79,314,148223,6,0,L|86:242,1,63.7500012159348,2|2,0:0|0:0,0:0:0:0:
144,191,148539,2,0,L|137:127,1,63.7500012159348,2|2,0:0|0:0,0:0:0:0:
125,44,148855,2,0,P|162:44|195:65,1,63.7500012159348,2|2,0:0|0:0,0:0:0:0:
243,114,149170,1,2,0:0:0:0:
303,56,149328,6,0,L|292:198,1,127.50000243187,2|2,0:0|0:0,0:0:0:0:
293,183,150118,1,2,0:0:0:0:
351,124,150276,1,2,0:0:0:0:
433,124,150434,1,2,0:0:0:0:
491,182,150591,1,2,0:0:0:0:
432,240,150749,6,0,L|435:291,3,31.8750006079674,2|2|2|2,0:0|0:0|0:0|0:0,0:0:0:0:
416,310,151065,2,0,L|365:313,3,31.8750006079674,2|2|2|2,0:0|0:0|0:0|0:0,0:0:0:0:
342,315,151381,1,2,1:2:0:0:
201,226,151697,2,0,B|182:255|182:255|185:324,1,95.6250018239022,2|0,0:3|0:0,0:0:0:0:
188,351,152012,5,6,1:2:0:0:
106,269,152170,1,2,0:0:0:0:
201,226,152328,2,0,L|314:229,1,78.7499975967408,2|0,1:2|0:0,0:0:0:0:
362,289,152644,1,2,1:2:0:0:
362,289,152802,2,0,P|377:255|376:208,1,78.7499975967408,2|0,0:0|1:0,0:0:0:0:
295,153,153118,5,2,0:0:0:0:
295,153,153276,2,0,P|280:187|281:234,1,78.7499975967408,2|0,1:2|0:0,0:0:0:0:
259,334,153591,1,2,1:2:0:0:
259,334,153749,2,0,P|223:313|173:311,1,78.7499975967408,2|0,0:0|1:0,0:0:0:0:
97,360,154065,1,2,0:0:0:0:
97,360,154223,2,0,B|109:323|109:323|102:277,1,78.7499975967408,2|2,1:2|0:0,0:0:0:0:
30,210,154539,5,2,1:2:0:0:
102,137,154697,1,2,0:0:0:0:
29,64,154855,2,0,P|60:41|105:33,1,78.7499975967408,2|0,1:2|0:2,1:1:0:0:
188,82,155170,1,2,1:2:0:0:
188,82,155328,2,0,L|283:78,1,78.7499975967408,2|0,0:0|1:2,0:0:0:0:
316,168,155644,5,2,0:0:0:0:
316,168,155802,2,0,L|411:164,1,78.7499975967408,2|0,1:2|0:0,0:0:0:0:
497,163,156118,1,2,1:2:0:0:
497,163,156276,2,0,P|483:200|483:243,1,78.7499975967408,2|0,0:0|1:2,0:0:0:0:
482,341,156591,1,2,0:0:0:0:
482,341,156749,2,0,P|455:316|405:302,1,78.7499975967408,2|2,1:2|0:0,0:0:0:0:
317,334,157065,5,2,1:2:0:0:
317,334,157223,1,2,0:0:0:0:
222,293,157381,2,0,P|227:251|223:203,1,78.7499975967408,2|0,1:2|0:0,0:0:0:0:
202,114,157697,1,2,1:2:0:0:
202,114,157855,2,0,P|168:126|123:118,1,78.7499975967408,2|0,0:0|1:2,0:0:0:0:
31,81,158170,5,2,0:0:0:0:
31,81,158328,2,0,P|43:115|35:160,1,78.7499975967408,2|0,1:2|0:0,0:0:0:0:
108,230,158644,1,2,1:2:0:0:
108,230,158802,2,0,P|96:264|104:309,1,78.7499975967408,2|0,0:0|1:2,0:0:0:0:
187,364,159118,1,2,0:0:0:0:
187,364,159276,2,0,P|220:344|264:342,1,78.7499975967408,2|2,1:2|0:0,0:0:0:0:
359,362,159591,5,2,1:2:0:0:
359,362,159749,1,2,0:0:0:0:
318,267,159907,2,0,P|317:229|335:179,1,78.7499975967408,2|0,1:2|0:0,0:0:0:0:
381,101,160223,1,2,1:2:0:0:
381,101,160381,2,0,B|345:84|345:84|307:90,1,78.7499975967408,2|0,0:0|1:2,0:0:0:0:
230,159,160697,5,2,0:0:0:0:
230,159,160855,2,0,B|192:165|192:165|156:148,1,78.7499975967408,2|0,1:2|0:0,0:0:0:0:
72,87,161170,1,2,1:2:0:0:
72,87,161328,2,0,B|54:121|54:121|59:160,1,78.7499975967408,2|0,0:0|1:2,0:0:0:0:
138,227,161644,1,2,0:0:0:0:
138,227,161802,2,0,B|155:261|155:261|150:300,1,78.7499975967408,2|2,1:2|0:0,0:0:0:0:
228,368,162118,5,6,1:2:0:0:
290,287,162276,1,2,0:0:0:0:
363,357,162434,2,0,P|384:326|388:282,1,78.7499975967408,2|0,1:2|0:0,0:0:0:0:
337,196,162749,1,2,1:2:0:0:
337,196,162907,2,0,L|345:112,1,78.7499975967408,2|0,0:0|1:2,0:0:0:0:
241,117,163223,5,2,0:0:0:0:
241,117,163382,2,0,L|248:195,1,78.7499975967408,2|0,1:2|0:0,0:0:0:0:
290,287,163697,1,2,1:2:0:0:
290,287,163855,2,0,P|258:273|215:273,1,78.7499975967408,2|0,0:0|1:2,0:0:0:0:
158,358,164170,1,2,0:0:0:0:
158,358,164328,2,0,P|118:358|82:344,1,78.7499975967408,2|2,1:2|0:0,0:0:0:0:
9,271,164644,5,2,1:2:0:0:
9,271,164802,1,2,0:0:0:0:
106,240,164960,2,0,L|99:152,1,78.7499975967408,2|0,1:2|0:0,0:0:0:0:
66,64,165276,1,2,1:2:0:0:
66,64,165434,2,0,P|92:78|146:79,1,78.7499975967408,2|0,0:0|1:2,0:0:0:0:
230,32,165749,5,2,0:0:0:0:
230,32,165907,2,0,P|269:31|304:48,1,78.7499975967408,2|0,1:2|0:0,0:0:0:0:
388,107,166223,1,2,1:2:0:0:
388,107,166381,2,0,P|358:129|334:166,1,78.7499975967408,2|0,0:0|1:2,0:0:0:0:
431,200,166697,1,2,0:0:0:0:
431,200,166855,2,0,P|461:222|485:259,1,78.7499975967408,2|2,1:2|0:0,0:0:0:0:
388,294,167170,5,2,1:2:0:0:
388,294,167328,1,2,0:0:0:0:
298,243,167486,2,0,L|216:247,1,78.7499975967408,2|0,1:2|0:0,0:0:0:0:
126,291,167802,1,2,1:2:0:0:
126,291,167960,2,0,P|113:254|126:207,1,78.7499975967408,2|0,0:0|1:2,0:0:0:0:
214,171,168276,5,2,0:0:0:0:
214,171,168434,2,0,P|227:208|214:255,1,78.7499975967408,2|0,1:2|0:0,0:0:0:0:
271,334,168749,1,2,1:2:0:0:
271,334,168907,2,0,P|300:323|352:324,1,78.7499975967408,2|0,0:0|1:2,0:0:0:0:
447,344,169223,1,2,0:0:0:0:
447,344,169381,2,0,P|429:310|424:270,1,78.7499975967408,2|2,1:2|0:0,0:0:0:0:
496,197,169697,5,2,1:2:0:0:
496,197,169855,1,2,0:0:0:0:
424,125,170012,2,0,P|428:86|447:51,1,78.7499975967408,2|0,1:2|0:0,0:0:0:0:
348,20,170328,1,2,1:2:0:0:
348,20,170486,2,0,P|343:58|324:93,1,78.7499975967408,2|0,0:0|1:2,0:0:0:0:
251,165,170802,1,2,0:0:0:0:
352,176,170960,5,2,1:2:0:0:
291,258,171118,1,2,1:2:0:0:
251,165,171276,2,0,L|204:168,3,39.3749987983704,2|2|2|2,1:2|1:2|1:2|1:2,0:0:0:0:
175,203,171591,2,0,L|128:206,3,39.3749987983704,2|2|2|2,1:2|1:2|1:2|1:2,0:0:0:0:
84,211,171907,2,0,B|105:249|105:249|80:282|103:345,1,118.124996395111,2|0,0:3|0:0,0:0:0:0:
103,371,172223,6,0,B|172:330|172:330|254:358,1,157.499995193482,6|0,1:2|1:2,0:0:0:0:
336,307,172697,1,2,0:0:0:0:
336,307,172855,2,0,L|326:218,1,78.7499975967408,0|0,1:2|0:0,0:0:0:0:
239,175,173170,1,2,1:2:0:0:
239,175,173328,2,0,L|230:253,1,78.7499975967408,0|0,0:0|1:2,0:0:0:0:
245,354,173644,5,2,0:0:0:0:
245,354,173802,2,0,L|163:327,1,78.7499975967408,0|0,1:2|0:0,0:0:0:0:
75,287,174118,1,2,1:2:0:0:
75,287,174276,1,0,0:0:0:0:
152,220,174434,2,0,P|145:176|126:132,1,78.7499975967408,2|0,1:2|0:0,0:0:0:0:
83,54,174749,5,2,1:2:0:0:
29,141,174907,1,2,0:0:0:0:
132,144,175065,2,0,P|168:124|208:117,1,78.7499975967408,2|0,1:2|0:2,1:1:0:0:
307,126,175381,1,2,1:2:0:0:
307,126,175539,2,0,P|302:158|296:209,1,78.7499975967408,2|0,0:0|1:2,0:0:0:0:
398,216,175855,5,2,0:0:0:0:
398,216,176013,2,0,P|403:184|409:133,1,78.7499975967408,2|0,1:2|0:0,0:0:0:0:
361,46,176328,1,2,1:2:0:0:
361,46,176486,2,0,P|323:28|285:29,1,78.7499975967408,2|0,0:0|1:2,0:0:0:0:
205,91,176802,1,2,0:0:0:0:
205,91,176960,2,0,P|165:90|130:73,1,78.7499975967408,2|2,1:2|0:0,0:0:0:0:
44,17,177276,6,0,P|50:111|53:195,1,157.499995193482,2|0,1:2|1:2,0:0:0:0:
23,272,177749,1,2,0:0:0:0:
23,272,177907,2,0,P|57:262|105:265,1,78.7499975967408,0|0,1:2|0:0,0:0:0:0:
172,337,178223,1,2,1:2:0:0:
172,337,178381,2,0,P|177:302|201:260,1,78.7499975967408,0|0,0:0|1:2,0:0:0:0:
281,203,178697,5,2,0:0:0:0:
281,203,178855,2,0,P|275:168|251:126,1,78.7499975967408,0|0,1:2|0:0,0:0:0:0:
174,66,179170,1,2,1:2:0:0:
174,66,179328,1,0,0:0:0:0:
272,37,179486,1,2,1:2:0:0:
272,37,179644,1,0,0:0:0:0:
359,90,179802,6,0,B|401:86|430:60|430:60|421:111|429:160,1,157.499995193482,2|0,1:2|1:2,0:0:0:0:
445,240,180276,1,2,0:0:0:0:
445,240,180434,2,0,P|410:230|363:230,1,78.7499975967408,0|0,1:2|0:0,0:0:0:0:
295,301,180749,1,2,1:2:0:0:
295,301,180907,2,0,P|255:300|217:290,1,78.7499975967408,0|0,0:0|1:2,0:0:0:0:
120,255,181223,5,2,0:0:0:0:
120,255,181381,2,0,P|132:218|122:169,1,78.7499975967408,0|0,1:2|0:0,0:0:0:0:
44,117,181697,1,2,1:2:0:0:
125,55,181855,1,2,0:0:0:0:
206,116,182012,1,2,1:2:0:0:
287,54,182170,1,2,0:0:0:0:
359,126,182328,6,0,B|346:164|346:164|354:212,1,78.7499975967408,6|0,1:2|0:0,0:0:0:0:
425,274,182644,2,0,B|431:312|431:312|418:350,1,78.7499975967408,2|0,1:2|0:0,0:0:0:0:
326,302,182960,2,0,L|243:308,1,78.7499975967408,2|0,1:2|0:0,0:0:0:0:
158,359,183276,2,0,L|79:353,1,78.7499975967408,2|0,1:2|0:0,0:0:0:0:
20,269,183591,6,0,P|25:231|43:177,1,78.7499975967408,2|0,1:2|0:0,0:0:0:0:
139,195,183907,2,0,P|134:157|116:103,1,78.7499975967408,2|0,1:2|0:0,0:0:0:0:
80,24,184223,2,0,P|122:32|169:33,1,78.7499975967408,2|0,1:2|0:0,0:0:0:0:
260,20,184539,2,0,P|252:62|251:109,1,78.7499975967408,2|0,1:2|0:0,0:0:0:0:
282,196,184855,5,2,1:2:0:0:
282,196,185012,1,0,0:0:0:0:
358,128,185170,2,0,B|399:128|399:128|446:154,1,78.7499975967408,2|0,1:2|0:0,0:0:0:0:
502,221,185486,1,2,1:2:0:0:
502,221,185644,2,0,P|490:257|487:302,1,78.7499975967408,0|2,0:0|1:2,0:0:0:0:
411,367,185960,5,0,0:0:0:0:
411,367,186118,2,0,P|408:327|395:290,1,78.7499975967408,2|0,1:2|0:0,0:0:0:0:
327,213,186434,1,2,1:2:0:0:
327,213,186591,2,0,P|329:173|342:136,1,78.7499975967408,0|2,0:0|1:2,0:0:0:0:
375,38,186907,2,0,L|420:35,2,39.3749987983704,2|2|2,0:0|0:0|1:2,0:0:0:0:
275,66,187223,1,2,0:0:0:0:
186,14,187381,6,0,P|172:51|176:90,1,78.7499975967408,2|2,1:2|0:0,0:0:0:0:
222,182,187697,1,2,1:2:0:0:
222,182,187855,1,2,0:0:0:0:
176,272,188012,2,0,P|172:310|185:347,1,78.7499975967408,2|2,1:2|0:0,0:0:0:0:
276,298,188328,1,2,1:2:0:0:
354,363,188486,1,2,0:0:0:0:
435,300,188644,6,0,P|435:254|456:209,1,78.7499975967408,2|2,1:2|0:0,0:0:0:0:
497,134,188960,2,0,P|451:134|406:113,1,78.7499975967408,2|2,1:2|0:0,0:0:0:0:
333,68,189276,2,0,P|333:114|312:159,1,78.7499975967408,2|2,1:2|0:0,0:0:0:0:
232,93,189591,1,2,1:2:0:0:
159,165,189749,1,2,0:0:0:0:
90,96,189907,5,0,1:0:0:0:
90,96,190855,1,0,1:0:0:0:
159,165,191486,5,0,1:0:0:0:
159,165,191802,2,0,P|145:196|145:237,1,63.7500012159348,8|0,0:0|0:0,0:0:0:0:
124,326,192118,2,0,P|159:312|216:300,1,95.6250018239022,2|0,0:3|0:0,0:0:0:0:
263,306,192434,6,0,B|263:228|263:228|314:178|314:178|397:178,1,225,4|0,1:0|0:0,0:0:0:0:
487,178,193065,2,0,P|479:147|480:89,1,75,8|0,0:0|0:0,0:0:0:0:
408,34,193381,1,2,1:2:0:0:
408,34,193539,1,0,0:0:0:0:
336,100,193697,6,0,P|308:89|257:84,1,75,2|2,0:0|0:0,0:0:0:0:
188,145,194012,2,0,P|172:111|148:82,1,75,2|2,1:2|0:0,0:0:0:0:
88,159,194328,1,8,0:0:0:0:
147,236,194486,2,0,L|140:312,2,75,0|0|0,0:0|0:0|0:0,0:0:0:0:
188,145,194960,6,0,B|300:154|300:154|266:204|277:266,1,225,0|0,1:0|0:0,0:0:0:0:
284,358,195591,2,0,P|312:347|357:346,1,75,8|0,0:0|0:0,0:0:0:0:
453,363,195907,1,2,1:2:0:0:
453,363,196065,1,0,0:0:0:0:
416,272,196223,6,0,B|415:230|415:230|433:190,1,75,2|2,0:0|0:0,0:0:0:0:
501,134,196539,2,0,B|502:92|502:92|484:52,1,75,2|2,1:2|0:0,0:0:0:0:
400,18,196855,1,8,0:0:0:0:
332,87,197012,2,0,P|292:86|253:69,1,75,0|0,0:0|0:0,0:0:0:0:
171,30,197328,1,0,0:0:0:0:
171,30,197407,1,0,0:0:0:0:
171,30,197486,6,0,P|241:98|153:168,1,225,0|0,1:0|0:0,0:0:0:0:
97,100,198118,2,0,P|75:127|66:176,1,75,8|0,0:0|0:0,0:0:0:0:
114,250,198434,1,2,1:2:0:0:
114,250,198591,1,0,0:0:0:0:
166,170,198749,6,0,L|248:177,1,75,2|2,0:0|0:0,0:0:0:0:
310,245,199065,2,0,L|384:238,1,75,2|2,1:2|0:0,0:0:0:0:
482,233,199381,1,8,0:0:0:0:
429,150,199539,2,0,P|430:110|437:73,2,75,0|0|0,0:0|0:0|0:0,0:0:0:0:
384,237,200012,6,0,B|241:288|304:185|152:249,1,225,0|0,1:0|0:0,0:0:0:0:
82,291,200644,2,0,P|70:257|77:209,1,75,8|0,0:0|0:0,0:0:0:0:
141,148,200960,1,2,1:2:0:0:
141,148,201118,1,0,0:0:0:0:
167,242,201276,6,0,L|158:333,1,75,2|2,0:0|0:0,0:0:0:0:
244,364,201591,2,0,L|251:289,1,75,2|2,1:2|0:0,0:0:0:0:
259,191,201907,2,0,P|319:226|390:198,1,150,8|0,0:0|0:0,0:0:0:0:
478,157,202381,1,0,0:0:0:0:
387,123,202539,6,0,B|390:243|390:243|434:295,1,180,2|0,0:0|0:0,0:0:0:0:
500,355,203170,2,0,P|475:335|432:326,1,75,8|0,0:0|0:0,0:0:0:0:
342,362,203486,1,2,1:2:0:0:
342,362,203644,1,0,0:0:0:0:
250,325,203802,6,0,P|213:332|184:355,1,75,2|2,0:0|0:0,0:0:0:0:
86,363,204118,2,0,P|107:332|112:295,1,75,2|2,1:2|0:0,0:0:0:0:
42,226,204434,1,8,0:0:0:0:
110,157,204591,2,0,P|104:120|83:89,1,75,0|0,0:0|0:0,0:0:0:0:
153,20,204907,1,0,0:0:0:0:
221,88,205065,6,0,B|256:101|256:101|292:89|292:89|367:132|443:91,1,225,0|0,1:2|0:0,0:0:0:0:
504,164,205697,2,0,B|488:199|488:199|488:255,1,75,8|0,0:0|0:0,0:0:0:0:
488,333,206012,1,2,1:2:0:0:
488,333,206170,1,0,0:0:0:0:
403,283,206328,6,0,P|367:283|319:293,1,75,2|2,0:0|0:0,0:0:0:0:
259,359,206644,2,0,P|223:359|175:349,1,75,2|2,1:2|0:0,0:0:0:0:
93,314,206960,2,0,P|118:240|84:168,1,150,8|0,0:0|0:0,0:0:0:0:
30,100,207434,1,0,0:0:0:0:
30,100,207512,1,0,0:0:0:0:
30,100,207591,6,0,B|84:135|84:135|210:107,1,191.250003647804,0|0,1:0|0:0,0:0:0:0:
291,100,208223,2,0,P|296:129|288:172,1,63.7500012159348,8|0,0:0|0:0,0:0:0:0:
228,217,208539,6,0,B|330:170|308:257|420:200,2,191.250003647804,0|0|8,1:0|0:0|0:0,0:0:0:0:
161,266,209644,1,0,0:0:0:0:
87,227,209802,2,0,P|77:265|83:295,1,63.7500012159348,0|0,0:0|0:0,0:0:0:0:
137,349,210118,6,0,B|266:349|266:349|283:318|321:308,1,191.250003647804,0|0,1:0|0:0,0:0:0:0:
392,331,210749,2,0,P|393:294|373:257,1,63.7500012159348,8|0,0:0|0:0,0:0:0:0:
311,226,211065,6,0,B|333:169|309:121|309:121|327:85|303:32,2,191.250003647804,0|0|0,1:0|0:0|0:0,0:0:0:0:
228,229,212170,2,0,P|238:261|244:298,2,56.2500021457673,0|0|0,0:0|0:2|0:0,0:0:0:0:
211,147,212644,6,0,B|150:174|150:174|91:157|91:157|33:186,1,191.250003647804,0|0,1:0|0:0,0:0:0:0:
98,243,213276,2,0,P|97:279|88:320,1,63.7500012159348,8|0,0:0|0:0,0:0:0:0:
19,345,213591,6,0,B|96:315|137:349|137:349|174:371|222:359,2,191.250003647804,0|0|8,1:0|0:0|0:0,0:0:0:0:
35,246,214697,1,0,0:0:0:0:
35,246,214855,2,0,P|70:238|103:245,1,63.7500012159348
176,267,215170,6,0,P|193:207|193:131,1,127.50000243187,0|0,1:0|0:0,0:0:0:0:
148,72,215644,1,0,0:0:0:0:
231,73,215802,2,0,L|307:65,1,63.7500012159348,8|0,0:0|0:0,0:0:0:0:
375,46,216118,2,0,P|370:80|370:121,1,63.7500012159348,0|0,1:0|0:0,0:0:0:0:
431,165,216434,6,0,P|370:164|336:222,1,127.50000243187,0|0,0:0|1:0,0:0:0:0:
308,293,216907,1,0,0:0:0:0:
308,293,217065,2,0,P|283:276|241:265,1,63.7500012159348,8|0,0:0|0:0,0:0:0:0:
169,283,217381,2,0,L|171:206,1,63.7500012159348,0|0,0:0|0:0,0:0:0:0:
231,162,217697,6,0,B|166:195|107:164|107:164|134:135|135:94,1,191.250003647804,0|0,1:0|0:0,0:0:0:0:
74,50,218328,2,0,P|108:29|138:27,1,63.7500012159348,8|0,0:0|0:0,0:0:0:0:
205,63,218644,6,0,L|395:53,2,191.250003647804,0|0|8,1:0|0:0|0:0,0:0:0:0:
131,26,219749,1,0,0:0:0:0:
63,73,219907,2,0,P|72:106|72:149,1,63.7500012159348,0|0,0:0|0:0,0:0:0:0:
22,201,220223,6,0,B|74:165|74:165|130:209|198:163,1,191.250003647804,0|0,1:0|0:0,0:0:0:0:
272,140,220855,2,0,L|268:210,1,63.7500012159348,8|0,0:0|0:0,0:0:0:0:
202,254,221170,6,0,P|262:287|350:207,2,191.250003647804,0|0|8,1:0|0:0|0:0,0:0:0:0:
192,166,222276,1,0,0:0:0:0:
116,213,222434,2,0,P|103:178|106:145,1,63.7500012159348,0|0,0:0|0:0,0:0:0:0:
168,111,222749,6,0,L|32:104,1,134.999995880127,2|2,0:0|0:0,0:0:0:0:
15,306,223697,2,0,L|149:312,1,134.999995880127,2|2,0:0|0:0,0:0:0:0:
347,356,224644,2,0,P|360:321|358:264,2,89.9999972534181,2|2|2,0:0|0:0|0:0,0:0:0:0:
256,192,225434,12,0,227486,0:0:0:0:
359,268,227802,6,0,P|300:268|275:199,1,134.999995880127,2|2,0:0|0:0,0:0:0:0:
387,38,228749,2,0,P|446:38|471:107,1,134.999995880127,2|2,0:0|0:0,0:0:0:0:
359,268,229697,2,0,L|257:273,1,89.9999972534181,2|2,0:0|0:0,0:0:0:0:
152,339,230328,6,0,P|152:287|83:236,1,134.999995880127,2|2,0:0|0:0,0:0:0:0:
152,45,231276,2,0,P|152:97|83:148,1,134.999995880127,2|2,0:0|0:0,0:0:0:0:
289,192,232223,2,0,L|350:192,1,44.999998626709,2|2,0:0|0:0,0:0:0:0:
388,246,232539,2,0,L|449:246,1,44.999998626709,2|2,0:0|0:0,0:0:0:0:
487,300,232855,5,2,0:0:0:0:
256,192,233012,12,0,235381,0:0:0:0:
