osu file format v14

[General]
AudioFilename: C-Show - Sea The Stars ft. .mp3
AudioLeadIn: 0
PreviewTime: -1
Countdown: 0
SampleSet: Normal
StackLeniency: 0.7
Mode: 0
LetterboxInBreaks: 1
WidescreenStoryboard: 1

[Editor]
Bookmarks: 749,33852,55921,66955,77990,100059,122128,138680,144197,166266,188335,210404,232473,254455
DistanceSpacing: 1.3
BeatDivisor: 4
GridSize: 4
TimelineZoom: 2.3

[Metadata]
Title:Sea The Stars ft. Mikanjiru
TitleUnicode:Sea The Stars ft. みかん汁
Artist:C-Show
ArtistUnicode:C-Show
Creator:Kano
Version:2014 - Insane
Source:
Tags:DnB Drum and Bass
BeatmapID:681522
BeatmapSetID:222428

[Difficulty]
HPDrainRate:6
CircleSize:4
OverallDifficulty:7.5
ApproachRate:9
SliderMultiplier:1.7
SliderTickRate:1

[Events]
//Background and Video events
0,0,"bg.jpg",0,0
//Break Periods
2,25776,33252
2,126466,132562
2,133362,138079
//Storyboard Layer 0 (Background)
//Storyboard Layer 1 (Fail)
//Storyboard Layer 2 (Pass)
//Storyboard Layer 3 (Foreground)
//Storyboard Sound Samples

[TimingPoints]
749,344.827586206897,4,1,1,60,1,0
22904,-100,4,1,1,40,0,0
33852,-133.333333333333,4,2,1,40,0,0
50404,-111.111111111111,4,1,1,50,0,0
55921,-100,4,1,1,60,0,1
77990,-100,4,1,1,50,0,0
122214,-100,4,2,1,40,0,0
138680,-100,4,1,1,50,0,0
188335,-100,4,1,1,60,0,1
210404,-100,4,1,1,50,0,0
232473,-100,4,2,1,50,0,0

[Colours]
Combo1 : 255,174,215
Combo2 : 0,64,128
Combo3 : 80,0,159

[HitObjects]
212,44,749,6,4,P|156:44|72:128,1,170,4|8,0:0|0:0,0:0:0:0:
53,226,1266,1,0,0:0:0:0:
145,166,1438,2,0,P|172:152|232:148,1,85
236,316,1783,1,8,0:0:0:0:
344,220,1955,1,0,0:0:0:0:
236,316,2128,6,0,P|216:292|200:236,1,85
176,72,2473,1,8,0:0:0:0:
320,96,2645,1,0,0:0:0:0:
328,124,2731,1,0,0:0:0:0:
328,152,2817,2,0,P|308:180|256:212,1,85
112,284,3162,1,8,0:0:0:0:
88,176,3335,1,0,0:0:0:0:
256,148,3507,6,0,P|300:176|332:292,1,170,0|8,0:0|0:0,0:0:0:0:
212,264,4024,1,0,0:0:0:0:
244,156,4197,2,0,P|264:132|328:100,1,85
156,48,4542,1,8,0:0:0:0:
144,140,4714,1,0,0:0:0:0:
132,232,4886,6,0,L|120:320,1,85
252,180,5231,1,0,0:0:0:0:
300,280,5404,1,0,0:0:0:0:
300,280,5490,1,0,0:0:0:0:
300,280,5576,1,0,0:0:0:0:
144,208,5749,1,0,0:0:0:0:
339,197,5921,1,8,0:0:0:0:
300,92,6093,1,0,0:0:0:0:
120,132,6266,6,0,B|120:219|76:263|76:263|108:295,2,170,4|8|0,0:0|0:0|0:0,0:0:0:0:
228,264,7128,1,0,0:0:0:0:
260,96,7300,1,8,0:0:0:0:
120,132,7473,1,0,0:0:0:0:
260,96,7645,6,0,B|292:88|352:104,1,85
472,212,7990,1,8,0:0:0:0:
396,292,8162,1,0,0:0:0:0:
368,284,8249,1,0,0:0:0:0:
348,264,8335,2,0,P|352:232|344:172,1,85
312,40,8680,1,8,0:0:0:0:
216,96,8852,1,0,0:0:0:0:
213,267,9024,6,0,P|253:291|377:259,1,170,0|8,0:0|0:0,0:0:0:0:
408,164,9542,1,0,0:0:0:0:
396,136,9628,1,0,0:0:0:0:
376,116,9714,2,0,P|348:116|296:84,1,85
176,8,10059,1,8,0:0:0:0:
140,172,10231,1,0,0:0:0:0:
300,128,10404,5,0,0:0:0:0:
128,88,10576,1,0,0:0:0:0:
152,256,10749,1,8,0:0:0:0:
208,160,10921,1,8,0:0:0:0:
208,160,11007,1,8,0:0:0:0:
208,160,11093,1,8,0:0:0:0:
256,324,11266,1,8,0:0:0:0:
256,324,11352,1,8,0:0:0:0:
256,324,11438,1,8,0:0:0:0:
368,324,11611,1,0,0:0:0:0:
352,164,11783,6,0,B|340:136|340:136|360:56|352:24|352:24|316:32,1,170,4|8,0:0|0:0,0:0:0:0:
260,120,12300,1,0,0:0:0:0:
260,120,12386,1,0,0:0:0:0:
260,120,12473,1,0,0:0:0:0:
308,252,12645,1,0,0:0:0:0:
160,168,12817,1,0,0:0:0:0:
260,120,12990,1,0,0:0:0:0:
192,276,13162,5,0,0:0:0:0:
160,168,13335,1,0,0:0:0:0:
308,252,13507,1,8,0:0:0:0:
192,276,13680,1,0,0:0:0:0:
192,276,13766,1,0,0:0:0:0:
192,276,13852,1,0,0:0:0:0:
260,120,14024,1,0,0:0:0:0:
408,204,14197,1,0,0:0:0:0:
308,252,14369,1,8,0:0:0:0:
211,143,14542,6,0,B|159:131|159:131|123:167|31:135,1,170,0|8,0:0|0:0,0:0:0:0:
76,248,15059,1,0,0:0:0:0:
108,352,15231,1,0,0:0:0:0:
211,143,15404,1,0,0:0:0:0:
284,320,15576,2,0,P|311:326|383:310,1,85
228,64,15921,6,0,P|201:58|128:74,1,85
284,320,16266,1,8,0:0:0:0:
361,242,16438,1,0,0:0:0:0:
375,216,16524,1,0,0:0:0:0:
384,187,16611,2,0,P|388:155|372:95,1,85
256,223,16955,1,8,0:0:0:0:
176,100,17128,1,0,0:0:0:0:
72,272,17300,6,0,L|72:96,1,170,0|8,0:0|0:0,0:0:0:0:
184,100,17817,1,0,0:0:0:0:
204,124,17904,1,0,0:0:0:0:
216,152,17990,2,0,P|248:148|304:160,1,85
248,320,18335,1,8,0:0:0:0:
224,180,18507,1,0,0:0:0:0:
256,328,18680,6,0,P|284:336|344:324,1,85
484,264,19024,1,8,0:0:0:0:
464,156,19197,1,0,0:0:0:0:
380,224,19369,1,0,0:0:0:0:
256,328,19542,2,0,L|256:244,1,85,0|8,0:0|0:0,0:0:0:0:
256,132,19886,1,0,0:0:0:0:
96,196,20059,6,0,P|44:252|44:348,2,170,0|8|0,0:3|0:3|0:3,0:3:0:0:
244,296,20921,2,0,P|288:304|336:292,1,85,0|8,0:0|0:0,0:0:0:0:
424,244,21266,1,0,0:0:0:0:
308,120,21438,2,0,L|292:212,1,85
272,348,21783,1,8,0:0:0:0:
328,188,21955,5,8,0:0:0:0:
336,160,22042,1,8,0:0:0:0:
328,132,22128,1,8,0:0:0:0:
128,152,22300,5,8,0:0:0:0:
120,180,22387,1,8,0:0:0:0:
128,208,22473,1,8,0:0:0:0:
152,316,22645,1,8,0:0:0:0:
316,272,22817,5,4,0:0:0:0:
256,192,22904,12,0,25576,0:0:0:0:
292,104,33852,5,4,0:0:0:0:
292,104,34197,2,0,B|288:144|288:144|312:184|280:256,1,127.500004863739
140,300,34886,1,0,0:0:0:0:
76,248,35059,2,0,P|136:216|204:248,1,127.500004863739
332,320,35749,2,0,B|328:284|328:284|340:220|340:220|336:176,1,127.500004863739
268,96,36266,2,0,L|264:176,1,63.7500024318696
216,228,36611,5,0,0:0:0:0:
148,180,36783,2,0,P|104:168|24:220,2,127.500004863739
216,228,37645,1,0,0:0:0:0:
272,288,37817,1,0,0:0:0:0:
340,240,37990,1,0,0:0:0:0:
340,156,38162,2,0,P|320:100|344:36,1,127.500004863739
416,100,38680,1,0,0:0:0:0:
416,184,38852,1,0,0:0:0:0:
352,240,39024,1,0,0:0:0:0:
280,200,39197,1,0,0:0:0:0:
208,240,39369,5,0,0:0:0:0:
208,240,39714,2,0,B|180:192|208:148|208:148|200:112,1,127.500004863739
64,68,40404,1,0,0:0:0:0:
32,144,40576,2,0,P|24:216|48:272,1,127.500004863739
128,264,41093,2,0,B|160:248|160:248|264:288|340:240|340:240|380:244,1,255.000009727478
420,312,41955,1,0,0:0:0:0:
372,243,42128,5,0,0:0:0:0:
400,164,42300,2,0,B|380:116|400:80|400:80|368:48|344:68,2,127.500004863739
240,204,43335,2,0,L|232:344,1,127.500004863739
72,292,44024,2,0,L|80:152,1,127.500004863739
84,80,44542,1,0,0:0:0:0:
148,24,44714,1,0,0:0:0:0:
192,92,44886,5,4,0:0:0:0:
192,92,45231,2,0,B|184:124|184:124|208:196|208:196|204:244,1,127.500004863739
240,292,45749,2,0,P|300:256|356:268,2,127.500004863739
256,52,47300,5,0,0:0:0:0:
212,124,47473,2,0,P|192:176|224:268,1,127.500004863739
432,216,48162,2,0,P|384:176|296:176,1,127.500004863739
192,316,48852,2,0,P|112:268|88:172,1,191.250007295609
160,28,49714,2,0,P|228:16|300:44,1,127.500004863739
352,184,50231,1,0,0:0:0:0:
172,288,50404,5,4,0:0:0:0:
247,142,50576,1,0,0:0:0:0:
321,286,50749,1,0,0:0:0:0:
170,197,50921,5,8,0:0:0:0:
246,330,51093,1,0,0:0:0:0:
333,155,51266,1,0,0:0:0:0:
344,292,51438,2,0,P|376:288|440:304,1,76.4999976654053,8|0,0:0|0:0,0:0:0:0:
168,292,51783,6,0,P|136:288|72:304,1,76.4999976654053,8|0,0:0|0:0,0:0:0:0:
140,122,52128,5,0,0:0:0:0:
240,236,52300,2,0,P|272:240|336:224,1,76.4999976654053,8|0,0:0|0:0,0:0:0:0:
256,28,52645,5,0,0:0:0:0:
140,122,52817,2,0,P|135:154|152:218,1,76.4999976654053,8|0,0:0|0:0,0:0:0:0:
224,344,53162,5,12,0:0:0:0:
328,160,53335,1,0,0:0:0:0:
404,320,53507,1,12,0:0:0:0:
216,232,53680,1,0,0:0:0:0:
396,188,53852,1,12,0:0:0:0:
332,344,54024,1,0,0:0:0:0:
252,168,54197,1,12,0:0:0:0:
432,252,54369,1,0,0:0:0:0:
412,120,54542,5,0,0:0:0:0:
392,88,54628,1,0,0:0:0:0:
360,68,54714,1,0,0:0:0:0:
324,60,54800,1,0,0:0:0:0:
288,68,54886,1,0,0:0:0:0:
260,92,54973,1,0,0:0:0:0:
244,128,55059,1,0,0:0:0:0:
244,168,55145,1,0,0:0:0:0:
268,200,55231,5,0,0:0:0:0:
288,232,55317,1,0,0:0:0:0:
300,268,55404,1,0,0:0:0:0:
284,300,55490,1,0,0:0:0:0:
248,308,55576,1,8,0:0:0:0:
212,296,55662,1,8,0:0:0:0:
196,260,55749,1,8,0:0:0:0:
212,224,55835,1,8,0:0:0:0:
244,196,55921,6,0,P|292:136|312:44,1,170,4|8,0:0|0:0,0:0:0:0:
167,46,56438,1,0,0:0:0:0:
64,148,56611,2,0,L|88:260,1,85
269,174,56955,1,8,0:0:0:0:
235,279,57128,1,0,0:0:0:0:
224,306,57214,1,0,0:0:0:0:
212,333,57300,6,8,L|188:221,1,85
156,81,57645,1,8,0:0:0:0:
264,180,57817,1,0,0:0:0:0:
404,140,57990,2,8,P|411:167|399:235,1,85,8|8,0:3|0:3,0:3:0:0:
199,141,58335,1,8,0:0:0:0:
296,88,58507,6,0,B|308:160|260:220|260:220|284:256,1,170
424,280,59024,1,8,0:0:0:0:
468,140,59197,2,0,L|484:96,2,42.5
348,264,59542,1,0,0:0:0:0:
296,88,59714,1,8,0:0:0:0:
151,93,59887,6,0,P|119:113|67:229,1,170
210,224,60404,2,0,P|238:216|302:228,1,85,8|0,0:0|0:0,0:0:0:0:
420,312,60749,1,0,0:0:0:0:
301,43,60921,1,8,0:0:0:0:
301,43,61007,1,8,0:0:0:0:
301,43,61093,1,8,0:0:0:0:
236,132,61266,1,0,0:0:0:0:
405,132,61438,6,0,B|445:132|445:132|509:104,1,85
340,256,61783,1,8,0:0:0:0:
204,208,61955,2,0,B|172:208|172:208|136:244|88:256|32:236,1,170
96,76,62473,1,8,0:0:0:0:
260,40,62645,6,0,P|288:40|356:64,1,85
428,128,62990,1,0,0:0:0:0:
284,152,63162,2,0,P|256:160|204:192,1,85
136,276,63507,1,0,0:0:0:0:
368,208,63680,1,0,0:0:0:0:
368,208,63766,1,0,0:0:0:0:
368,208,63852,1,8,0:0:0:0:
304,116,64025,1,0,0:0:0:0:
136,88,64197,6,0,P|124:112|116:176,1,85
115,339,64542,1,8,0:0:0:0:
196,240,64714,2,0,P|224:232|284:244,1,85
428,320,65059,2,8,P|440:292|444:236,1,85,8|8,0:3|0:0,0:0:0:0:
428,92,65404,2,8,P|396:84|340:92,1,85,8|8,0:3|0:0,0:0:0:0:
184,154,65749,1,0,0:0:0:0:
300,276,65921,1,8,0:0:0:0:
320,108,66093,5,8,0:0:0:0:
320,108,66180,1,0,0:0:0:0:
320,108,66266,1,0,0:0:0:0:
212,240,66438,1,0,0:0:0:0:
212,240,66524,1,8,0:0:0:0:
212,240,66611,2,0,P|212:268|232:320,1,85
360,176,66955,6,0,B|348:148|348:148|372:104|348:52|296:32,1,170,4|8,0:0|0:0,0:0:0:0:
189,33,67472,1,0,0:0:0:0:
184,144,67645,2,0,L|168:232,1,85
332,188,67989,1,8,0:0:0:0:
300,80,68162,1,0,0:0:0:0:
292,52,68248,1,0,0:0:0:0:
300,24,68334,6,0,P|328:32|384:24,1,85
469,189,68679,1,8,0:0:0:0:
388,264,68851,1,0,0:0:0:0:
344,164,69024,1,0,0:0:0:0:
216,276,69197,2,0,L|216:188,1,85
376,164,69542,6,0,B|400:172|400:172|384:248|436:312,1,170
232,195,70058,1,8,0:0:0:0:
308,276,70231,1,0,0:0:0:0:
312,304,70317,1,0,0:0:0:0:
316,332,70403,1,0,0:0:0:0:
284,105,70576,1,0,0:0:0:0:
444,44,70748,5,8,0:0:0:0:
444,154,70921,2,0,B|438:180|438:180|320:222|320:222|312:238,1,170
209,340,71438,2,0,P|180:344|124:328,1,85,0|0,0:3|0:3,0:3:0:0:
280,180,71783,1,0,0:0:0:0:
172,52,71955,1,8,0:0:0:0:
172,52,72041,1,8,0:0:0:0:
172,52,72127,1,8,0:0:0:0:
136,161,72300,1,0,0:0:0:0:
292,32,72472,6,0,P|320:24|380:32,1,85
485,173,72817,1,8,0:0:0:0:
376,200,72990,2,0,B|324:208|264:156|264:156|208:188,1,170
300,332,73507,5,8,0:0:0:0:
216,260,73679,2,0,P|188:252|132:260,1,85
40,320,74024,1,0,0:0:0:0:
40,149,74197,2,0,L|40:49,1,85,8|0,0:0|0:0,0:0:0:0:
144,24,74542,1,0,0:0:0:0:
252,120,74714,1,0,0:0:0:0:
252,120,74800,1,0,0:0:0:0:
252,120,74886,5,8,0:0:0:0:
296,20,75059,1,0,0:0:0:0:
364,188,75231,2,0,P|369:217|361:277,1,85
175,289,75576,5,8,0:0:0:0:
139,186,75749,2,0,P|134:157|142:97,1,85,0|0,0:3|0:3,0:3:0:0:
358,77,76093,2,0,P|363:105|355:166,1,85,0|0,0:3|0:3,0:3:0:0:
299,280,76438,5,0,0:0:0:0:
475,177,76610,1,0,0:0:0:0:
346,340,76783,1,0,0:0:0:0:
412,136,76955,1,8,0:0:0:0:
440,244,77127,1,8,0:0:0:0:
448,272,77214,1,8,0:0:0:0:
456,300,77300,1,8,0:0:0:0:
341,115,77473,1,8,3:0:0:0:
333,87,77558,1,8,3:0:0:0:
325,59,77644,1,8,3:0:0:0:
288,224,77817,5,0,0:0:0:0:
220,88,77990,6,0,P|172:64|48:100,1,170,4|8,0:0|0:0,0:0:0:0:
29,192,78507,2,0,P|28:220|52:280,1,85
172,344,78852,1,0,0:0:0:0:
206,177,79024,1,0,0:0:0:0:
132,260,79197,1,0,0:0:0:0:
260,113,79369,6,0,P|261:85|237:25,1,85
96,120,79714,1,0,0:0:0:0:
28,208,79886,1,0,0:0:0:0:
120,320,80059,2,0,P|148:332|204:332,1,85
374,267,80404,1,8,0:0:0:0:
284,156,80576,1,0,0:0:0:0:
328,336,80749,6,0,P|356:344|412:332,1,85
400,36,81093,2,0,P|374:50|343:98,1,85
312,236,81438,1,0,0:0:0:0:
312,236,81611,1,0,0:0:0:0:
224,92,81783,2,0,P|198:106|167:154,1,85
468,232,82128,6,0,P|453:206|405:175,1,85
263,176,82473,1,8,0:0:0:0:
263,176,82645,1,0,0:0:0:0:
352,320,82817,2,0,P|374:301|396:248,1,85,0|0,0:3|0:0,0:0:0:0:
400,220,83076,1,0,0:0:0:0:
400,190,83162,1,8,0:0:0:0:
380,80,83335,1,0,0:0:0:0:
208,240,83507,5,0,0:0:0:0:
278,113,83680,1,0,0:0:0:0:
352,320,83852,1,8,0:0:0:0:
400,190,84024,1,0,0:0:0:0:
300,240,84197,1,0,0:0:0:0:
386,89,84369,1,0,0:0:0:0:
200,89,84542,1,8,0:0:0:0:
240,192,84714,1,0,0:0:0:0:
300,60,84886,6,0,P|330:51|384:60,1,85
340,224,85231,2,0,P|310:233|254:221,2,85
300,60,85749,1,0,0:0:0:0:
258,223,85921,2,0,L|236:306,1,85
192,112,86266,2,0,L|170:195,1,85
52,316,86611,2,0,L|74:233,1,85
104,128,86955,1,0,0:0:0:0:
228,244,87128,5,0,0:0:0:0:
188,104,87300,2,0,L|166:21,1,85
280,108,87645,2,0,L|302:191,1,85
344,328,87990,1,8,0:0:0:0:
233,328,88162,1,0,0:0:0:0:
150,178,88335,2,0,P|142:150|146:94,1,85,0|8,0:0|0:0,0:0:0:0:
152,68,88593,1,8,0:0:0:0:
160,40,88680,1,0,0:0:0:0:
280,108,88852,1,0,0:0:0:0:
412,216,89024,6,0,P|440:224|496:212,1,85,4|0,0:0|0:0,0:0:0:0:
365,47,89369,1,8,0:0:0:0:
280,120,89542,2,0,P|239:131|198:122,1,85,4|0,0:0|0:0,0:0:0:0:
60,28,89886,1,0,0:0:0:0:
124,207,90059,1,8,0:0:0:0:
208,136,90231,1,0,0:0:0:0:
40,120,90404,1,0,0:0:0:0:
40,232,90576,2,0,L|40:344,1,85,0|8,0:0|0:0,0:0:0:0:
124,124,90921,5,0,0:0:0:0:
176,220,91093,2,0,P|197:239|253:251,1,85,4|0,0:0|0:0,0:0:0:0:
421,252,91438,1,8,0:0:0:0:
318,149,91611,1,0,0:0:0:0:
208,256,91783,2,0,L|96:256,1,85
304,128,92128,2,0,L|416:128,1,85
388,240,92473,1,0,0:0:0:0:
208,256,92645,1,0,0:0:0:0:
304,128,92817,2,0,L|304:16,1,85,0|0,0:3|0:3,0:3:0:0:
208,256,93162,2,8,L|208:368,1,85,8|8,0:3|0:3,0:3:0:0:
112,68,93507,5,8,0:0:0:0:
83,210,93680,1,0,0:0:0:0:
202,90,93852,2,0,P|232:84|304:96,1,85,0|8,0:0|0:0,0:0:0:0:
312,100,94111,1,8,0:0:0:0:
336,116,94197,1,8,0:0:0:0:
388,212,94369,1,0,0:0:0:0:
276,340,94542,6,0,L|276:240,1,85
240,88,94886,2,0,P|212:80|156:88,1,85
200,208,95231,1,0,0:0:0:0:
399,52,95404,1,0,0:0:0:0:
400,220,95576,2,0,L|400:304,1,85,8|0,0:0|0:0,0:0:0:0:
264,260,95921,2,0,L|264:356,2,85,0|0|8,0:0|0:0|0:0,0:0:0:0:
215,146,96438,5,0,0:0:0:0:
268,48,96611,2,0,P|296:40|356:52,1,85
340,220,96955,1,8,0:0:0:0:
215,146,97128,1,0,0:0:0:0:
84,256,97300,2,0,L|84:160,1,85
152,44,97645,1,8,0:0:0:0:
272,124,97817,1,0,0:0:0:0:
160,124,97990,1,0,0:0:0:0:
284,44,98162,1,0,0:0:0:0:
436,124,98335,6,0,P|444:152|440:212,1,85,8|0,0:0|0:0,0:0:0:0:
320,327,98680,2,0,P|312:299|316:239,1,85,8|0,0:0|0:0,0:0:0:0:
335,93,99024,1,0,0:0:0:0:
244,202,99197,1,0,0:0:0:0:
156,88,99369,2,0,P|128:80|68:92,1,85,8|0,0:0|0:0,0:0:0:0:
52,108,99628,1,8,0:0:0:0:
36,132,99714,1,0,0:0:0:0:
36,301,99886,1,0,0:0:0:0:
324,336,100231,1,0,0:0:0:0:
324,336,100404,6,0,P|312:264|324:200,1,127.5,12|0,0:0|0:0,0:0:0:0:
328,172,100749,2,0,B|280:152|280:152|228:192|148:172,1,170,0|8,0:0|0:0,0:0:0:0:
92,96,101266,2,0,P|68:112|36:164,1,85
206,243,101611,2,0,P|208:208|188:156,1,85,0|8,0:0|0:0,0:0:0:0:
92,300,101955,2,0,P|156:348|256:328,1,170,0|8,0:0|0:0,0:0:0:0:
268,324,102386,1,8,0:0:0:0:
292,308,102473,1,8,0:0:0:0:
344,172,102645,1,0,0:0:0:0:
368,279,102817,6,0,P|384:307|432:343,1,85
474,156,103162,1,8,0:0:0:0:
300,88,103335,2,0,P|276:108|256:176,1,85
256,332,103680,1,0,0:0:0:0:
156,196,103852,1,8,0:0:0:0:
376,132,104024,6,0,L|380:240,1,85
136,132,104369,2,0,L|132:240,1,85
256,332,104714,2,0,L|256:236,1,85
236,76,105059,1,8,0:0:0:0:
236,76,105145,1,8,0:0:0:0:
236,76,105231,1,8,0:0:0:0:
176,208,105404,1,0,0:0:0:0:
347,201,105576,6,0,P|355:229|347:297,1,85
84,212,105921,2,0,L|268:204,1,170,8|0,0:0|0:0,0:0:0:0:
352,312,106438,1,0,0:0:0:0:
298,133,106611,1,8,0:0:0:0:
252,232,106783,2,0,P|220:240|160:224,2,85
440,56,107300,6,0,L|448:244,1,170,8|0,0:0|0:0,0:0:0:0:
404,336,107817,1,0,0:0:0:0:
376,346,107904,1,0,0:0:0:0:
346,346,107990,1,8,0:0:0:0:
232,256,108162,1,0,0:0:0:0:
72,316,108335,6,0,P|104:324|160:312,1,85
200,176,108680,1,8,0:0:0:0:
336,236,108852,2,0,P|344:264|336:324,1,85,0|8,0:0|0:0,0:0:0:0:
132,220,109197,2,0,P|124:192|132:132,1,85,0|8,0:0|0:0,0:0:0:0:
316,80,109542,6,0,P|348:80|416:88,1,85
195,304,109886,2,0,P|164:304|96:295,1,85,0|0,0:3|0:3,0:3:0:0:
52,140,110231,1,8,0:0:0:0:
52,140,110317,1,8,0:0:0:0:
52,140,110404,1,8,0:0:0:0:
176,212,110576,1,8,0:0:0:0:
204,220,110662,1,8,0:0:0:0:
232,212,110749,1,8,0:0:0:0:
320,80,110921,1,0,0:0:0:0:
360,216,111093,6,0,P|372:272|344:344,1,127.5,4|0,0:0|0:0,0:0:0:0:
268,336,111438,2,0,P|236:332|176:340,1,85,8|0,0:0|0:0,0:0:0:0:
80,296,111783,1,0,0:0:0:0:
36,132,111955,1,0,0:0:0:0:
180,224,112128,1,8,0:0:0:0:
232,320,112300,6,0,P|280:260|284:168,1,170
244,32,112817,1,8,0:0:0:0:
180,124,112990,1,0,0:0:0:0:
180,124,113076,1,0,0:0:0:0:
180,124,113162,1,0,0:0:0:0:
348,224,113335,1,0,0:0:0:0:
188,280,113507,1,8,0:0:0:0:
312,116,113680,6,0,P|340:108|400:120,1,85
416,248,114024,1,8,0:0:0:0:
484,120,114197,1,8,0:0:0:0:
476,256,114369,1,0,0:0:0:0:
364,132,114542,1,0,0:0:0:0:
356,264,114714,1,0,0:0:0:0:
421,92,114886,1,8,0:0:0:0:
380,284,115059,6,0,P|324:300|208:228,1,170
164,104,115576,1,8,0:0:0:0:
40,212,115749,1,0,0:0:0:0:
48,240,115835,1,0,0:0:0:0:
64,264,115921,2,8,P|132:244|204:280,1,127.5,0|8,0:0|0:0,0:0:0:0:
208,280,116266,1,8,0:0:0:0:
268,188,116438,1,0,0:0:0:0:
360,344,116611,6,0,B|363:298|363:298|351:239|351:239|364:204|356:172,1,170,0|8,0:0|0:0,0:0:0:0:
232,36,117128,1,0,0:0:0:0:
192,156,117300,1,0,0:0:0:0:
320,88,117473,1,0,0:0:0:0:
316,232,117645,2,0,L|312:344,1,85
144,304,117990,6,0,L|148:144,1,127.5
148,148,118335,1,8,0:0:0:0:
260,48,118507,1,0,0:0:0:0:
308,184,118680,2,0,P|264:192|208:180,1,85
388,148,119024,1,8,0:0:0:0:
364,272,119197,1,0,0:0:0:0:
248,128,119369,6,0,P|204:128|160:152,2,85,0|0|8,0:0|0:0|0:0,0:0:0:0:
368,248,119886,2,0,P|412:248|456:220,1,85
232,252,120231,2,8,P|232:300|252:340,1,85,0|8,0:0|0:0,0:0:0:0:
80,328,120576,6,0,B|76:300|76:300|82:173|82:173|72:136,1,170
24,40,121093,1,8,0:0:0:0:
168,184,121266,1,8,0:0:0:0:
168,184,121352,1,8,0:0:0:0:
168,184,121438,1,8,0:0:0:0:
244,48,121611,1,8,0:0:0:0:
244,48,121697,1,0,0:0:0:0:
244,48,121783,1,8,0:0:0:0:
340,280,121955,1,8,0:0:0:0:
244,136,122128,5,4,0:0:0:0:
256,192,122214,12,0,126266,0:0:0:0:
252,144,133162,5,4,0:0:0:0:
172,68,138679,5,8,0:0:0:0:
224,232,138851,1,0,0:0:0:0:
64,172,139024,1,0,0:0:0:0:
120,332,139197,5,12,0:0:0:0:
232,204,139369,1,0,0:0:0:0:
340,336,139542,1,0,0:0:0:0:
340,168,139714,2,0,L|340:76,1,85,12|0,0:0|0:0,0:0:0:0:
176,36,140059,6,0,L|176:128,1,85,12|0,0:0|0:0,0:0:0:0:
176,232,140404,1,0,0:0:0:0:
272,340,140576,2,0,P|316:348|376:332,1,85,12|0,0:0|0:0,0:0:0:0:
456,296,140921,1,0,0:0:0:0:
284,80,141093,2,0,P|276:120|284:168,1,85,12|0,0:0|0:0,0:0:0:0:
188,296,141438,5,12,0:0:0:0:
76,148,141611,1,0,0:0:0:0:
228,108,141783,1,12,0:0:0:0:
148,264,141955,1,0,0:0:0:0:
188,76,142128,1,12,0:0:0:0:
228,264,142300,1,0,0:0:0:0:
148,108,142473,1,12,0:0:0:0:
300,224,142645,1,0,0:0:0:0:
168,332,142818,5,0,0:0:0:0:
128,344,142904,1,0,0:0:0:0:
88,328,142990,1,0,0:0:0:0:
68,292,143076,1,0,0:0:0:0:
68,248,143162,1,0,0:0:0:0:
80,208,143249,1,0,0:0:0:0:
112,180,143335,1,0,0:0:0:0:
148,156,143421,1,0,0:0:0:0:
176,124,143507,5,0,0:0:0:0:
180,80,143593,1,0,0:0:0:0:
156,44,143680,1,0,0:0:0:0:
112,32,143766,1,0,0:0:0:0:
68,44,143852,6,0,P|28:116|60:212,1,170,8|4,0:0|0:0,0:0:0:0:
80,304,144369,5,0,0:0:0:0:
152,176,144542,1,8,0:0:0:0:
196,276,144714,1,0,0:0:0:0:
244,176,144886,1,0,0:0:0:0:
312,304,145059,1,0,0:0:0:0:
384,180,145231,2,0,P|408:176|484:184,1,85,0|0,0:3|0:3,0:3:0:0:
248,40,145576,6,8,P|240:72|252:148,1,85,8|8,0:3|0:3,0:3:0:0:
288,288,145921,1,8,0:0:0:0:
376,220,146093,2,0,P|380:188|364:112,1,85,0|0,0:3|0:3,0:3:0:0:
264,40,146438,1,0,0:0:0:0:
192,236,146611,1,8,0:0:0:0:
248,332,146783,1,0,0:0:0:0:
364,200,146955,6,0,P|336:192|248:192,1,85
136,212,147300,2,0,B|124:180|144:100,1,85,8|0,0:0|0:0,0:0:0:0:
164,20,147645,1,0,0:0:0:0:
268,176,147817,1,0,0:0:0:0:
72,320,147990,6,0,P|104:324|180:312,1,85,8|0,0:0|0:0,0:0:0:0:
296,220,148335,2,8,P|338:214|380:219,1,85
256,344,148680,1,8,0:0:0:0:
216,240,148852,1,0,0:0:0:0:
104,112,149024,6,0,P|92:132|76:200,1,85,0|8,0:0|0:0,0:0:0:0:
76,204,149283,1,8,0:0:0:0:
76,216,149369,1,8,0:0:0:0:
76,328,149542,1,0,0:0:0:0:
184,180,149714,6,0,L|232:84,1,85
372,24,150059,2,0,L|324:120,1,85
280,196,150404,1,0,0:0:0:0:
208,44,150576,1,0,0:0:0:0:
400,148,150749,1,8,0:0:0:0:
296,116,150921,1,0,0:0:0:0:
352,252,151093,6,0,P|396:256|452:248,1,85
256,92,151438,1,8,0:0:0:0:
192,192,151611,2,0,P|184:232|192:292,1,85
304,88,151955,1,0,0:0:0:0:
384,208,152128,1,8,0:0:0:0:
328,312,152300,1,0,0:0:0:0:
192,192,152473,6,0,P|188:164|208:84,1,85
320,36,152817,2,0,P|323:64|303:144,1,85
296,228,153162,1,0,0:0:0:0:
116,308,153335,1,0,0:0:0:0:
156,116,153507,6,8,L|156:17,1,85
256,196,153852,2,0,L|256:288,1,85
344,140,154197,1,8,0:0:0:0:
300,40,154369,1,0,0:0:0:0:
88,72,154542,6,0,P|72:100|68:156,1,85,0|8,0:0|0:0,0:0:0:0:
68,168,154800,1,8,0:0:0:0:
68,184,154886,1,0,0:0:0:0:
124,344,155059,1,0,0:0:0:0:
124,344,155231,6,0,B|130:341|118:277|118:277|126:261,1,85,4|0,0:0|0:0,0:0:0:0:
172,124,155576,1,8,0:0:0:0:
224,224,155749,1,0,0:0:0:0:
320,168,155921,1,0,0:0:0:0:
144,204,156093,1,0,0:0:0:0:
300,80,156266,1,8,0:0:0:0:
196,44,156438,1,0,0:0:0:0:
240,232,156611,1,0,0:0:0:0:
172,124,156783,6,0,P|132:116|80:128,1,85,0|8,0:0|0:0,0:0:0:0:
132,228,157128,1,0,0:0:0:0:
220,296,157300,2,0,P|264:304|312:292,1,85
264,88,157645,1,8,0:0:0:0:
176,24,157817,1,0,0:0:0:0:
52,96,157990,2,0,P|44:124|52:192,1,85
72,324,158335,2,0,P|96:332|176:312,1,85,8|0,0:0|0:0,0:0:0:0:
164,152,158680,5,0,0:0:0:0:
284,32,158852,1,0,0:0:0:0:
360,184,159024,1,8,0:0:0:0:
268,124,159197,1,0,0:0:0:0:
308,264,159369,2,0,P|312:304|307:357,1,85
416,252,159714,1,8,0:0:0:0:
460,152,159886,1,0,0:0:0:0:
292,184,160059,1,0,0:0:0:0:
244,320,160231,1,8,0:0:0:0:
244,320,160317,1,8,0:0:0:0:
244,320,160404,2,0,P|200:324|152:316,1,85,8|0,0:0|0:0,0:0:0:0:
72,148,160749,6,0,L|72:48,1,85
204,116,161093,2,0,P|236:120|316:104,1,85,8|0,0:0|0:0,0:0:0:0:
396,88,161438,1,0,0:0:0:0:
376,256,161611,1,0,0:0:0:0:
212,216,161783,1,8,0:0:0:0:
256,116,161955,1,0,0:0:0:0:
292,284,162128,1,0,0:0:0:0:
396,88,162300,6,0,B|432:184,1,85,0|8,0:0|0:0,0:0:0:0:
460,264,162645,2,0,B|472:312|448:368,2,85
316,176,163162,1,8,0:0:0:0:
376,272,163335,1,0,0:0:0:0:
220,340,163507,2,0,L|324:340,1,85
112,252,163852,5,8,0:0:0:0:
176,152,164024,1,0,0:0:0:0:
60,184,164197,1,0,0:0:0:0:
196,232,164369,1,0,0:0:0:0:
124,36,164542,2,0,L|100:144,1,85,8|0,0:0|0:0,0:0:0:0:
60,284,164886,6,0,P|104:280|152:248,1,85
232,148,165231,2,0,P|272:116|324:104,1,85,8|0,0:0|0:0,0:0:0:0:
392,220,165576,2,0,B|384:236|384:236|384:308,1,85
384,320,165835,1,0,0:0:0:0:
384,336,165921,1,8,0:0:0:0:
256,336,166093,1,0,0:0:0:0:
92,236,166266,6,0,P|176:216|260:264,1,170,4|8,0:0|0:0,0:0:0:0:
308,92,166783,1,0,0:0:0:0:
400,236,166955,2,0,P|360:256|300:256,1,85
204,172,167300,1,8,0:0:0:0:
124,236,167473,2,0,L|124:332,1,85
280,124,167817,2,0,L|280:20,1,85,0|8,0:0|0:0,0:0:0:0:
412,244,168162,6,0,P|428:164|388:84,1,170,0|8,0:0|0:0,0:0:0:0:
376,76,168593,1,8,0:0:0:0:
360,68,168680,1,8,0:0:0:0:
280,188,168852,1,0,0:0:0:0:
152,44,169024,6,0,P|184:72|204:120,2,85,0|0|8,0:0|0:0|0:0,0:0:0:0:
88,196,169542,2,0,L|96:300,1,85
224,340,169886,1,0,0:0:0:0:
264,176,170059,1,8,0:0:0:0:
376,292,170231,1,0,0:0:0:0:
376,292,170317,1,0,0:0:0:0:
376,292,170404,6,0,P|372:248|352:188,1,85
308,76,170749,1,8,0:0:0:0:
248,156,170921,2,0,L|272:252,1,85
132,196,171266,1,8,0:0:0:0:
132,196,171352,1,8,0:0:0:0:
132,196,171438,1,8,0:0:0:0:
180,104,171611,1,0,0:0:0:0:
208,336,171783,6,0,P|240:280|224:200,1,127.5
216,180,172128,1,8,0:0:0:0:
72,256,172300,1,0,0:0:0:0:
72,256,172473,2,0,L|72:140,1,85
128,36,172817,1,8,0:0:0:0:
204,136,172990,6,0,B|206:152|206:152|202:196|202:196|210:220,2,85
276,312,173507,2,0,B|316:280|316:280|376:320|460:320,1,170,8|0,0:0|0:0,0:0:0:0:
472,180,174024,1,8,0:0:0:0:
468,152,174111,1,8,0:0:0:0:
464,124,174197,1,8,0:0:0:0:
384,36,174369,1,0,0:0:0:0:
256,184,174542,6,0,L|268:92,1,85
156,228,174886,1,8,0:0:0:0:
328,228,175059,2,0,P|372:236|412:272,1,85
172,308,175404,2,0,P|132:320|96:360,1,85,0|8,0:0|0:0,0:0:0:0:
272,332,175749,6,0,P|316:324|360:292,1,85
192,104,176093,1,0,0:0:0:0:
308,192,176266,1,8,0:0:0:0:
280,52,176438,1,8,0:0:0:0:
280,52,176524,1,8,0:0:0:0:
280,52,176611,1,8,0:0:0:0:
212,208,176783,1,8,0:0:0:0:
212,208,176869,1,8,0:0:0:0:
212,208,176955,1,8,0:0:0:0:
212,328,177128,1,0,0:0:0:0:
296,212,177300,6,0,P|360:192|444:232,1,127.5,4|0,0:0|0:0,0:0:0:0:
436,232,177645,1,8,0:0:0:0:
292,320,177817,1,0,0:0:0:0:
372,188,177990,2,0,P|384:144|384:88,1,85
256,24,178335,1,8,0:0:0:0:
80,144,178507,6,0,L|80:248,1,85
200,316,178852,2,0,B|220:300|252:312|252:312|292:292|336:295|336:295|348:336,1,170
408,200,179369,2,0,L|424:288,1,85
452,116,179714,1,8,0:0:0:0:
316,60,179886,6,0,P|276:52|224:64,1,85
232,320,180231,2,0,P|272:328|324:316,1,85,0|0,0:3|0:3,0:3:0:0:
108,140,180576,2,0,P|100:188|112:236,1,85
412,216,180921,2,0,P|420:172|408:112,1,85,0|8,0:0|0:0,0:0:0:0:
232,32,181266,6,0,B|230:68|230:68|244:96|216:144|216:144|256:192|228:240|228:240|232:292,1,255,0|8,0:0|0:0,0:0:0:0:
380,296,181955,1,0,0:0:0:0:
384,128,182128,2,0,P|332:136|300:168,1,85,0|8,0:0|0:0,0:0:0:0:
300,172,182386,1,8,0:0:0:0:
296,188,182473,1,8,0:0:0:0:
328,300,182645,1,0,0:0:0:0:
208,308,182817,6,0,B|172:320|152:340|152:340|48:340,1,170,0|8,0:0|0:0,0:0:0:0:
76,216,183335,1,0,0:0:0:0:
184,148,183507,2,0,P|232:172|260:228,1,85
260,212,183766,1,0,0:0:0:0:
264,228,183852,1,8,0:0:0:0:
148,252,184024,1,0,0:0:0:0:
56,140,184197,6,0,P|48:184|52:240,1,85
188,268,184542,1,8,0:0:0:0:
216,128,184714,1,0,0:0:0:0:
216,128,184800,1,0,0:0:0:0:
216,128,184886,1,0,0:0:0:0:
352,188,185059,1,0,0:0:0:0:
188,224,185231,1,8,0:0:0:0:
288,88,185404,1,0,0:0:0:0:
292,256,185576,6,0,P|292:300|304:348,1,85
196,200,185921,2,0,P|196:156|183:108,1,85
68,36,186266,1,0,0:0:0:0:
72,204,186438,1,0,0:0:0:0:
80,232,186524,1,0,0:0:0:0:
104,252,186611,1,8,0:0:0:0:
244,216,186783,1,0,0:0:0:0:
324,304,186955,6,8,P|372:308|420:296,2,85,0|0|0,0:0|0:0|0:0,0:0:0:0:
152,288,187473,2,8,L|104:296,1,42.5
40,232,187645,1,8,0:0:0:0:
64,56,187817,2,8,L|128:56,1,42.5
176,120,187990,2,0,P|224:96|300:112,1,127.5,0|0,0:0|0:0,0:0:0:0:
352,164,188335,6,0,L|360:276,1,85,4|0,0:0|0:0,0:0:0:0:
256,352,188680,2,0,B|249:331|249:331|253:283|249:267,1,85,8|0,0:0|0:0,0:0:0:0:
232,152,189024,1,0,0:0:0:0:
168,280,189197,1,0,0:0:0:0:
332,244,189369,1,0,0:0:0:0:
332,100,189542,2,0,P|320:56|284:12,1,85
120,124,189886,2,8,P|112:164|120:212,1,85,0|8,0:0|0:0,0:0:0:0:
320,168,190231,6,0,P|368:156|408:120,1,85
376,280,190576,1,0,0:0:0:0:
248,212,190749,1,8,0:0:0:0:
348,148,190921,1,0,0:0:0:0:
296,284,191093,2,0,P|288:328|300:380,1,85
188,268,191438,1,8,0:0:0:0:
252,120,191611,6,0,P|256:76|244:24,1,85
264,204,191955,2,8,P|304:216|356:212,1,85,0|8,0:0|0:0,0:0:0:0:
320,100,192300,1,0,0:0:0:0:
288,300,192473,1,0,0:0:0:0:
184,180,192645,2,0,P|176:140|188:76,1,85,0|8,0:0|0:0,0:0:0:0:
316,36,192990,2,0,L|316:220,1,170,0|8,0:0|0:0,0:0:0:0:
316,224,193421,1,8,0:0:0:0:
316,240,193507,1,8,0:0:0:0:
284,356,193680,1,0,0:0:0:0:
212,188,193852,5,4,0:0:0:0:
140,280,194024,1,0,0:0:0:0:
108,140,194197,2,0,P|104:96|120:40,1,85,8|0,0:0|0:0,0:0:0:0:
272,52,194542,2,8,B|280:87|280:87|276:132|276:132|304:164|304:224,1,170,0|8,0:0|0:0,0:0:0:0:
260,328,195059,1,0,0:0:0:0:
212,188,195231,1,0,0:0:0:0:
108,140,195404,2,0,B|92:200|128:256|128:256|112:276|112:276|144:312,2,170
296,36,196266,5,8,0:0:0:0:
236,140,196438,1,0,0:0:0:0:
368,84,196611,1,0,0:0:0:0:
456,196,196783,2,0,L|364:172,1,85,0|8,0:0|0:0,0:0:0:0:
304,248,197128,2,0,L|212:224,1,85,0|8,0:0|0:0,0:0:0:0:
92,288,197473,1,0,0:0:0:0:
56,148,197645,1,8,0:0:0:0:
152,92,197817,2,0,L|152:200,1,85
300,40,198162,5,0,0:0:0:0:
440,140,198335,1,8,0:0:0:0:
300,164,198507,1,8,0:0:0:0:
300,164,198593,1,8,0:0:0:0:
300,164,198680,1,8,0:0:0:0:
272,304,198852,1,8,0:0:0:0:
272,304,198938,1,8,0:0:0:0:
272,304,199024,2,0,P|228:312|176:304,1,85,8|0,0:0|0:0,0:0:0:0:
300,164,199369,5,4,0:0:0:0:
224,72,199542,1,0,0:0:0:0:
148,196,199714,1,8,0:0:0:0:
232,140,199886,1,0,0:0:0:0:
136,104,200059,1,0,0:0:0:0:
216,256,200231,2,0,P|280:296|376:308,2,170
108,176,201093,5,8,0:0:0:0:
116,56,201266,1,0,0:0:0:0:
168,216,201438,1,0,0:0:0:0:
228,84,201611,1,0,0:0:0:0:
60,112,201783,1,8,0:0:0:0:
220,164,201955,6,0,P|240:208|220:268,1,85
132,348,202300,2,0,P|112:304|132:244,1,85,0|0,0:3|0:3,0:3:0:0:
248,268,202645,1,0,0:0:0:0:
264,176,202817,1,0,0:0:0:0:
408,268,202990,1,0,0:0:0:0:
332,324,203162,1,8,0:0:0:0:
344,152,203335,2,0,P|424:152|500:96,1,170
408,268,203852,5,8,0:0:0:0:
312,340,204024,1,0,0:0:0:0:
172,304,204197,2,0,P|136:280|120:236,1,85,0|8,0:0|0:0,0:0:0:0:
116,228,204455,1,8,0:0:0:0:
112,212,204542,1,8,0:0:0:0:
112,92,204714,1,0,0:0:0:0:
300,36,204886,6,0,P|368:88|392:168,1,170,4|8,0:0|0:0,0:0:0:0:
392,288,205404,1,0,0:0:0:0:
288,344,205576,1,0,0:0:0:0:
288,172,205749,1,0,0:0:0:0:
184,72,205921,2,0,L|216:164,1,85,8|0,0:0|0:0,0:0:0:0:
320,248,206266,5,0,0:0:0:0:
316,128,206438,1,0,0:0:0:0:
224,272,206611,1,8,0:0:0:0:
184,160,206783,2,0,P|144:148|88:164,1,85
44,288,207128,1,0,0:0:0:0:
180,240,207300,1,8,0:0:0:0:
184,120,207473,1,0,0:0:0:0:
320,248,207645,6,0,P|364:256|416:240,1,85
256,72,207990,1,8,0:0:0:0:
188,148,208162,2,0,B|232:200|280:172|280:172|312:152|344:172,1,170
468,244,208680,1,8,0:0:0:0:
468,244,208852,2,0,B|496:164|476:72,1,170
296,156,209369,5,8,0:0:0:0:
232,284,209542,1,8,0:0:0:0:
232,284,209628,1,8,0:0:0:0:
232,284,209714,1,8,0:0:0:0:
216,140,209886,1,8,0:0:0:0:
212,112,209972,1,8,0:0:0:0:
208,84,210058,1,8,0:0:0:0:
136,180,210231,1,0,0:0:0:0:
304,212,210404,6,0,P|384:192|484:224,1,170,4|8,0:0|0:0,0:0:0:0:
388,64,210921,2,0,P|348:56|296:64,1,85
200,196,211266,1,0,0:0:0:0:
288,312,211438,2,0,P|328:320|380:312,1,85
300,72,211783,6,0,L|300:172,1,85
232,284,212128,1,8,0:0:0:0:
132,220,212300,1,0,0:0:0:0:
40,264,212473,2,0,P|32:220|44:164,1,85
156,60,212817,2,0,P|200:52|248:60,1,85,8|0,0:0|0:0,0:0:0:0:
436,184,213162,5,0,0:0:0:0:
332,260,213335,1,0,0:0:0:0:
304,120,213507,1,8,0:0:0:0:
416,276,213680,1,0,0:0:0:0:
384,120,213852,1,0,0:0:0:0:
272,200,214024,1,0,0:0:0:0:
200,36,214197,2,0,P|192:76|200:128,1,85,8|0,0:0|0:0,0:0:0:0:
280,340,214542,6,0,P|288:299|280:248,1,85,8|0,0:0|0:0,0:0:0:0:
120,304,214886,1,8,0:0:0:0:
228,172,215059,1,0,0:0:0:0:
200,296,215231,1,0,0:0:0:0:
140,136,215404,1,8,0:0:0:0:
140,136,215490,1,8,0:0:0:0:
140,136,215576,1,8,0:0:0:0:
292,224,215749,1,0,0:0:0:0:
108,236,215921,6,0,P|100:280|108:324,1,85
224,372,216266,1,8,0:0:0:0:
320,132,216438,2,0,L|344:296,1,127.5
348,336,216783,1,0,0:0:0:0:
224,264,216955,2,0,P|228:308|248:352,1,85,8|0,0:0|0:0,0:0:0:0:
424,328,217300,5,0,0:0:0:0:
208,176,217473,2,0,P|172:192|140:224,1,85,0|8,0:0|0:0,0:0:0:0:
128,348,217817,1,0,0:0:0:0:
36,248,217990,1,0,0:0:0:0:
88,104,218162,1,8,0:0:0:0:
88,104,218249,1,8,0:0:0:0:
88,104,218335,1,8,0:0:0:0:
212,44,218507,1,0,0:0:0:0:
240,250,218680,6,0,P|212:216|212:168,1,85
296,60,219024,1,8,0:0:0:0:
336,200,219197,2,0,P|336:244|312:280,1,85
248,148,219542,1,0,0:0:0:0:
416,184,219714,2,0,P|456:184|512:152,1,85,8|0,0:0|0:0,0:0:0:0:
248,92,220059,5,0,0:0:0:0:
248,276,220231,2,0,P|248:320|220:368,1,85,0|8,0:0|0:0,0:0:0:0:
116,148,220576,1,0,0:0:0:0:
156,296,220749,1,0,0:0:0:0:
156,296,220835,1,0,0:0:0:0:
156,296,220921,1,0,0:0:0:0:
176,102,221093,1,8,0:0:0:0:
85,237,221266,1,0,0:0:0:0:
252,184,221438,6,4,P|332:220|368:292,1,170,4|8,0:0|0:0,0:0:0:0:
80,244,221955,2,0,P|72:160|112:84,1,170
308,124,222473,2,0,P|392:140|480:96,1,170,8|0,0:0|0:0,0:0:0:0:
320,260,222990,2,0,P|244:232|160:268,1,170
48,200,223507,2,0,L|48:100,1,85
152,28,223852,2,0,L|152:136,1,85,8|0,0:0|0:0,0:0:0:0:
212,220,224197,5,0,0:0:0:0:
272,88,224369,1,0,0:0:0:0:
120,144,224542,1,8,0:0:0:0:
308,168,224714,2,0,P|352:168|400:152,2,85
172,296,225231,5,8,0:0:0:0:
228,148,225404,1,0,0:0:0:0:
308,260,225576,1,0,0:0:0:0:
112,232,225749,2,0,P|92:268|92:312,1,85,0|8,0:0|0:0,0:0:0:0:
264,352,226093,1,0,0:0:0:0:
320,168,226266,1,0,0:0:0:0:
152,140,226438,1,8,0:0:0:0:
152,140,226524,1,8,0:0:0:0:
152,140,226611,1,8,0:0:0:0:
288,40,226783,1,0,0:0:0:0:
218,241,226955,6,0,L|222:329|222:329,1,85
313,148,227300,1,8,0:0:0:0:
452,70,227473,2,0,L|456:158|456:158,1,85,0|0,0:0|0:0,0:0:0:0:
312,243,227817,1,0,0:0:0:0:
203,104,227990,2,0,P|164:112|124:140,1,85,8|0,0:0|0:0,0:0:0:0:
128,308,228335,5,0,0:0:0:0:
268,216,228507,2,0,P|312:208|356:220,1,85,0|8,0:0|0:0,0:0:0:0:
228,308,228852,1,0,0:0:0:0:
108,216,229024,2,0,P|64:208|20:220,1,85
173,135,229369,1,8,0:0:0:0:
84,20,229542,1,0,0:0:0:0:
240,80,229714,6,0,P|284:88|336:76,1,85
429,153,230059,1,8,0:0:0:0:
216,168,230231,2,0,B|188:176|148:168|148:168|120:196,1,85
322,210,230576,1,0,0:0:0:0:
252,348,230749,6,0,P|240:304|256:256,1,85,8|0,0:0|0:0,0:0:0:0:
284,60,231093,2,0,P|296:104|280:148,1,85
167,289,231438,1,8,0:0:0:0:
105,110,231611,1,8,0:0:0:0:
105,110,231697,1,8,0:0:0:0:
105,110,231783,1,8,0:0:0:0:
88,232,231955,1,0,0:0:0:0:
200,60,232128,1,8,0:0:0:0:
291,181,232300,1,0,0:0:0:0:
416,60,232473,6,0,L|420:200,1,127.5,4|0,0:0|0:0,0:0:0:0:
420,264,232817,1,8,0:0:0:0:
336,144,232990,1,0,0:0:0:0:
309,318,233162,1,0,0:0:0:0:
216,213,233335,1,0,0:0:0:0:
347,234,233507,1,8,0:0:0:0:
222,318,233680,1,0,0:0:0:0:
116,360,233852,6,0,B|64:284|152:244|104:172,1,170
176,56,234369,1,0,0:0:0:0:
44,152,234542,1,0,0:0:0:0:
212,144,234714,1,0,0:0:0:0:
76,60,234886,1,8,0:0:0:0:
132,208,235059,1,0,0:0:0:0:
264,80,235231,6,0,P|304:72|352:84,1,85
460,216,235576,1,8,0:0:0:0:
300,168,235749,2,0,P|292:212|304:268,1,85
400,348,236093,1,0,0:0:0:0:
280,280,236266,2,0,L|136:280,1,127.5,8|0,0:0|0:0,0:0:0:0:
76,280,236611,5,0,0:0:0:0:
80,112,236783,2,0,P|104:144|112:196,1,85,0|8,0:0|0:0,0:0:0:0:
152,36,237128,1,0,0:0:0:0:
308,96,237300,2,0,L|216:100,1,85
152,280,237645,2,0,L|236:277,1,85,8|0,0:0|0:0,0:0:0:0:
436,160,237990,6,0,P|456:240|440:328,1,170,4|8,0:0|0:0,0:0:0:0:
236,236,238507,2,0,P|216:156|240:64,1,170
360,52,239024,2,0,P|372:96|356:144,1,85
224,92,239369,1,0,0:0:0:0:
160,192,239542,2,0,L|120:104,1,85
64,240,239886,1,0,0:0:0:0:
188,328,240059,1,0,0:0:0:0:
136,176,240231,1,8,0:0:0:0:
136,176,240317,1,8,0:0:0:0:
136,176,240404,1,8,0:0:0:0:
276,260,240576,1,0,0:0:0:0:
172,104,240749,5,0,0:0:0:0:
188,248,240921,1,0,0:0:0:0:
312,132,241093,1,8,0:0:0:0:
372,272,241266,2,0,P|416:284|472:268,2,85,0|0|0,0:0|0:0|0:0,0:0:0:0:
241,176,241783,5,8,0:0:0:0:
316,52,241955,1,0,0:0:0:0:
312,224,242128,1,0,0:0:0:0:
180,120,242300,1,0,0:0:0:0:
348,152,242473,1,0,0:0:0:0:
256,228,242645,1,0,0:0:0:0:
256,228,242731,1,8,0:0:0:0:
256,228,242817,1,0,0:0:0:0:
276,84,242990,1,8,0:0:0:0:
280,56,243076,1,8,0:0:0:0:
284,28,243162,1,8,0:0:0:0:
344,132,243335,1,0,0:0:0:0:
184,240,243507,6,8,B|156:260|156:260|88:236|4:280,1,170,4|8,0:0|0:0,0:0:0:0:
196,156,244024,2,0,P|236:172|264:212,1,85
216,320,244369,1,0,0:0:0:0:
116,180,244542,1,8,0:0:0:0:
256,84,244714,1,0,0:0:0:0:
184,240,244886,1,0,0:0:0:0:
336,260,245059,6,0,P|380:264|440:236,2,85,0|8|0,0:0|0:0|0:0,0:0:0:0:
224,120,245576,1,0,0:0:0:0:
264,312,245749,1,0,0:0:0:0:
368,144,245921,1,8,0:0:0:0:
196,200,246093,1,0,0:0:0:0:
344,280,246266,6,0,P|344:328|368:376,2,85,0|0|8,0:0|0:0|0:0,0:0:0:0:
168,104,246783,2,0,P|168:56|144:8,2,85,0|0|0,0:0|0:0|0:0,0:0:0:0:
168,280,247300,2,0,P|168:328|144:376,2,85,8|0|0,0:0|0:0|0:0,0:0:0:0:
344,104,247817,2,0,P|344:56|368:8,2,85,0|8|0,0:0|0:0|0:0,0:0:0:0:
284,296,248335,1,0,0:0:0:0:
170,138,248507,1,0,0:0:0:0:
352,198,248680,1,8,0:0:0:0:
170,258,248852,1,0,0:0:0:0:
284,101,249024,6,0,B|248:96|244:40|244:40|184:56|176:112,1,170,0|8,0:0|0:0,0:0:0:0:
224,308,249542,2,0,P|236:264|232:220,1,85
112,216,249886,1,0,0:0:0:0:
304,184,250059,2,0,P|348:176|396:188,1,85,8|0,0:0|0:0,0:0:0:0:
355,335,250404,5,0,0:0:0:0:
192,192,250576,2,0,P|188:148|196:96,1,85,0|8,0:0|0:0,0:0:0:0:
84,44,250921,1,0,0:0:0:0:
272,108,251093,2,0,P|316:100|360:112,1,85
448,216,251438,2,0,L|452:308,1,85,8|0,0:0|0:0,0:0:0:0:
340,356,251783,5,0,0:0:0:0:
272,196,251955,1,0,0:0:0:0:
264,312,252128,1,8,0:0:0:0:
380,164,252300,1,0,0:0:0:0:
400,300,252473,1,0,0:0:0:0:
204,248,252645,1,0,0:0:0:0:
312,128,252817,2,0,P|316:84|304:36,1,85,8|0,0:0|0:0,0:0:0:0:
240,176,253162,5,0,0:0:0:0:
352,244,253335,1,0,0:0:0:0:
160,252,253507,2,0,P|120:244|68:256,1,85,8|8,0:0|0:0,0:0:0:0:
64,264,253766,1,8,0:0:0:0:
56,276,253852,1,8,0:0:0:0:
208,332,254024,2,8,L|256:320,1,42.5
276,240,254197,2,0,B|268:224|268:224|288:192|292:136|268:104|268:104|236:120,1,170,8|4,0:0|0:0,0:0:0:0:
256,192,254628,12,0,258680,0:0:0:0:
