osu file format v14

[General]
AudioFilename: audio.mp3
AudioLeadIn: 0
PreviewTime: 56280
Countdown: 0
SampleSet: Soft
StackLeniency: 0.2
Mode: 0
LetterboxInBreaks: 0
WidescreenStoryboard: 1

[Editor]
Bookmarks: 112278
DistanceSpacing: 1
BeatDivisor: 4
GridSize: 32
TimelineZoom: 2.1

[Metadata]
Title:Rocking to the Beat (Cut Ver.)
TitleUnicode:Rocking to the Beat (Cut Ver.)
Artist:C-Show
ArtistUnicode:C-Show
Creator:Strategas
Version:Kyouren's Insane
Source:
Tags:english electronic dnb drum and & bass Tachibana_ AmeThysTas Jooa FreudeMan Kyouren gokugohan12468 kittyadventure featured artist fa
BeatmapID:4289534
BeatmapSetID:2031865

[Difficulty]
HPDrainRate:4.5
CircleSize:4
OverallDifficulty:8
ApproachRate:9
SliderMultiplier:1.8
SliderTickRate:1

[Events]
//Background and Video events
0,0,"00071.jpg",0,0
//Break Periods
2,24347,33658
//Storyboard Layer 0 (Background)
//Storyboard Layer 1 (Fail)
//Storyboard Layer 2 (Pass)
//Storyboard Layer 3 (Foreground)
//Storyboard Layer 4 (Overlay)
//Storyboard Sound Samples

[TimingPoints]
1934,344.827586206897,4,2,25,65,1,0
1934,-100,4,2,25,65,0,0
12968,-100,4,2,25,70,0,0
24002,-153.846153846153,4,2,25,55,0,0
35037,-153.846153846153,4,2,25,60,0,0
46071,-117.647058823529,4,2,25,65,0,0
51589,-100,4,2,25,70,0,0
56416,-133.333333333333,4,2,25,70,0,0
57106,-100,4,2,26,75,0,1
68140,-100,4,2,26,75,0,0
68658,-100,4,2,26,75,0,1
76416,-100,4,2,26,70,0,1
79175,-100,4,2,26,75,0,1
90209,-133.333333333333,4,2,25,70,0,0
91071,-100,4,2,26,75,0,1
98485,-100,4,2,26,70,0,1
99951,-100,4,2,26,5,0,1
100037,-100,4,2,26,35,0,1
100209,-100,4,2,26,40,0,1
100382,-100,4,2,26,50,0,1
100554,-100,4,2,26,60,0,1
100727,-100,4,2,26,70,0,1
100899,-100,4,2,26,80,0,1
101244,-100,4,2,25,70,0,0

[Colours]
Combo1 : 202,141,74
Combo2 : 163,115,114
Combo3 : 214,97,63
Combo4 : 180,97,97

[HitObjects]
155,195,1934,5,4,1:2:0:0:
85,250,2106,1,0,0:0:0:0:
30,175,2278,2,0,L|43:86,1,90,8|2,0:0|0:0,0:0:0:0:
43,85,2537,1,2,0:0:0:0:
43,85,2623,1,2,0:0:0:0:
85,250,2796,1,0,1:0:0:0:
169,106,2968,2,0,L|155:194,1,90,8|0,0:0|0:0,0:0:0:0:
255,355,3313,5,0,1:0:0:0:
295,280,3485,1,0,0:0:0:0:
375,310,3658,2,0,L|464:322,1,90,8|2,0:0|0:0,0:0:0:0:
464,322,3916,1,2,0:0:0:0:
464,322,4002,1,2,0:0:0:0:
295,280,4175,1,0,1:0:0:0:
375,135,4347,2,0,L|362:224,1,90,8|0,0:0|0:0,0:0:0:0:
169,106,4692,6,0,L|181:195,1,90,0|0,1:0|0:0,0:0:0:0:
375,135,5037,2,0,L|362:45,1,90,8|2,0:0|0:0,0:0:0:0:
362,45,5296,1,2,0:0:0:0:
362,45,5382,1,2,0:0:0:0:
285,10,5554,1,0,1:0:0:0:
465,125,5727,2,0,L|452:35,1,90,8|0,0:0|0:0,0:0:0:0:
169,106,6071,6,0,L|258:118,1,90,0|0,1:0|0:0,0:0:0:0:
451,237,6416,2,0,L|361:224,1,90,8|2,0:0|0:0,0:0:0:0:
361,224,6675,1,2,0:0:0:0:
361,224,6761,1,2,0:0:0:0:
295,285,6934,1,0,1:0:0:0:
258,118,7106,2,0,L|246:207,1,90,8|0,0:0|0:0,0:0:0:0:
70,370,7451,5,0,1:0:0:0:
20,300,7623,1,0,0:0:0:0:
90,250,7796,2,0,L|179:262,1,90,8|2,0:0|0:0,0:0:0:0:
179,262,8054,1,2,0:0:0:0:
179,262,8140,1,2,0:0:0:0:
295,285,8313,1,0,1:0:0:0:
169,106,8485,2,0,L|258:118,1,90,8|0,0:0|0:0,0:0:0:0:
465,125,8830,6,0,L|376:113,1,90,0|0,1:0|0:0,0:0:0:0:
225,10,9175,2,0,L|314:22,1,90,8|2,0:0|0:0,0:0:0:0:
314,22,9434,1,2,0:0:0:0:
314,22,9520,1,2,0:0:0:0:
325,180,9692,1,0,1:0:0:0:
477,36,9865,2,0,L|465:125,1,90,8|0,0:0|0:0,0:0:0:0:
395,280,10209,6,0,L|407:191,1,90,0|0,1:0|0:0,0:0:0:0:
258,118,10554,2,0,L|246:207,1,90,8|2,0:0|0:0,0:0:0:0:
245,207,10813,1,2,0:0:0:0:
245,207,10899,1,2,0:0:0:0:
376,113,11071,1,0,1:0:0:0:
314,22,11244,2,0,L|225:10,1,90,8|0,0:0|0:0,0:0:0:0:
157,195,11589,6,0,L|169:106,1,90,0|0,1:0|0:0,0:0:0:0:
35,5,11934,2,0,L|23:94,1,90,8|2,0:0|0:0,0:0:0:0:
22,94,12192,1,2,0:0:0:0:
22,94,12278,1,2,0:0:0:0:
22,187,12451,1,0,1:0:0:0:
22,187,12537,1,0,1:0:0:0:
22,187,12623,1,8,0:0:0:0:
255,355,12968,6,0,P|289:327|309:287,1,90,4|0,1:2|0:0,0:0:0:0:
239,135,13313,1,8,0:0:0:0:
140,280,13485,2,0,P|184:284|226:270,1,90,0|2,0:0|0:0,0:0:0:0:
370,225,13830,1,0,1:0:0:0:
110,145,14002,2,0,P|137:179|177:199,1,90,8|0,0:0|0:0,0:0:0:0:
350,40,14347,6,0,P|354:84|340:126,1,90,0|0,1:0|0:0,0:0:0:0:
290,200,14692,1,8,0:0:0:0:
220,5,14865,1,2,0:0:0:0:
254,33,14951,1,0,3:0:0:0:
274,73,15037,1,2,0:0:0:0:
420,150,15209,1,0,1:0:0:0:
500,0,15382,2,0,P|465:28|446:68,1,90,8|0,0:0|0:0,0:0:0:0:
448,232,15727,6,0,P|483:204|502:164,1,90,0|0,1:0|0:0,0:0:0:0:
370,330,16071,2,0,P|414:334|456:320,1,90,8|2,0:0|0:0,0:0:0:0:
456,320,16330,1,0,3:0:0:0:
456,320,16416,1,2,0:0:0:0:
448,232,16589,1,0,1:0:0:0:
225,325,16761,2,0,P|253:360|293:379,1,90,8|0,0:0|0:0,0:0:0:0:
135,265,17106,6,0,P|130:309|144:351,1,90,0|0,1:0|0:0,0:0:0:0:
280,250,17451,1,8,0:0:0:0:
207,207,17623,1,2,0:0:0:0:
207,207,17709,1,0,3:0:0:0:
207,207,17796,1,2,0:0:0:0:
280,165,17968,1,0,1:0:0:0:
200,30,18140,2,0,P|214:72|209:116,1,90,8|0,0:0|0:0,0:0:0:0:
410,140,18485,6,0,P|390:180|355:208,1,90,0|0,1:0|0:0,0:0:0:0:
280,165,18830,1,8,0:0:0:0:
445,280,19002,1,2,0:0:0:0:
402,294,19089,1,0,3:0:0:0:
358,289,19175,1,2,0:0:0:0:
280,250,19347,1,0,1:0:0:0:
410,140,19520,2,0,P|390:180|355:208,1,90,8|0,0:0|0:0,0:0:0:0:
200,30,19865,6,0,P|214:72|209:116,1,90,0|0,1:0|0:0,0:0:0:0:
60,95,20209,2,0,P|99:114|127:149,1,90,8|2,0:0|0:0,0:0:0:0:
127,150,20468,1,0,3:0:0:0:
127,150,20554,1,2,0:0:0:0:
280,165,20727,1,0,1:0:0:0:
280,250,20899,1,8,0:0:0:0:
207,207,21071,1,0,0:0:0:0:
355,208,21244,5,0,1:0:0:0:
365,205,21330,1,0,3:0:0:0:
376,203,21416,1,0,3:0:0:0:
388,201,21502,1,0,3:0:0:0:
399,199,21589,2,0,P|394:176|391:154,3,45,8|0|2|0,3:2|3:0|3:2|3:0,0:0:0:0:
462,118,21934,5,2,3:2:0:0:
473,115,22020,1,0,3:0:0:0:
484,113,22106,1,0,1:0:0:0:
496,111,22192,1,0,3:0:0:0:
506,109,22279,2,0,P|501:86|498:64,3,45,8|0|0|0,0:0|3:0|3:0|3:0,0:0:0:0:
432,18,22623,5,0,1:0:0:0:
421,20,22709,1,0,3:0:0:0:
410,22,22795,1,0,3:0:0:0:
398,24,22881,1,0,0:0:0:0:
388,27,22968,2,0,P|393:50|396:72,3,45,8|0|2|0,3:2|3:0|3:2|3:0,0:0:0:0:
323,107,23313,6,0,P|301:110|279:115,1,45,2|0,3:2|3:0,0:0:0:0:
279,115,23485,1,0,1:0:0:0:
279,115,23571,1,0,1:0:0:0:
279,115,23658,1,8,3:2:0:0:
255,325,24002,5,4,3:1:0:0:
315,190,35037,6,0,P|329:134|309:80,1,116.999994644165,2|2,0:0|0:0,0:0:0:0:
155,90,35727,2,0,P|140:145|160:199,1,116.999994644165,2|2,0:0|0:0,0:0:0:0:
235,135,36244,2,0,L|227:18,1,116.999994644165,2|0,0:0|0:0,0:0:0:0:
315,190,36761,2,0,L|307:306,1,116.999994644165,2|2,0:0|0:0,0:0:0:0:
470,190,37451,2,0,L|466:131,1,58.4999973220826,2|2,0:0|0:0,0:0:0:0:
472,48,37796,6,0,B|414:57|424:69|359:80,1,116.999994644165,0|0,0:0|0:0,0:0:0:0:
365,165,38313,2,0,B|300:153|310:141|252:132,1,116.999994644165,0|0,0:0|0:0,0:0:0:0:
200,70,38830,2,0,P|172:78|148:95,1,58.4999973220826,0|2,0:0|0:0,0:0:0:0:
70,70,39175,6,0,P|56:96|51:124,1,58.4999973220826,2|2,0:0|0:0,0:0:0:0:
162,228,39520,2,0,P|175:201|180:173,1,58.4999973220826,2|2,0:0|0:0,0:0:0:0:
10,200,39865,2,0,P|25:256|34:314,1,116.999994644165,2|0,0:0|0:0,0:0:0:0:
255,375,40554,6,0,P|309:354|367:349,1,116.999994644165,2|2,0:0|0:0,0:0:0:0:
335,185,41244,2,0,P|280:205|222:210,1,116.999994644165,2|2,0:0|0:0,0:0:0:0:
240,300,41761,2,0,P|294:279|352:274,1,116.999994644165,2|0,0:0|0:0,0:0:0:0:
415,215,42278,2,0,L|472:224,2,58.4999973220826,2|2|2,0:0|0:0|0:0,0:0:0:0:
475,55,42968,2,0,L|417:64,1,58.4999973220826,2|2,0:0|0:0,0:0:0:0:
345,30,43313,6,0,B|335:99|329:74|321:144,1,116.999994644165,0|2,0:0|0:0,0:0:0:0:
390,180,43830,2,0,P|368:232|313:244,1,116.999994644165,0|0,0:0|0:0,0:0:0:0:
255,190,44347,2,0,L|197:180,1,58.4999973220826,0|0,0:0|0:0,0:0:0:0:
105,285,44692,6,0,L|125:230,1,58.4999973220826,2|2,0:0|0:0,0:0:0:0:
80,100,45037,2,0,L|117:145,1,58.4999973220826,2|2,0:0|0:0,0:0:0:0:
255,190,45382,1,2,0:0:0:0:
255,190,45727,2,0,L|197:180,1,58.4999973220826,0|0,0:0|0:0,0:0:0:0:
325,140,46071,6,0,P|332:102|340:65,1,76.5000014591217,4|0,1:2|0:0,0:0:0:0:
375,210,46416,2,0,P|412:217|449:225,1,76.5000014591217,0|0,1:0|0:0,0:0:0:0:
305,260,46761,2,0,P|297:297|289:334,1,76.5000014591217,0|0,1:0|0:0,0:0:0:0:
255,190,47106,2,0,P|217:182|180:174,1,76.5000014591217,0|0,1:0|0:0,0:0:0:0:
50,85,47451,6,0,P|88:93|125:101,1,76.5000014591217,0|0,1:0|0:0,0:0:0:0:
230,20,47796,2,0,P|222:58|214:95,1,76.5000014591217,0|0,1:0|0:0,0:0:0:0:
80,255,48140,2,0,P|88:217|96:180,1,76.5000014591217,0|0,1:0|0:0,0:0:0:0:
255,190,48485,2,0,P|247:228|239:265,1,76.5000014591217,0|0,1:0|0:0,0:0:0:0:
175,320,48830,6,0,P|249:308|318:338,2,153.000002918243,0|0|0,1:0|1:0|1:0,0:0:0:0:
345,165,49865,2,0,P|337:203|329:240,1,76.5000014591217,0|0,1:0|0:0,0:0:0:0:
214,95,50209,6,0,P|251:87|288:78,1,76.5000014591217,2|2,1:2|0:2,0:0:0:0:
420,182,50554,2,0,P|382:172|345:165,1,76.5000014591217,2|2,1:2|0:2,0:0:0:0:
350,20,50899,2,0,P|422:28|445:97,1,153.000002918243,2|0,1:2|1:0,0:0:0:0:
235,235,51589,5,8,0:0:0:0:
214,95,51761,1,0,1:0:0:0:
345,165,51934,1,0,1:0:0:0:
165,175,52106,2,0,P|122:159|78:149,1,90,8|0,0:0|1:0,0:0:0:0:
214,95,52451,1,0,1:0:0:0:
235,235,52623,2,0,P|219:277|209:321,1,90,8|0,0:0|1:0,0:0:0:0:
345,165,52968,5,0,1:0:0:0:
470,110,53140,2,0,P|485:67|495:23,2,90,8|0|0,0:0|1:0|1:0,0:0:0:0:
285,0,53658,2,0,P|294:43|300:88,1,90,8|0,0:0|1:0,0:0:0:0:
168,192,54002,2,0,P|144:153|115:119,1,90,8|0,0:0|1:0,0:0:0:0:
175,330,54347,5,8,0:0:0:0:
330,370,54520,1,0,1:0:0:0:
180,335,54692,1,8,0:0:0:0:
350,275,54865,1,0,1:0:0:0:
258,192,55037,6,0,L|168:192,1,90,8|0,0:0|1:0,0:0:0:0:
256,280,55382,1,8,0:0:0:0:
348,192,55554,1,2,1:2:0:0:
256,106,55727,6,0,L|256:61,1,45,0|0,1:0|1:0,0:0:0:0:
348,192,55899,2,0,L|393:192,1,45,2|0,1:2|1:0,0:0:0:0:
256,280,56071,2,0,L|256:325,1,45,2|0,1:2|1:0,0:0:0:0:
168,192,56244,2,0,L|123:192,1,45,2|0,1:2|1:0,0:0:0:0:
4,106,56416,6,0,B|65:120|65:120|93:177|93:177|167:192,1,202.500007724762,2|2,1:2|0:0,0:0:0:0:
490,100,57106,6,0,P|435:32|348:35,1,180,6|8,1:2|0:0,0:0:0:0:
250,135,57623,1,2,0:0:0:0:
335,120,57796,1,2,0:0:0:0:
270,0,57968,1,0,1:0:0:0:
170,80,58140,2,0,P|126:66|84:52,1,90,8|0,0:0|0:0,0:0:0:0:
250,135,58485,5,0,1:0:0:0:
170,80,58658,1,2,0:0:0:0:
240,225,58830,5,10,0:0:0:0:
250,135,59002,1,2,0:0:0:0:
155,175,59175,1,2,0:0:0:0:
230,330,59347,1,2,1:2:0:0:
345,195,59520,2,0,P|389:202|433:211,1,90,8|0,0:0|0:0,0:0:0:0:
250,135,59865,5,0,1:0:0:0:
310,15,60037,2,0,P|385:59|472:44,1,180,2|2,0:0|0:0,0:0:0:0:
480,35,60468,1,2,0:0:0:0:
485,25,60554,2,0,L|476:114,1,90,2|0,0:0|1:0,0:0:0:0:
320,190,60899,2,0,L|328:279,1,90,8|2,0:0|0:0,0:0:0:0:
470,375,61244,6,0,P|511:297|493:210,1,180,2|8,1:2|0:0,0:0:0:0:
420,280,61761,1,2,0:0:0:0:
320,190,61934,2,0,P|277:203|233:212,1,90,2|2,0:0|1:2,0:0:0:0:
170,330,62278,2,0,P|214:338|256:352,1,90,10|2,0:0|0:0,0:0:0:0:
60,370,62623,6,0,P|16:293|36:208,1,180,0|8,1:0|0:0,0:0:0:0:
50,124,63140,1,0,0:0:0:0:
134,134,63313,1,2,0:0:0:0:
124,216,63485,1,0,1:0:0:0:
285,35,63658,1,8,0:0:0:0:
300,115,63830,1,2,0:0:0:0:
365,55,64002,5,0,1:0:0:0:
220,95,64175,1,2,0:0:0:0:
380,135,64347,1,10,0:0:0:0:
235,175,64520,1,2,0:0:0:0:
285,35,64692,1,2,0:0:0:0:
300,115,64865,1,2,1:2:0:0:
315,195,65037,2,0,L|330:283,1,90,10|0,0:0|0:0,0:0:0:0:
445,80,65382,5,0,1:0:0:0:
220,95,65554,2,0,P|133:82|62:134,1,180,2|2,0:0|0:0,0:0:0:0:
60,145,65985,1,2,0:0:0:0:
60,155,66071,2,0,L|75:243,1,90,2|2,0:0|1:2,0:0:0:0:
315,195,66416,2,0,L|300:283,1,90,8|2,0:0|0:0,0:0:0:0:
190,360,66761,6,0,B|206:253|165:300|183:182,1,180,2|8,1:2|0:0,0:0:0:0:
459,142,67278,2,0,P|401:206|316:196,1,180,2|2,0:0|1:2,0:0:0:0:
305,190,67709,1,2,1:2:0:0:
298,182,67796,2,0,L|313:94,1,90,10|0,0:0|0:0,0:0:0:0:
115,10,68140,5,0,1:0:0:0:
55,75,68313,1,0,1:0:0:0:
190,50,68485,1,8,0:0:0:0:
0,190,68658,6,0,B|46:183|81:208|81:208|80:218|80:218|116:245|161:236,1,180,2|0,0:0|1:0,0:0:0:0:
20,340,69175,2,0,B|61:324|61:324|106:329,1,90,8|0,0:0|0:0,0:0:0:0:
260,195,69520,5,0,1:0:0:0:
245,280,69692,1,2,0:0:0:0:
345,210,69865,1,10,0:0:0:0:
330,295,70037,1,2,0:0:0:0:
141,147,70209,5,2,0:0:0:0:
160,236,70382,1,2,1:2:0:0:
350,110,70554,1,8,0:0:0:0:
230,50,70727,2,0,B|194:42|194:42|182:45|182:45|141:40,1,90,2|0,0:0|1:0,0:0:0:0:
260,195,71071,6,0,B|377:182|314:211|438:197,1,180,2|2,0:0|0:0,0:0:0:0:
445,195,71502,1,2,0:0:0:0:
450,190,71589,2,0,L|465:101,1,90,2|2,0:0|1:2,0:0:0:0:
345,210,71934,2,0,L|360:298,1,90,8|2,0:0|0:0,0:0:0:0:
230,50,72278,6,0,P|162:105|74:96,1,180,2|10,1:2|0:0,0:0:0:0:
15,40,72796,1,2,0:0:0:0:
170,135,72968,2,0,L|155:224,1,90,2|2,0:0|1:2,0:0:0:0:
95,360,73313,1,10,0:0:0:0:
70,270,73485,1,2,0:0:0:0:
215,290,73658,6,0,B|332:277|269:306|393:292,1,180,0|8,1:0|0:0,0:0:0:0:
485,255,74175,1,0,0:0:0:0:
405,200,74347,1,2,0:0:0:0:
394,292,74520,5,0,1:0:0:0:
490,160,74692,2,0,P|501:117|508:72,1,90,8|2,0:0|0:0,0:0:0:0:
255,160,75037,5,0,1:0:0:0:
190,100,75209,1,2,0:0:0:0:
340,135,75382,1,10,0:0:0:0:
235,245,75554,1,2,0:0:0:0:
275,75,75727,1,2,0:0:0:0:
320,220,75899,1,2,1:2:0:0:
170,185,76071,1,10,0:0:0:0:
255,160,76244,1,2,0:0:0:0:
300,305,76416,6,0,P|223:349|135:339,1,180,0|8,1:0|0:0,0:0:0:0:
320,220,76934,2,0,B|360:230|384:229|384:229|402:250|402:250|440:251|488:262,1,180,2|0,0:0|1:0,0:0:0:0:
170,185,77451,2,0,B|139:194|139:194|128:205|128:205|87:216,1,90,8|2,0:0|0:0,0:0:0:0:
275,75,77796,6,0,B|392:62|329:91|453:77,1,180,0|8,1:0|0:0,0:0:0:0:
255,160,78313,1,0,1:0:0:0:
190,100,78485,1,0,1:0:0:0:
282,82,78658,1,0,1:0:0:0:
282,82,78744,1,0,1:0:0:0:
282,82,78830,1,10,0:0:0:0:
170,185,79002,1,2,0:0:0:0:
335,310,79175,5,4,1:2:0:0:
414,322,79347,2,0,P|403:239|320:220,1,180,2|0,0:0|0:0,0:0:0:0:
170,185,79865,1,0,3:0:0:0:
255,160,80037,1,0,1:0:0:0:
165,20,80209,1,8,0:0:0:0:
25,90,80382,1,0,0:0:0:0:
170,185,80554,6,0,L|178:274,2,90,0|2|10,1:0|0:0|0:0,0:0:0:0:
247,71,81071,5,2,0:0:0:0:
251,115,81158,1,2,0:0:0:0:
255,160,81244,1,2,0:0:0:0:
320,220,81416,5,2,1:2:0:0:
510,190,81589,1,10,0:0:0:0:
410,250,81761,2,0,L|418:161,1,90,2|0,0:0|1:0,0:0:0:0:
500,30,82106,6,0,P|414:51|332:17,1,180,2|2,0:0|0:0,0:0:0:0:
320,15,82537,1,2,0:0:0:0:
305,15,82623,2,0,L|215:27,1,90,2|2,0:0|1:2,0:0:0:0:
215,180,82968,2,0,L|305:192,1,90,8|2,0:0|0:0,0:0:0:0:
270,105,83313,6,0,B|144:92|226:119|91:106,1,180,2|8,1:2|0:0,0:0:0:0:
25,43,83830,2,0,P|67:29|108:10,1,90,2|2,0:0|0:0,0:0:0:0:
91,106,84175,1,2,1:2:0:0:
20,170,84347,2,0,P|62:183|103:202,1,90,10|2,0:0|0:0,0:0:0:0:
270,105,84692,5,0,1:0:0:0:
220,20,84865,2,0,P|179:97|209:180,1,180,2|2,0:0|0:0,0:0:0:0:
335,165,85382,1,2,0:0:0:0:
335,45,85554,1,0,1:0:0:0:
270,105,85727,1,8,0:0:0:0:
393,107,85899,1,0,0:0:0:0:
335,45,86071,5,0,1:0:0:0:
455,165,86244,1,2,0:0:0:0:
455,45,86416,1,10,0:0:0:0:
336,165,86589,1,2,0:0:0:0:
475,250,86761,1,2,0:0:0:0:
393,107,86934,1,2,1:2:0:0:
270,105,87106,1,10,0:0:0:0:
190,250,87278,2,0,B|230:246|230:246|237:251|237:251|278:246,1,90,2|0,0:0|1:0,0:0:0:0:
130,170,87623,6,0,P|95:250|128:332,1,180,2|2,0:0|0:0,0:0:0:0:
135,340,88054,1,2,0:0:0:0:
144,346,88140,2,0,L|55:361,1,90,2|2,0:0|1:2,0:0:0:0:
190,250,88485,2,0,L|278:235,1,90,8|2,0:0|0:0,0:0:0:0:
405,185,88830,6,0,P|366:264|385:350,1,180,2|8,1:2|0:0,0:0:0:0:
500,155,89347,2,0,P|436:95|349:104,1,180,2|2,0:0|1:2,0:0:0:0:
338,112,89778,1,2,1:2:0:0:
330,120,89865,2,0,L|335:30,1,90,10|0,0:0|0:0,0:0:0:0:
5,215,90209,6,0,B|77:230|77:230|102:266|102:266|185:286,1,202.500007724762,0|2,1:0|0:0,0:0:0:0:
200,75,91071,5,0,1:0:0:0:
155,10,91244,2,0,P|84:59|92:144,1,180,8|0,0:0|1:0,0:0:0:0:
228,187,91761,5,2,0:0:0:0:
340,159,91934,1,10,0:0:0:0:
312,47,92106,1,2,0:0:0:0:
312,47,92192,1,2,0:0:0:0:
312,47,92278,1,2,0:0:0:0:
200,75,92451,1,2,1:2:0:0:
228,187,92623,1,8,0:0:0:0:
340,159,92796,2,0,B|373:167|373:167|389:178|389:178|424:186,1,90,2|0,0:0|1:0,0:0:0:0:
200,75,93140,6,0,P|112:71|50:133,1,180,2|2,0:0|0:0,0:0:0:0:
45,140,93571,1,2,0:0:0:0:
40,150,93658,2,0,L|63:237,1,90,2|2,0:0|1:2,0:0:0:0:
251,274,94002,2,0,L|228:187,1,90,8|2,0:0|0:0,0:0:0:0:
63,237,94347,6,0,P|135:192|230:187,1,180,2|8,1:2|0:0,0:0:0:0:
340,120,94865,1,2,0:0:0:0:
240,65,95037,1,2,0:0:0:0:
315,205,95209,1,2,1:2:0:0:
455,140,95382,1,10,0:0:0:0:
380,0,95554,1,2,0:0:0:0:
340,120,95727,5,0,1:0:0:0:
340,120,95899,2,0,P|360:207|365:297,1,180,2|2,0:0|0:0,0:0:0:0:
300,355,96416,2,0,L|210:367,1,90,2|0,0:0|1:0,0:0:0:0:
100,350,96761,1,8,0:0:0:0:
175,270,96934,1,0,0:0:0:0:
211,368,97106,5,0,1:0:0:0:
20,285,97278,1,2,0:0:0:0:
135,155,97451,1,10,0:0:0:0:
175,270,97623,1,2,0:0:0:0:
335,270,97796,1,2,0:0:0:0:
375,155,97968,1,2,1:2:0:0:
255,55,98140,1,10,0:0:0:0:
255,145,98313,1,2,1:2:0:0:
335,270,98485,6,0,P|418:238|505:255,1,180,0|8,1:0|0:0,0:0:0:0:
512,338,99002,2,0,P|428:369|341:352,1,180,0|0,1:0|1:0,0:0:0:0:
220,240,99520,1,8,0:0:0:0:
375,155,99692,1,8,0:0:0:0:
256,192,99865,12,8,100899,0:0:0:0:
255,245,101244,6,0,P|296:226|340:217,1,90,4|0,0:0|0:0,0:0:0:0:
180,180,101589,1,8,0:0:0:0:
255,35,101761,6,0,L|246:79,1,45,2|0,0:0|3:0,0:0:0:0:
165,90,101934,2,0,L|183:-5,1,90,2|0,0:0|0:0,0:0:0:0:
335,30,102278,2,0,L|320:118,1,90,8|0,0:0|0:0,0:0:0:0:
180,180,102623,6,0,P|136:169|94:152,1,90,0|0,1:0|0:0,0:0:0:0:
255,245,102968,1,8,0:0:0:0:
85,340,103140,6,0,L|78:295,1,45,2|0,0:0|3:0,0:0:0:0:
150,265,103313,2,0,L|163:354,1,90,2|0,0:0|1:0,0:0:0:0:
15,380,103658,2,0,L|1:290,1,90,8|0,0:0|0:0,0:0:0:0:
255,245,104002,6,0,L|268:334,1,90,0|0,1:0|0:0,0:0:0:0:
381,209,104347,1,8,0:0:0:0:
320,119,104520,1,2,0:0:0:0:
320,119,104606,1,0,3:0:0:0:
320,119,104692,2,0,P|277:133|232:136,1,90,2|0,0:0|1:0,0:0:0:0:
381,209,105037,2,0,P|423:194|468:191,1,90,8|0,0:0|0:0,0:0:0:0:
425,15,105382,6,0,L|412:104,1,90,0|0,1:0|0:0,0:0:0:0:
381,209,105727,1,8,0:0:0:0:
242,37,105899,1,2,0:0:0:0:
242,37,105985,1,0,3:0:0:0:
242,37,106071,2,0,P|286:32|330:23,1,90,2|0,0:0|1:0,0:0:0:0:
165,185,106416,2,0,P|121:175|76:171,1,90,8|0,0:0|0:0,0:0:0:0:
240,255,106761,6,0,L|247:344,1,90,0|0,1:0|0:0,0:0:0:0:
440,350,107106,2,0,L|447:260,1,90,8|2,0:0|0:0,0:0:0:0:
447,260,107365,1,0,3:0:0:0:
447,260,107451,1,2,0:0:0:0:
350,130,107623,1,0,1:0:0:0:
350,130,107796,2,0,L|350:220,1,90,8|0,0:0|0:0,0:0:0:0:
130,55,108140,6,0,L|217:32,1,90,0|0,1:0|0:0,0:0:0:0:
220,235,108485,2,0,L|132:212,1,90,8|2,0:0|0:0,0:0:0:0:
132,212,108744,1,0,3:0:0:0:
132,212,108830,1,2,0:0:0:0:
350,130,109002,1,0,1:0:0:0:
350,130,109175,2,0,L|260:130,1,90,8|0,0:0|0:0,0:0:0:0:
80,295,109520,5,0,1:0:0:0:
80,295,109606,1,0,3:0:0:0:
80,295,109692,1,0,3:0:0:0:
80,295,109778,1,0,3:0:0:0:
80,295,109865,2,0,L|87:339,3,45,8|0|2|0,3:2|3:0|3:2|3:0,0:0:0:0:
160,375,110209,5,2,3:2:0:0:
187,355,110295,1,0,3:0:0:0:
219,344,110381,1,0,1:0:0:0:
252,344,110467,1,0,3:0:0:0:
285,354,110554,2,0,L|329:347,3,45,8|0|0|0,3:2|3:0|3:0|3:0,0:0:0:0:
410,370,110899,6,0,L|417:325,3,45,0|0|0|0,1:0|3:0|3:0|3:0,0:0:0:0:
375,255,111244,2,0,L|330:247,3,45,8|0|2|0,3:2|3:0|3:2|3:0,0:0:0:0:
275,185,111589,2,0,L|282:140,1,45,2|0,3:2|3:0,0:0:0:0:
282,140,111761,1,0,1:0:0:0:
282,140,111847,1,0,1:0:0:0:
282,140,111934,1,8,3:2:0:0:
130,50,112278,5,4,1:0:0:0:
