osu file format v14

[General]
AudioFilename: audio.mp3
AudioLeadIn: 0
PreviewTime: 56280
Countdown: 0
SampleSet: Soft
StackLeniency: 0.7
Mode: 0
LetterboxInBreaks: 0
WidescreenStoryboard: 0

[Editor]
DistanceSpacing: 1.1
BeatDivisor: 4
GridSize: 32
TimelineZoom: 1

[Metadata]
Title:Rocking to the Beat (Cut Ver.)
TitleUnicode:Rocking to the Beat (Cut Ver.)
Artist:C-Show
ArtistUnicode:C-Show
Creator:Strategas
Version:Insane
Source:
Tags:english electronic dnb drum and & bass Tachibana_ AmeThysTas Jooa FreudeMan Kyouren gokugohan12468 kittyadventure featured artist fa
BeatmapID:4235248
BeatmapSetID:2031865

[Difficulty]
HPDrainRate:4.9
CircleSize:3.9
OverallDifficulty:8.2
ApproachRate:9
SliderMultiplier:1.8
SliderTickRate:1

[Events]
//Background and Video events
0,0,"00071.jpg",0,0
//Break Periods
//Storyboard Layer 0 (Background)
//Storyboard Layer 1 (Fail)
//Storyboard Layer 2 (Pass)
//Storyboard Layer 3 (Foreground)
//Storyboard Layer 4 (Overlay)
//Storyboard Sound Samples

[TimingPoints]
1934,344.827586206897,4,2,25,65,1,0
1934,-125,4,2,25,65,0,0
12968,-100,4,2,25,70,0,0
24002,-250.000000000001,4,2,25,55,0,0
35037,-166.666666666667,4,2,25,60,0,0
46071,-142.857142857143,4,2,25,65,0,0
51589,-100,4,2,25,70,0,0
57106,-76.9230769230769,4,2,26,75,0,1
59175,-100,4,2,26,75,0,1
59692,-76.9230769230769,4,2,26,75,0,1
64692,-100,4,2,26,75,0,1
65209,-76.9230769230769,4,2,26,75,0,1
70209,-100,4,2,26,75,0,1
70727,-76.9230769230769,4,2,26,75,0,1
75727,-100,4,2,26,75,0,1
76416,-95.2380952380952,4,2,26,70,0,0
79175,-76.9230769230769,4,2,26,75,0,1
86761,-100,4,2,26,75,0,1
87278,-76.9230769230769,4,2,26,75,0,1
90209,-100,4,2,25,70,0,0
91071,-76.9230769230769,4,2,26,75,0,1
97796,-100,4,2,26,75,0,1
98313,-76.9230769230769,4,2,26,75,0,1
98485,-95.2380952380952,4,2,26,70,0,0
99692,-400,4,2,26,70,0,0
99951,-400,4,2,26,5,0,0
100037,-95.2380952380952,4,2,26,35,0,0
100209,-95.2380952380952,4,2,26,40,0,0
100382,-95.2380952380952,4,2,26,50,0,0
100554,-95.2380952380952,4,2,26,60,0,0
100727,-95.2380952380952,4,2,26,70,0,0
100899,-95.2380952380952,4,2,26,80,0,0
101244,-111.111111111111,4,2,25,70,0,0

[Colours]
Combo1 : 202,141,74
Combo2 : 163,115,114
Combo3 : 214,97,63
Combo4 : 180,97,97

[HitObjects]
250,100,1934,6,0,P|312:72|380:108,1,144,4|8,1:2|0:0,0:0:0:0:
419,30,2451,1,2,0:0:0:0:
419,30,2537,1,2,0:0:0:0:
419,30,2623,1,2,0:0:0:0:
312,155,2796,1,0,1:0:0:0:
218,23,2968,2,0,P|182:11|146:15,1,72,8|0,0:0|0:0,0:0:0:0:
34,115,3313,6,0,L|40:200,1,72,0|0,1:0|0:0,0:0:0:0:
109,304,3658,2,0,L|103:219,1,72,8|2,0:0|0:0,0:0:0:0:
103,232,3916,1,2,0:0:0:0:
103,232,4002,1,2,0:0:0:0:
49,362,4175,1,0,1:0:0:0:
179,348,4347,2,0,L|264:342,1,72,8|0,0:0|0:0,0:0:0:0:
281,201,4692,5,0,1:0:0:0:
328,270,4865,1,0,0:0:0:0:
345,149,5037,2,0,P|282:117|218:145,1,144,8|2,0:0|0:0,0:0:0:0:
229,264,5554,1,0,1:0:0:0:
97,201,5727,2,0,P|133:198|167:210,1,72,8|0,0:0|0:0,0:0:0:0:
13,141,6071,6,0,L|7:56,1,72,0|0,1:0|0:0,0:0:0:0:
20,223,6416,1,8,0:0:0:0:
75,299,6589,1,2,0:0:0:0:
75,299,6675,1,2,0:0:0:0:
75,299,6761,1,2,0:0:0:0:
31,368,6934,1,0,1:0:0:0:
157,290,7106,2,0,L|242:284,1,72,8|0,0:0|0:0,0:0:0:0:
428,318,7451,6,0,P|366:290|298:326,1,144,0|8,1:0|0:0,0:0:0:0:
237,374,7968,1,2,0:0:0:0:
237,374,8054,1,2,0:0:0:0:
237,374,8140,1,2,0:0:0:0:
366,373,8313,1,0,1:0:0:0:
228,284,8485,2,0,P|192:272|156:276,1,72,8|0,0:0|0:0,0:0:0:0:
18,221,8830,6,0,L|103:215,1,72,0|0,1:0|0:0,0:0:0:0:
207,146,9175,2,0,L|122:152,1,72,8|2,0:0|0:0,0:0:0:0:
135,151,9434,1,2,0:0:0:0:
135,151,9520,1,2,0:0:0:0:
265,206,9692,1,0,1:0:0:0:
251,76,9865,2,0,L|245:-9,1,72,8|0,0:0|0:0,0:0:0:0:
415,132,10209,5,0,1:0:0:0:
484,85,10382,1,0,0:0:0:0:
363,68,10554,2,0,P|331:130|359:194,1,144,8|2,0:0|0:0,0:0:0:0:
478,184,11071,1,0,1:0:0:0:
307,258,11244,2,0,P|295:291|298:327,1,72,8|0,0:0|0:0,0:0:0:0:
182,192,11589,6,0,L|97:198,1,72,0|0,1:0|0:0,0:0:0:0:
264,185,11934,1,8,0:0:0:0:
217,118,12106,1,2,0:0:0:0:
217,118,12192,1,2,0:0:0:0:
217,118,12278,1,2,0:0:0:0:
225,265,12451,1,0,1:0:0:0:
227,300,12537,1,0,1:0:0:0:
230,336,12623,2,0,L|315:330,1,72,8|0,0:0|0:0,0:0:0:0:
424,315,12968,5,4,1:2:0:0:
376,248,13140,1,0,0:0:0:0:
499,157,13313,2,0,L|297:171,1,180,8|2,0:0|0:0,0:0:0:0:
408,82,13830,1,0,1:0:0:0:
376,248,14002,2,0,L|286:254,1,90,8|0,0:0|0:0,0:0:0:0:
224,80,14347,6,0,P|180:64|134:76,1,90,0|0,1:0|0:0,0:0:0:0:
110,193,14692,1,8,0:0:0:0:
183,231,14865,1,2,0:0:0:0:
190,209,14951,1,0,3:0:0:0:
191,187,15037,1,2,0:0:0:0:
186,165,15123,1,0,3:0:0:0:
176,146,15209,1,0,1:0:0:0:
244,286,15382,2,0,P|288:302|334:290,1,90,8|0,0:0|0:0,0:0:0:0:
453,283,15727,6,0,L|438:81,1,180,0|8,1:0|0:0,0:0:0:0:
441,21,16244,1,2,0:0:0:0:
441,21,16330,1,0,3:0:0:0:
441,21,16416,1,2,0:0:0:0:
290,109,16589,1,0,1:0:0:0:
367,240,16761,2,0,L|361:151,1,90,8|0,0:0|0:0,0:0:0:0:
224,39,17106,6,0,P|180:23|134:35,1,90,0|0,1:0|0:0,0:0:0:0:
147,175,17451,1,8,0:0:0:0:
102,107,17623,1,2,0:0:0:0:
80,100,17709,1,0,3:0:0:0:
58,99,17796,1,2,0:0:0:0:
36,104,17882,1,0,3:0:0:0:
17,114,17968,1,0,1:0:0:0:
32,257,18140,1,8,0:0:0:0:
65,181,18313,1,0,0:0:0:0:
154,326,18485,6,0,L|355:311,1,180,0|8,1:0|0:0,0:0:0:0:
422,313,19002,1,2,0:0:0:0:
422,313,19089,1,0,3:0:0:0:
422,313,19175,1,2,0:0:0:0:
328,163,19347,1,0,1:0:0:0:
196,241,19520,2,0,L|285:234,1,90,8|0,0:0|0:0,0:0:0:0:
215,49,19865,6,0,P|199:93|211:139,1,90,0|0,1:0|0:0,0:0:0:0:
328,163,20209,1,8,0:0:0:0:
366,90,20382,1,2,0:0:0:0:
344,83,20468,1,0,3:0:0:0:
322,82,20554,1,2,0:0:0:0:
300,87,20640,1,0,3:0:0:0:
281,97,20727,1,0,1:0:0:0:
434,138,20899,2,0,P|450:94|438:48,1,90,8|0,0:0|0:0,0:0:0:0:
246,21,21244,5,0,1:0:0:0:
224,13,21330,1,0,3:0:0:0:
202,12,21416,1,2,3:2:0:0:
180,17,21502,1,0,3:0:0:0:
160,27,21589,1,8,3:2:0:0:
140,37,21675,1,0,3:0:0:0:
118,42,21761,1,2,3:2:0:0:
96,41,21847,1,0,3:0:0:0:
75,34,21934,6,0,L|30:37,3,45,2|0|0|0,3:2|3:0|1:0|3:0,0:0:0:0:
56,118,22278,2,0,L|11:121,3,45,8|0|0|0,0:0|3:0|3:0|3:0,0:0:0:0:
157,130,22623,5,0,1:0:0:0:
184,136,22709,1,0,3:0:0:0:
207,152,22796,1,0,3:0:0:0:
225,173,22882,1,0,3:0:0:0:
235,199,22968,1,8,3:2:0:0:
236,227,23054,1,0,3:0:0:0:
229,254,23140,1,2,3:2:0:0:
213,278,23227,1,0,3:0:0:0:
191,295,23313,6,0,P|175:274|170:253,1,45,2|0,3:2|3:0,0:0:0:0:
284,116,23485,1,0,1:0:0:0:
284,116,23571,1,0,1:0:0:0:
284,116,23658,2,0,L|328:112,3,45,8|0|0|0,3:2|3:0|3:0|3:0,0:0:0:0:
210,4,24002,5,4,3:1:0:0:
256,192,24089,12,0,29175,0:0:0:0:
132,96,29520,6,0,P|167:86|209:88,1,72,2|0,0:0|0:0,0:0:0:0:
265,140,30037,2,0,P|300:140|335:130,1,72,2|0,0:0|0:0,0:0:0:0:
393,72,30554,1,2,0:0:0:0:
337,260,30899,6,0,P|302:250|260:252,1,72,2|0,0:0|0:0,0:0:0:0:
204,304,31416,2,0,P|168:304|133:294,1,72,2|0,0:0|0:0,0:0:0:0:
76,236,31934,1,2,0:0:0:0:
211,70,32278,6,0,L|207:25,2,36,2|0|0,0:0|0:0|0:0,0:0:0:0:
271,127,32796,2,0,L|274:171,2,36,2|0|0,0:0|0:0|0:0,0:0:0:0:
330,69,33313,1,2,0:0:0:0:
330,69,33485,1,2,0:0:0:0:
434,154,33658,6,0,L|478:150,2,36,2|0|0,0:0|0:0|0:0,0:0:0:0:
377,214,34175,2,0,L|332:217,2,36,2|0|0,0:0|0:0|0:0,0:0:0:0:
439,276,34692,1,2,0:0:0:0:
439,276,34865,1,2,0:0:0:0:
332,340,35037,6,0,P|304:346|276:341,1,53.9999983520508,2|0,0:0|0:0,0:0:0:0:
224,282,35382,2,0,P|197:278|171:284,1,53.9999983520508,2|0,0:0|0:0,0:0:0:0:
123,350,35727,2,0,P|95:356|67:351,1,53.9999983520508,2|0,0:0|0:0,0:0:0:0:
12,294,36071,1,2,0:0:0:0:
104,192,36244,6,0,B|108:138|108:138|55:134,1,107.999996704102,2|0,0:0|0:0,0:0:0:0:
63,54,36761,2,0,L|125:58,1,53.9999983520508,2|0,0:0|0:0,0:0:0:0:
191,144,37106,2,0,L|187:197,1,53.9999983520508,2|0,0:0|0:0,0:0:0:0:
199,62,37451,1,2,0:0:0:0:
312,131,37623,6,0,P|338:136|364:133,1,53.9999983520508,2|0,0:0|0:0,0:0:0:0:
431,85,37968,1,2,0:0:0:0:
431,85,39002,5,2,0:0:0:0:
431,166,39175,1,2,0:0:0:0:
361,206,39347,1,2,0:0:0:0:
291,166,39520,1,2,0:0:0:0:
291,85,39692,1,2,0:0:0:0:
361,44,39865,1,2,0:0:0:0:
80,346,40554,6,0,P|74:318|79:290,1,53.9999983520508,2|0,0:0|0:0,0:0:0:0:
138,238,40899,2,0,P|141:211|135:185,1,53.9999983520508,2|0,0:0|0:0,0:0:0:0:
70,137,41244,2,0,P|64:109|69:81,1,53.9999983520508,2|0,0:0|0:0,0:0:0:0:
126,26,41589,1,2,0:0:0:0:
241,99,41761,6,0,B|294:102|294:102|298:49,1,107.999996704102,2|0,0:0|0:0,0:0:0:0:
289,186,42278,1,2,0:0:0:0:
375,111,42451,1,2,0:0:0:0:
371,194,42623,2,0,L|424:197,1,53.9999983520508,2|0,0:0|0:0,0:0:0:0:
507,203,42968,1,2,0:0:0:0:
430,297,43140,6,0,P|424:323|427:349,1,53.9999983520508,2|0,0:0|0:0,0:0:0:0:
340,334,43485,1,2,0:0:0:0:
340,334,43658,2,0,P|346:308|343:282,1,53.9999983520508,2|0,0:0|0:0,0:0:0:0:
279,128,44692,5,2,0:0:0:0:
200,146,44865,1,2,0:0:0:0:
193,227,45037,1,2,0:0:0:0:
267,258,45209,1,2,0:0:0:0:
322,197,45382,1,2,0:0:0:0:
211,345,46071,6,0,L|146:340,1,62.9999980773926,4|0,1:2|0:0,0:0:0:0:
293,343,46416,2,0,L|357:338,1,62.9999980773926,0|0,1:0|0:0,0:0:0:0:
205,262,46761,2,0,L|140:257,1,62.9999980773926,0|0,1:0|0:0,0:0:0:0:
299,261,47106,2,0,L|363:256,1,62.9999980773926,0|0,1:0|0:0,0:0:0:0:
198,179,47451,2,0,L|133:174,1,62.9999980773926,0|0,1:0|0:0,0:0:0:0:
305,179,47796,2,0,L|369:174,1,62.9999980773926,0|0,1:0|0:0,0:0:0:0:
193,96,48140,2,0,L|128:91,1,62.9999980773926,0|0,1:0|0:0,0:0:0:0:
311,97,48485,2,0,L|375:92,1,62.9999980773926,0|0,1:0|0:0,0:0:0:0:
141,32,48830,6,0,P|127:59|129:90,1,62.9999980773926,0|0,1:0|0:0,0:0:0:0:
124,268,49175,2,0,P|137:240|135:209,1,62.9999980773926,0|0,1:0|0:0,0:0:0:0:
14,140,49520,2,0,P|42:154|74:152,1,62.9999980773926,0|0,1:0|0:0,0:0:0:0:
249,159,49865,2,0,P|221:145|190:148,1,62.9999980773926,0|0,1:0|0:0,0:0:0:0:
292,90,50209,5,2,1:2:0:0:
371,108,50382,1,2,0:2:0:0:
378,189,50554,1,2,1:2:0:0:
304,220,50727,1,2,0:2:0:0:
249,159,50899,2,0,P|191:145|127:180,1,125.999996154785,2|0,1:2|1:0,0:0:0:0:
94,245,51416,1,0,0:0:0:0:
161,37,51589,5,8,0:0:0:0:
268,72,51761,5,0,1:0:0:0:
268,81,51934,1,0,1:0:0:0:
375,37,52106,5,8,0:0:0:0:
268,90,52278,37,0,1:0:0:0:
268,99,52451,1,0,1:0:0:0:
155,40,52623,37,8,0:0:0:0:
268,108,52796,5,0,1:0:0:0:
268,117,52968,1,0,1:0:0:0:
381,40,53140,5,8,0:0:0:0:
268,126,53313,37,0,1:0:0:0:
268,135,53485,1,0,1:0:0:0:
149,43,53658,37,8,0:0:0:0:
268,144,53830,5,0,1:0:0:0:
387,43,54002,5,8,0:0:0:0:
268,153,54175,37,0,1:0:0:0:
143,46,54347,37,8,0:0:0:0:
268,162,54520,5,0,1:0:0:0:
393,46,54692,5,8,0:0:0:0:
268,171,54865,37,0,1:0:0:0:
137,49,55037,37,8,0:0:0:0:
268,180,55209,5,0,1:0:0:0:
399,49,55382,5,8,0:0:0:0:
268,189,55554,37,2,1:2:0:0:
351,336,55727,21,0,1:0:0:0:
389,358,55813,1,0,1:0:0:0:
434,350,55899,1,2,1:2:0:0:
463,316,55985,1,0,1:0:0:0:
463,271,56071,1,2,1:2:0:0:
434,236,56158,1,0,1:0:0:0:
389,228,56244,1,2,1:2:0:0:
350,251,56330,1,0,1:0:0:0:
335,293,56416,5,2,1:2:0:0:
317,372,56589,1,2,0:0:0:0:
236,379,56761,1,2,0:0:0:0:
205,305,56934,1,2,0:0:0:0:
266,250,57106,6,0,B|309:120|229:152|264:23,1,233.999989288331,6|8,1:2|0:0,0:0:0:0:
360,85,57623,1,2,0:0:0:0:
360,85,57709,1,2,0:0:0:0:
360,85,57796,2,0,P|417:99|470:79,1,116.999994644165,2|0,0:0|1:0,0:0:0:0:
264,22,58140,2,0,P|207:8|154:28,1,116.999994644165,8|0,0:0|0:0,0:0:0:0:
56,209,58485,5,0,1:0:0:0:
126,278,58658,2,0,L|190:273,1,58.4999973220826,2|0,0:0|0:0,0:0:0:0:
248,200,58830,2,0,L|312:195,1,58.4999973220826,10|0,0:0|0:0,0:0:0:0:
383,257,59002,2,0,L|447:252,1,58.4999973220826,2|0,0:0|0:0,0:0:0:0:
469,175,59175,6,0,B|490:170|490:170|512:176,1,45,2|0,0:0|0:0,0:0:0:0:
411,115,59347,2,0,B|390:110|390:110|368:116,1,45,2|0,1:2|0:0,0:0:0:0:
469,58,59520,2,0,B|490:63|490:63|512:57,1,45,8|0,0:0|0:0,0:0:0:0:
406,5,59692,1,0,0:0:0:0:
266,67,59865,5,0,1:0:0:0:
95,9,60037,2,0,B|196:1|196:1|180:19,1,116.999994644165,2|8,0:0|0:0,0:0:0:0:
145,131,60382,1,2,0:0:0:0:
144,117,60468,1,2,0:0:0:0:
143,102,60554,1,2,0:0:0:0:
193,224,60727,2,0,B|92:232|92:232|108:214,1,116.999994644165,0|8,1:0|0:0,0:0:0:0:
24,161,61071,1,2,0:0:0:0:
193,224,61244,6,0,B|204:371|204:371|178:347,1,175.499991966248,2|0,1:2|0:0,0:0:0:0:
294,286,61589,2,0,L|290:228,1,58.4999973220826,8|0,0:0|0:0,0:0:0:0:
300,384,61761,1,2,0:0:0:0:
433,224,61934,5,2,0:0:0:0:
386,306,62106,1,2,1:2:0:0:
294,286,62278,1,10,0:0:0:0:
284,193,62451,1,2,0:0:0:0:
371,154,62623,6,0,P|387:77|330:5,1,175.499991966248,0|0,1:0|0:0,0:0:0:0:
291,96,62968,2,0,P|207:81|142:136,1,175.499991966248,8|0,0:0|0:0,0:0:0:0:
75,228,63313,2,0,P|104:226|132:235,1,58.4999973220826,2|0,0:0|0:0,0:0:0:0:
210,293,63485,1,0,1:0:0:0:
359,249,63658,2,0,P|329:247|302:255,1,58.4999973220826,8|0,0:0|0:0,0:0:0:0:
224,313,63830,1,2,0:0:0:0:
233,174,64002,5,0,1:0:0:0:
142,135,64175,2,0,L|83:130,1,58.4999973220826,2|0,0:0|0:0,0:0:0:0:
219,76,64347,2,0,L|277:80,1,58.4999973220826,10|0,0:0|0:0,0:0:0:0:
129,37,64520,2,0,L|70:32,1,58.4999973220826,2|0,0:0|0:0,0:0:0:0:
327,14,64692,6,0,B|349:8|349:8|370:13,1,45,2|0,0:0|0:0,0:0:0:0:
440,58,64865,2,0,B|446:80|446:80|441:101,1,45,2|0,1:2|0:0,0:0:0:0:
372,147,65037,2,0,B|350:153|350:153|329:148,1,45,10|0,0:0|0:0,0:0:0:0:
277,80,65209,1,0,0:0:0:0:
295,249,65382,5,0,1:0:0:0:
138,166,65554,2,0,B|37:158|37:158|53:176,1,116.999994644165,2|8,0:0|0:0,0:0:0:0:
170,259,65899,1,2,0:0:0:0:
184,258,65985,1,2,0:0:0:0:
199,257,66071,1,2,0:0:0:0:
130,349,66244,2,0,B|29:357|29:357|45:339,1,116.999994644165,2|8,1:2|0:0,0:0:0:0:
0,255,66589,1,2,0:0:0:0:
138,166,66761,6,0,L|403:145,1,233.999989288331,2|8,1:2|0:0,0:0:0:0:
509,69,67278,2,0,L|329:55,1,175.499991966248,2|0,0:0|0:0,0:0:0:0:
334,55,67623,1,2,1:2:0:0:
334,55,67709,1,2,1:2:0:0:
334,55,67796,2,0,L|193:67,1,116.999994644165,10|0,0:0|0:0,0:0:0:0:
101,18,68140,5,0,1:0:0:0:
101,18,68313,1,0,1:0:0:0:
72,271,68485,1,8,0:0:0:0:
150,212,68658,2,0,P|204:191|259:206,1,116.999994644165,2|0,0:0|0:0,0:0:0:0:
327,276,68916,1,8,0:3:0:0:
334,281,69002,2,0,P|363:283|391:274,1,58.4999973220826,0|0,1:0|0:0,0:0:0:0:
465,210,69175,2,0,P|479:154|459:100,1,116.999994644165,8|0,0:0|0:0,0:0:0:0:
323,1,69520,5,0,1:0:0:0:
311,98,69692,2,0,L|247:103,1,58.4999973220826,2|0,0:0|0:0,0:0:0:0:
99,114,69865,2,0,L|157:109,1,58.4999973220826,10|0,0:0|0:0,0:0:0:0:
227,9,70037,2,0,L|168:13,1,58.4999973220826,2|0,0:0|0:0,0:0:0:0:
99,114,70209,6,0,B|93:136|93:136|98:157,1,45,2|0,0:0|0:0,0:0:0:0:
161,212,70382,2,0,B|183:218|183:218|204:213,1,45,2|0,1:2|0:0,0:0:0:0:
254,146,70554,2,0,B|259:125|259:125|253:103,1,45,8|0,0:0|0:0,0:0:0:0:
318,230,70727,6,0,B|313:280|313:280|318:290|318:290|311:303|311:303|308:343,1,116.999994644165,2|0,0:0|1:0,0:0:0:0:
511,242,71071,2,0,B|410:234|410:234|426:252,1,116.999994644165,2|8,0:0|0:0,0:0:0:0:
465,140,71416,1,2,0:0:0:0:
464,125,71502,1,2,0:0:0:0:
463,111,71589,1,2,0:0:0:0:
502,346,71761,2,0,B|401:354|401:354|411:342,1,116.999994644165,2|8,1:2|0:0,0:0:0:0:
420,245,72106,1,2,0:0:0:0:
280,262,72278,6,0,B|133:273|133:273|157:247,1,175.499991966248,2|0,1:2|0:0,0:0:0:0:
207,169,72623,2,0,L|265:164,1,58.4999973220826,10|0,0:0|0:0,0:0:0:0:
87,180,72796,1,2,0:0:0:0:
238,20,72968,5,2,0:0:0:0:
320,67,73140,1,2,1:2:0:0:
300,159,73313,1,10,0:0:0:0:
207,169,73485,1,2,0:0:0:0:
168,82,73658,6,0,P|84:67|19:122,1,175.499991966248,0|0,1:0|0:0,0:0:0:0:
110,163,74002,2,0,P|131:245|82:314,1,175.499991966248,8|0,0:0|0:0,0:0:0:0:
184,355,74347,2,0,P|213:357|241:348,1,58.4999973220826,2|0,0:0|0:0,0:0:0:0:
319,290,74520,1,0,1:0:0:0:
461,365,74692,2,0,P|431:367|404:359,1,58.4999973220826,8|0,0:0|0:0,0:0:0:0:
326,301,74865,1,2,0:0:0:0:
465,233,75037,5,0,1:0:0:0:
383,180,75209,2,0,L|378:116,1,58.4999973220826,2|0,0:0|0:0,0:0:0:0:
445,51,75382,2,0,L|509:46,1,58.4999973220826,10|0,0:0|0:0,0:0:0:0:
305,59,75554,2,0,L|241:64,1,58.4999973220826,2|0,0:0|0:0,0:0:0:0:
183,116,75727,6,0,B|177:138|177:138|182:159,1,45,2|0,0:0|0:0,0:0:0:0:
243,215,75899,2,0,B|248:236|248:236|242:258,1,45,2|0,1:2|0:0,0:0:0:0:
121,216,76071,2,0,B|115:238|115:238|120:259,1,45,10|0,0:0|0:0,0:0:0:0:
182,315,76244,2,0,B|187:336|187:336|181:358,1,45,2|0,0:0|0:0,0:0:0:0:
317,320,76416,6,0,B|422:285|396:349|500:321,1,188.999994232178,0|8,1:0|0:0,0:0:0:0:
427,216,76934,2,0,B|321:250|347:186|243:214,1,188.999994232178,2|0,0:0|1:0,0:0:0:0:
375,144,77451,1,8,0:0:0:0:
305,38,77623,6,0,P|256:25|204:32,2,94.499997116089,2|0|0,0:0|1:0|0:0,0:0:0:0:
414,72,78140,5,8,0:0:0:0:
375,144,78313,1,0,1:0:0:0:
438,234,78485,1,0,1:0:0:0:
387,378,78658,1,0,1:0:0:0:
387,378,78744,1,0,1:0:0:0:
387,378,78830,5,10,0:0:0:0:
463,350,79002,1,2,0:0:0:0:
262,239,79175,5,4,1:2:0:0:
231,331,79347,2,0,L|90:343,1,116.999994644165,2|8,0:0|0:0,0:0:0:0:
262,239,79692,2,0,L|145:229,1,116.999994644165,2|0,0:0|0:0,0:0:0:0:
145,229,79951,1,8,0:3:0:0:
145,229,80037,1,0,1:0:0:0:
68,47,80209,2,0,L|78:164,1,116.999994644165,8|0,0:0|0:0,0:0:0:0:
28,295,80554,5,0,1:0:0:0:
114,340,80727,2,0,L|178:345,1,58.4999973220826,2|0,0:0|0:0,0:0:0:0:
268,357,80899,2,0,L|332:362,1,58.4999973220826,10|0,0:0|0:0,0:0:0:0:
430,376,81071,1,2,0:0:0:0:
430,376,81158,1,2,0:0:0:0:
430,376,81244,6,0,P|438:348|436:319,1,58.4999973220826,2|0,0:0|0:0,0:0:0:0:
395,207,81416,6,0,L|399:148,1,58.4999973220826,2|0,1:2|0:0,0:0:0:0:
470,213,81589,2,0,L|474:154,1,58.4999973220826,10|0,0:0|0:0,0:0:0:0:
502,84,81761,6,0,B|452:79|452:79|442:84|442:84|429:77|429:77|386:74,1,116.999994644165,2|0,0:0|1:0,0:0:0:0:
203,124,82106,2,0,B|304:132|304:132|288:114,1,116.999994644165,2|8,0:0|0:0,0:0:0:0:
251,255,82451,1,2,0:0:0:0:
250,241,82537,1,2,0:0:0:0:
249,226,82623,1,2,0:0:0:0:
294,356,82796,2,0,B|193:348|193:348|203:360,1,116.999994644165,2|8,1:2|0:0,0:0:0:0:
97,335,83140,1,2,0:0:0:0:
27,214,83313,6,0,B|13:39|13:39|51:87,1,233.999989288331,2|8,1:2|0:0,0:0:0:0:
118,155,83830,1,2,0:0:0:0:
188,93,84002,5,2,0:0:0:0:
270,140,84175,1,2,1:2:0:0:
250,232,84347,1,10,0:0:0:0:
157,242,84520,1,2,0:0:0:0:
118,155,84692,1,0,1:0:0:0:
43,233,84865,5,2,0:0:0:0:
38,251,84951,1,2,0:0:0:0:
38,271,85037,1,10,0:0:0:0:
44,290,85123,1,2,0:0:0:0:
49,308,85209,1,2,0:0:0:0:
49,328,85296,1,2,0:0:0:0:
45,347,85382,2,0,P|73:355|102:353,1,58.4999973220826,2|8,0:0|0:3,0:0:0:0:
191,312,85554,1,0,1:0:0:0:
118,155,85727,2,0,P|192:112|275:134,1,175.499991966248,8|0,0:0|0:0,0:0:0:0:
281,146,86071,5,0,1:0:0:0:
345,70,86244,2,0,L|404:74,1,58.4999973220826,2|0,0:0|0:0,0:0:0:0:
471,143,86416,2,0,L|467:202,1,58.4999973220826,10|0,0:0|0:0,0:0:0:0:
391,262,86589,2,0,L|332:258,1,58.4999973220826,2|0,0:0|0:0,0:0:0:0:
275,134,86761,6,0,B|253:128|253:128|232:133,1,45,2|0,0:0|0:0,0:0:0:0:
179,197,86934,2,0,B|157:203|157:203|136:198,1,45,2|0,1:2|0:0,0:0:0:0:
94,127,87106,2,0,B|72:121|72:121|51:126,1,45,10|0,0:0|0:0,0:0:0:0:
5,220,87278,6,0,B|10:270|10:270|5:280|5:280|12:293|12:293|15:336,1,116.999994644165,2|0,0:0|1:0,0:0:0:0:
119,370,87623,2,0,B|111:269|111:269|129:285,1,116.999994644165,2|8,0:0|0:0,0:0:0:0:
242,319,87968,1,2,0:0:0:0:
228,320,88054,1,2,0:0:0:0:
213,321,88140,1,2,0:0:0:0:
332,274,88313,2,0,B|340:375|340:375|322:359,1,116.999994644165,2|8,1:2|0:0,0:0:0:0:
432,315,88658,1,2,0:0:0:0:
453,160,88830,6,0,L|188:181,1,233.999989288331,2|8,1:2|0:0,0:0:0:0:
41,270,89347,2,0,L|221:284,1,175.499991966248,2|0,0:0|0:0,0:0:0:0:
215,283,89692,1,2,1:2:0:0:
215,283,89778,1,2,1:2:0:0:
215,283,89865,2,0,L|356:271,1,116.999994644165,10|0,0:0|0:0,0:0:0:0:
432,315,90209,6,0,L|432:337,10,22.5,0|0|0|0|0|0|0|0|0|0|0,1:0|0:0|0:0|0:0|0:0|0:0|0:0|0:0|0:0|0:0|0:0,0:0:0:0:
483,251,90727,2,0,L|482:228,4,22.5,2|0|0|0|0,0:0|0:0|0:0|0:0|0:0,0:0:0:0:
427,167,90985,1,8,0:3:0:0:
424,155,91071,6,0,P|396:147|367:149,1,58.4999973220826,0|0,1:0|0:0,0:0:0:0:
350,137,91244,2,0,P|293:123|240:143,1,116.999994644165,8|0,0:0|0:0,0:0:0:0:
122,73,91589,5,0,1:0:0:0:
35,113,91761,2,0,L|30:177,1,58.4999973220826,2|0,0:0|0:0,0:0:0:0:
24,269,91934,2,0,L|19:327,1,58.4999973220826,10|0,0:0|0:0,0:0:0:0:
118,232,92106,1,2,0:0:0:0:
118,232,92192,1,2,0:0:0:0:
118,232,92278,6,0,P|146:224|175:226,1,58.4999973220826,2|0,0:0|0:0,0:0:0:0:
250,339,92451,6,0,L|255:281,1,58.4999973220826,2|0,1:2|0:0,0:0:0:0:
261,183,92623,2,0,L|265:124,1,58.4999973220826,8|0,0:0|0:0,0:0:0:0:
387,191,92796,6,0,B|382:241|382:241|387:251|387:251|380:264|380:264|377:307,1,116.999994644165,2|0,0:0|1:0,0:0:0:0:
489,145,93140,2,0,B|481:246|481:246|499:230,1,116.999994644165,2|8,0:0|0:0,0:0:0:0:
358,193,93485,1,2,0:0:0:0:
372,192,93571,1,2,0:0:0:0:
387,191,93658,1,2,0:0:0:0:
257,236,93830,2,0,B|265:135|265:135|253:145,1,116.999994644165,2|8,1:2|0:0,0:0:0:0:
278,39,94175,1,2,0:0:0:0:
166,177,94347,6,0,B|152:352|152:352|190:304,1,233.999989288331,2|8,1:2|0:0,0:0:0:0:
257,236,94865,1,2,0:0:0:0:
327,298,95037,5,2,0:0:0:0:
409,251,95209,1,2,1:2:0:0:
389,159,95382,1,10,0:0:0:0:
296,149,95554,1,2,0:0:0:0:
257,236,95727,1,0,1:0:0:0:
148,228,95899,5,2,0:0:0:0:
143,210,95985,1,2,0:0:0:0:
143,190,96071,1,10,0:0:0:0:
149,171,96158,1,2,0:0:0:0:
154,153,96244,1,2,0:0:0:0:
154,133,96330,1,2,0:0:0:0:
150,114,96416,2,0,P|178:106|207:108,1,58.4999973220826,2|8,0:0|0:3,0:0:0:0:
296,149,96589,1,0,1:0:0:0:
442,72,96761,2,0,P|368:29|286:51,1,175.499991966248,8|0,0:0|0:0,0:0:0:0:
278,41,97106,5,0,1:0:0:0:
296,149,97278,2,0,L|300:208,1,58.4999973220826,2|0,0:0|0:0,0:0:0:0:
392,166,97451,2,0,L|396:225,1,58.4999973220826,10|0,0:0|0:0,0:0:0:0:
488,183,97623,2,0,L|492:242,1,58.4999973220826,2|0,0:0|0:0,0:0:0:0:
427,341,97796,6,0,B|405:347|405:347|384:342,1,45,2|0,0:0|0:0,0:0:0:0:
315,296,97968,2,0,B|293:290|293:290|272:295,1,45,2|0,1:2|0:0,0:0:0:0:
203,341,98140,2,0,B|181:347|181:347|160:342,1,45,10|0,0:0|0:0,0:0:0:0:
86,246,98313,1,2,1:2:0:0:
86,246,98399,1,0,1:0:0:0:
86,246,98485,6,0,B|51:141|115:167|87:63,1,188.999994232178,0|8,1:0|0:0,0:0:0:0:
189,53,99002,2,0,B|154:158|218:132|190:236,1,188.999994232178,0|0,1:0|1:0,0:0:0:0:
260,104,99520,1,8,0:0:0:0:
351,292,99692,6,0,P|367:295|384:293,1,33.75,8|0,0:0|0:0,0:0:0:0:
394,290,100037,5,0,1:0:0:0:
351,202,100209,1,0,1:0:0:0:
417,108,100382,1,0,1:0:0:0:
325,0,100554,1,0,1:0:0:0:
276,262,100727,5,0,1:0:0:0:
276,262,100813,1,0,1:0:0:0:
276,262,100899,1,8,0:0:0:0:
276,262,101244,6,0,P|203:239|139:301,1,161.999995056153,4|8,0:0|0:0,0:0:0:0:
89,220,101761,1,2,0:0:0:0:
70,213,101847,1,0,3:0:0:0:
49,211,101934,1,2,0:0:0:0:
29,214,102020,1,0,3:0:0:0:
11,222,102106,1,0,1:0:0:0:
108,140,102278,2,0,P|146:128|185:137,1,80.9999975280763,8|0,0:0|0:0,0:0:0:0:
328,131,102623,6,0,P|336:91|325:53,1,80.9999975280763,0|0,1:0|0:0,0:0:0:0:
292,205,102968,2,0,P|331:213|369:202,1,80.9999975280763,8|2,0:0|0:0,0:0:0:0:
369,202,103227,1,0,3:0:0:0:
369,202,103313,1,2,0:0:0:0:
256,97,103485,1,0,1:0:0:0:
226,255,103658,2,0,P|217:294|228:332,1,80.9999975280763,8|0,0:0|0:0,0:0:0:0:
170,159,104002,6,0,L|3:170,1,161.999995056153,0|8,1:0|0:0,0:0:0:0:
52,250,104520,1,2,0:0:0:0:
72,249,104606,1,0,3:0:0:0:
92,247,104692,1,2,0:0:0:0:
112,246,104778,1,0,3:0:0:0:
132,245,104865,1,0,1:0:0:0:
128,78,105037,2,0,L|44:83,1,80.9999975280763,8|0,0:0|0:0,0:0:0:0:
224,36,105382,6,0,L|304:41,1,80.9999975280763,0|0,1:0|0:0,0:0:0:0:
434,53,105727,1,8,0:0:0:0:
372,105,105899,1,2,0:0:0:0:
372,105,105985,1,0,3:0:0:0:
372,105,106071,1,2,0:0:0:0:
359,210,106244,1,0,1:0:0:0:
221,144,106416,2,0,L|302:150,1,80.9999975280763,8|0,0:0|0:0,0:0:0:0:
85,88,106761,6,0,P|62:161|124:225,1,161.999995056153,0|8,1:0|0:0,0:0:0:0:
221,144,107278,1,2,0:0:0:0:
202,137,107365,1,0,3:0:0:0:
181,135,107451,1,2,0:0:0:0:
161,138,107537,1,0,3:0:0:0:
143,146,107623,1,0,1:0:0:0:
299,121,107796,2,0,P|307:81|296:43,1,80.9999975280763,8|0,0:0|0:0,0:0:0:0:
423,223,108140,6,0,P|462:231|500:220,1,80.9999975280763,0|0,1:0|0:0,0:0:0:0:
349,187,108485,2,0,P|340:226|351:264,1,80.9999975280763,8|2,0:0|0:0,0:0:0:0:
351,264,108744,1,0,3:0:0:0:
351,264,108830,1,2,0:0:0:0:
457,151,109002,1,0,1:0:0:0:
299,121,109175,2,0,P|259:112|221:123,1,80.9999975280763,8|0,0:0|0:0,0:0:0:0:
104,43,109520,5,0,1:0:0:0:
90,58,109606,1,0,3:0:0:0:
80,75,109692,1,0,3:0:0:0:
73,94,109778,1,0,3:0:0:0:
70,114,109865,1,8,3:2:0:0:
70,134,109951,1,0,3:0:0:0:
73,154,110037,1,2,3:2:0:0:
80,173,110123,1,0,3:0:0:0:
90,191,110209,1,2,3:2:0:0:
100,208,110296,1,0,3:0:0:0:
107,227,110382,1,0,1:0:0:0:
110,247,110468,1,0,3:0:0:0:
110,267,110554,1,8,3:2:0:0:
106,287,110640,1,0,3:0:0:0:
99,306,110727,1,0,3:0:0:0:
89,323,110813,1,0,3:0:0:0:
76,339,110899,6,0,L|35:336,3,40.4999987640381,0|0|0|0,1:0|3:0|3:0|3:0,0:0:0:0:
157,370,111244,2,0,L|197:367,3,40.4999987640381,8|0|2|0,3:2|3:0|3:2|3:0,0:0:0:0:
267,323,111589,2,0,L|307:325,1,40.4999987640381,2|0,3:2|3:0,0:0:0:0:
421,361,111761,1,0,1:0:0:0:
421,361,111847,1,0,1:0:0:0:
421,361,111934,2,0,L|381:363,3,40.4999987640381,8|0|0|0,3:2|3:0|3:0|3:0,0:0:0:0:
448,230,112278,5,4,1:0:0:0:
