osu file format v14

[General]
AudioFilename: audio.mp3
AudioLeadIn: 0
PreviewTime: 56280
Countdown: 0
SampleSet: Soft
StackLeniency: 0.4
Mode: 0
LetterboxInBreaks: 0
WidescreenStoryboard: 1

[Editor]
Bookmarks: 12968,24002,35037,46071,57106,68140,79175,91244,101244,112278
DistanceSpacing: 0.9
BeatDivisor: 4
GridSize: 8
TimelineZoom: 2.799999

[Metadata]
Title:Rocking to the Beat (Cut Ver.)
TitleUnicode:Rocking to the Beat (Cut Ver.)
Artist:C-Show
ArtistUnicode:C-Show
Creator:Strategas
Version:Freude's Expert
Source:
Tags:english electronic dnb drum and & bass Tachibana_ AmeThysTas Jooa FreudeMan Kyouren gokugohan12468 kittyadventure featured artist fa
BeatmapID:4280145
BeatmapSetID:2031865

[Difficulty]
HPDrainRate:5
CircleSize:4
OverallDifficulty:8.5
ApproachRate:9.3
SliderMultiplier:1.8
SliderTickRate:1

[Events]
//Background and Video events
0,0,"00071.jpg",0,0
//Break Periods
2,24203,28966
//Storyboard Layer 0 (Background)
//Storyboard Layer 1 (Fail)
//Storyboard Layer 2 (Pass)
//Storyboard Layer 3 (Foreground)
//Storyboard Layer 4 (Overlay)
//Storyboard Sound Samples

[TimingPoints]
1934,344.827586206897,4,2,25,65,1,0
1934,-111.111111111111,4,2,25,65,0,0
12968,-100,4,2,25,70,0,0
13227,-100,4,2,25,5,0,0
13313,-100,4,2,25,70,0,0
15985,-100,4,2,25,5,0,0
16071,-100,4,2,25,70,0,0
18744,-100,4,2,25,5,0,0
18830,-100,4,2,25,70,0,0
29520,-166.666666666667,4,2,25,55,0,0
32278,-142.857142857143,4,2,25,55,0,0
35037,-125,4,2,25,60,0,0
43571,-125,4,2,25,5,0,0
43658,-125,4,2,25,60,0,0
46071,-111.111111111111,4,2,25,65,0,0
51589,-100,4,2,25,70,0,0
57106,-62.5,4,2,26,75,0,1
68140,-62.5,4,2,26,75,0,0
68485,-62.5,4,2,26,75,0,1
76416,-62.5,4,2,26,75,0,0
77796,-71.4285714285714,4,2,26,75,0,0
78830,-55.5555555555556,4,2,26,75,0,0
79347,-62.5,4,2,26,75,0,1
90209,-83.3333333333333,4,2,26,75,0,0
91071,-62.5,4,2,26,75,0,0
91244,-62.5,4,2,26,75,0,1
98485,-83.3333333333333,4,2,26,75,0,0
101244,-111.111111111111,4,2,25,70,0,0
104261,-111.111111111111,4,2,25,5,0,0
104347,-111.111111111111,4,2,25,70,0,0

[Colours]
Combo1 : 202,141,74
Combo2 : 163,115,114
Combo3 : 214,97,63
Combo4 : 180,97,97

[HitObjects]
439,61,1934,6,0,L|427:149,1,80.9999975280763,4|0,1:2|0:0,0:0:0:0:
302,288,2278,2,0,L|291:207,1,80.9999975280763,8|2,0:0|0:0,0:0:0:0:
272,177,2537,1,2,0:0:0:0:
272,177,2623,1,2,0:0:0:0:
401,272,2796,1,0,1:0:0:0:
319,105,2968,2,0,P|282:86|237:94,1,80.9999975280763,8|0,0:0|0:0,0:0:0:0:
156,241,3313,6,0,B|249:225|211:303|304:287,1,161.999995056153,0|8,1:0|0:0,0:0:0:0:
175,331,3830,1,2,0:0:0:0:
175,331,3916,1,2,0:0:0:0:
175,331,4002,1,2,0:0:0:0:
95,187,4175,1,0,1:0:0:0:
17,211,4347,1,8,0:0:0:0:
78,265,4520,1,0,0:0:0:0:
61,60,4692,6,0,P|37:97|36:146,1,80.9999975280763,0|0,1:0|0:0,0:0:0:0:
181,256,5037,2,0,L|191:175,1,80.9999975280763,8|2,0:0|0:0,0:0:0:0:
211,145,5296,1,2,0:0:0:0:
211,145,5382,1,2,0:0:0:0:
298,272,5554,1,0,1:0:0:0:
383,111,5727,2,0,P|420:92|465:100,1,80.9999975280763,8|0,0:0|0:0,0:0:0:0:
283,22,6071,6,0,L|293:102,1,80.9999975280763,0|0,1:0|0:0,0:0:0:0:
400,279,6416,1,8,0:0:0:0:
437,192,6589,1,2,0:0:0:0:
437,192,6675,1,2,0:0:0:0:
437,192,6761,1,2,0:0:0:0:
461,351,6934,1,0,1:0:0:0:
267,215,7106,2,0,L|347:204,1,80.9999975280763,8|0,0:0|0:0,0:0:0:0:
234,379,7451,6,0,P|210:342|209:293,1,80.9999975280763,0|0,1:0|0:0,0:0:0:0:
171,166,7796,2,0,P|150:205|109:230,1,80.9999975280763,8|2,0:0|0:0,0:0:0:0:
85,234,8054,1,2,0:0:0:0:
85,234,8140,1,2,0:0:0:0:
133,356,8313,1,0,1:0:0:0:
10,182,8485,2,0,L|0:262,1,80.9999975280763,8|0,0:0|0:0,0:0:0:0:
111,99,8830,6,0,P|184:73|245:121,1,161.999995056153,0|8,1:0|0:0,0:0:0:0:
287,232,9347,1,2,0:0:0:0:
287,232,9433,1,2,0:0:0:0:
287,232,9519,1,2,0:0:0:0:
389,87,9692,1,0,1:0:0:0:
413,165,9864,1,8,0:0:0:0:
467,104,10037,1,0,0:0:0:0:
328,22,10209,6,0,P|304:59|303:108,1,80.9999975280763,0|0,1:0|0:0,0:0:0:0:
249,274,10554,2,0,P|244:234|221:201,1,80.9999975280763,8|2,0:0|0:0,0:0:0:0:
185,193,10813,1,2,0:0:0:0:
185,193,10899,1,2,0:0:0:0:
331,230,11071,1,0,1:0:0:0:
135,115,11244,2,0,L|220:105,1,80.9999975280763,8|0,0:0|0:0,0:0:0:0:
393,0,11589,6,0,L|383:85,1,80.9999975280763,0|0,1:0|0:0,0:0:0:0:
422,270,11933,1,8,0:0:0:0:
339,237,12106,1,2,0:0:0:0:
339,237,12192,1,2,0:0:0:0:
339,237,12278,1,2,0:0:0:0:
383,80,12451,5,0,1:0:0:0:
438,91,12537,1,0,1:0:0:0:
493,102,12623,2,0,L|503:187,1,80.9999975280763,8|0,0:0|0:0,0:0:0:0:
242,295,12968,6,0,L|258:160,1,135,4|0,1:2|0:0,0:0:0:0:
234,127,13313,1,8,0:0:0:0:
347,194,13485,1,2,0:0:0:0:
347,194,13571,1,0,3:0:0:0:
347,194,13658,1,2,0:0:0:0:
392,24,13830,1,0,1:0:0:0:
175,64,14002,2,0,P|151:101|149:145,1,90,8|0,0:0|0:0,0:0:0:0:
411,105,14347,6,0,L|316:116,1,90,0|0,1:0|0:0,0:0:0:0:
262,239,14692,1,8,0:0:0:0:
433,190,14865,1,2,0:0:0:0:
447,208,14951,1,0,3:0:0:0:
457,228,15037,1,2,0:0:0:0:
461,250,15123,1,0,3:0:0:0:
458,272,15209,1,0,1:0:0:0:
172,228,15382,2,0,L|267:239,1,90,8|0,0:0|0:0,0:0:0:0:
339,360,15727,6,0,L|359:212,1,135,0|0,1:0|0:0,0:0:0:0:
385,197,16071,1,8,0:0:0:0:
456,303,16244,1,2,0:0:0:0:
456,303,16330,1,0,3:0:0:0:
456,303,16416,1,2,0:0:0:0:
512,136,16589,1,0,1:0:0:0:
301,118,16761,2,0,L|390:105,1,90,8|0,0:0|0:0,0:0:0:0:
349,295,17106,6,0,P|316:321|270:321,1,90,0|0,1:0|0:0,0:0:0:0:
172,215,17451,1,8,0:0:0:0:
117,357,17623,1,2,0:0:0:0:
104,337,17709,1,0,3:0:0:0:
96,317,17795,1,2,0:0:0:0:
94,294,17881,1,0,3:0:0:0:
99,273,17967,1,0,1:0:0:0:
230,146,18140,1,8,0:0:0:0:
260,230,18313,1,0,0:0:0:0:
68,171,18485,6,0,B|145:185|119:121|201:134,1,135,0|0,1:0|0:0,0:0:0:0:
230,146,18830,1,8,0:0:0:0:
78,86,19002,1,2,0:0:0:0:
78,86,19089,1,0,3:0:0:0:
78,86,19175,1,2,0:0:0:0:
155,242,19347,1,0,1:0:0:0:
254,56,19520,2,0,L|164:50,1,90,8|0,0:0|0:0,0:0:0:0:
286,259,19865,6,0,P|287:214|312:177,1,90,0|0,1:0|0:0,0:0:0:0:
440,215,20209,1,8,0:0:0:0:
343,62,20382,1,2,0:0:0:0:
362,74,20468,1,0,3:0:0:0:
382,82,20554,1,2,0:0:0:0:
405,84,20640,1,0,3:0:0:0:
426,79,20726,1,0,1:0:0:0:
285,0,20899,2,0,P|260:37|258:81,1,90,8|0,0:0|0:0,0:0:0:0:
347,204,21244,5,0,1:0:0:0:
306,186,21330,1,0,3:0:0:0:
261,187,21416,1,0,3:0:0:0:
222,209,21502,1,0,3:0:0:0:
196,245,21588,1,8,3:2:0:0:
170,281,21675,1,0,3:0:0:0:
131,303,21761,1,2,3:2:0:0:
86,304,21847,1,0,3:0:0:0:
46,287,21934,5,2,3:2:0:0:
64,274,22020,1,0,3:0:0:0:
86,267,22106,1,0,1:0:0:0:
108,265,22192,1,0,3:0:0:0:
130,269,22278,1,8,0:0:0:0:
150,279,22365,1,0,3:0:0:0:
168,293,22451,1,0,3:0:0:0:
181,311,22537,1,0,3:0:0:0:
189,332,22623,6,0,L|193:280,1,45,0|0,1:0|3:0,0:0:0:0:
268,238,22796,2,0,L|272:186,1,45,0|0,3:0|3:0,0:0:0:0:
329,347,22968,2,0,L|333:295,1,45,8|0,3:2|3:0,0:0:0:0:
408,253,23141,2,0,L|412:201,1,45,2|0,3:2|3:0,0:0:0:0:
249,105,23313,6,0,P|271:118|301:121,1,45,2|0,3:2|3:0,0:0:0:0:
457,42,23485,1,0,1:0:0:0:
457,42,23571,1,0,1:0:0:0:
457,42,23658,2,0,P|435:56|417:81,1,45,8|0,3:2|3:0,0:0:0:0:
408,253,23830,2,0,P|407:228|394:200,1,45,0|0,3:0|3:0,0:0:0:0:
371,134,24003,5,4,3:1:0:0:
84,64,29520,6,0,P|50:106|59:167,1,107.999996704102,2|0,0:0|0:0,0:0:0:0:
174,188,30037,2,0,P|203:144|195:91,1,107.999996704102,2|0,0:0|0:0,0:0:0:0:
129,131,30554,1,2,0:0:0:0:
129,131,30727,1,0,0:0:0:0:
287,165,30899,6,0,P|320:207|311:268,1,107.999996704102,2|0,0:0|0:0,0:0:0:0:
195,289,31416,2,0,P|165:245|173:192,1,107.999996704102,2|0,0:0|0:0,0:0:0:0:
246,231,31933,1,2,0:0:0:0:
246,231,32106,1,0,0:0:0:0:
328,89,32278,6,0,L|262:81,2,62.9999980773926,2|0|0,0:0|0:0|0:0,0:0:0:0:
418,163,32796,2,0,L|484:155,2,62.9999980773926,2|0|0,0:0|0:0|0:0,0:0:0:0:
347,283,33313,1,2,0:0:0:0:
327,205,33485,1,2,0:0:0:0:
351,294,33658,6,0,L|288:286,1,62.9999980773926,2|0,0:0|0:0,0:0:0:0:
171,267,34002,1,0,0:0:0:0:
147,356,34175,2,0,L|209:348,1,62.9999980773926,2|0,0:0|0:0,0:0:0:0:
192,189,34520,1,0,0:0:0:0:
114,209,34692,1,2,0:0:0:0:
203,185,34865,1,2,0:0:0:0:
68,37,35037,6,0,P|91:65|97:107,1,72,2|0,0:0|0:0,0:0:0:0:
7,228,35382,2,0,P|20:194|54:167,1,72,2|0,0:0|0:0,0:0:0:0:
203,185,35727,2,0,P|168:190|128:175,1,72,2|0,0:0|0:0,0:0:0:0:
180,80,36071,1,2,0:0:0:0:
185,70,36244,1,2,0:0:0:0:
282,229,36416,6,0,L|301:83,1,144,0|2,0:0|0:0,0:0:0:0:
390,181,36934,1,0,0:0:0:0:
459,59,37106,2,0,L|387:68,1,72,2|0,0:0|0:0,0:0:0:0:
216,93,37451,1,2,0:0:0:0:
237,11,37624,1,2,0:0:0:0:
268,162,37796,5,0,0:0:0:0:
268,162,37968,2,0,P|237:182|202:182,1,72,2|0,0:0|0:0,0:0:0:0:
86,204,38313,2,0,P|153:192|198:248,1,144,0|0,0:0|0:0,0:0:0:0:
166,107,38830,1,0,0:0:0:0:
268,162,39002,5,2,0:0:0:0:
294,29,39175,1,2,0:0:0:0:
396,118,39347,1,2,0:0:0:0:
289,18,39520,5,2,0:0:0:0:
260,171,39693,1,2,0:0:0:0:
407,120,39865,1,2,0:0:0:0:
319,103,40037,5,0,0:0:0:0:
319,103,40209,1,0,0:0:0:0:
486,370,40554,6,0,P|458:347|416:341,1,72,2|0,0:0|0:0,0:0:0:0:
318,297,40899,2,0,P|352:285|379:251,1,72,2|0,0:0|0:0,0:0:0:0:
466,189,41244,2,0,P|461:225|476:265,1,72,2|0,0:0|0:0,0:0:0:0:
371,163,41589,1,2,0:0:0:0:
365,153,41762,1,2,0:0:0:0:
287,337,41934,6,0,L|277:262,1,72,0|0,0:0|0:0,0:0:0:0:
175,227,42278,1,2,0:0:0:0:
282,170,42451,1,2,0:0:0:0:
200,322,42623,2,0,L|125:312,1,72,2|0,0:0|0:0,0:0:0:0:
0,260,42968,1,2,0:0:0:0:
21,342,43141,1,2,0:0:0:0:
140,197,43313,5,0,0:0:0:0:
140,197,43485,2,0,L|92:191,1,36,2|0,0:0|0:0,0:0:0:0:
58,126,43658,1,2,0:0:0:0:
233,120,43830,2,0,P|176:155|179:234,1,144,0|0,0:0|0:0,0:0:0:0:
128,82,44347,1,0,0:0:0:0:
341,49,44692,5,2,0:0:0:0:
360,147,44864,1,2,0:0:0:0:
501,68,45037,1,2,0:0:0:0:
459,159,45209,1,2,0:0:0:0:
428,0,45382,1,2,0:0:0:0:
421,86,45554,5,0,0:0:0:0:
421,86,45727,1,0,0:0:0:0:
421,86,46071,6,0,L|338:96,1,80.9999975280763,4|0,1:2|0:0,0:0:0:0:
211,26,46416,2,0,L|294:16,1,80.9999975280763,0|0,1:0|0:0,0:0:0:0:
378,177,46761,2,0,L|295:187,1,80.9999975280763,0|0,1:0|0:0,0:0:0:0:
168,117,47106,2,0,L|251:107,1,80.9999975280763,0|0,1:0|0:0,0:0:0:0:
171,354,47451,6,0,P|194:319|194:268,1,80.9999975280763,0|0,1:0|0:0,0:0:0:0:
87,136,47796,2,0,P|105:173|149:198,1,80.9999975280763,0|0,1:0|0:0,0:0:0:0:
176,206,48054,1,0,3:0:0:0:
176,206,48140,1,0,1:0:0:0:
117,295,48313,1,0,0:0:0:0:
238,142,48485,2,0,P|260:175|264:215,1,80.9999975280763,0|0,1:0|0:0,0:0:0:0:
371,379,48830,6,0,L|384:290,1,80.9999975280763,0|0,1:0|0:0,0:0:0:0:
512,199,49175,2,0,L|423:212,1,80.9999975280763,0|0,1:0|0:0,0:0:0:0:
399,221,49434,1,0,3:0:0:0:
399,221,49520,1,0,1:0:0:0:
465,311,49692,1,0,0:0:0:0:
306,249,49865,2,0,L|319:160,1,80.9999975280763,0|0,1:0|0:0,0:0:0:0:
508,103,50209,5,2,1:2:0:0:
386,9,50382,1,2,0:2:0:0:
474,21,50554,1,2,1:2:0:0:
332,79,50727,1,2,0:2:0:0:
332,79,50813,1,0,3:0:0:0:
332,79,50899,2,0,B|242:61|268:145|178:124,1,161.999995056153,2|0,1:2|1:0,0:0:0:0:
186,125,51589,5,8,0:0:0:0:
331,293,51761,1,0,1:0:0:0:
331,293,51934,1,0,1:0:0:0:
185,118,52106,5,8,0:0:0:0:
112,335,52278,1,0,1:0:0:0:
112,335,52451,1,0,1:0:0:0:
184,111,52623,5,8,0:0:0:0:
228,344,52795,1,0,1:0:0:0:
228,344,52968,1,0,1:0:0:0:
183,104,53140,5,8,0:0:0:0:
17,270,53312,1,0,1:0:0:0:
17,270,53485,1,0,1:0:0:0:
280,166,53658,5,8,0:0:0:0:
75,128,53830,1,0,1:0:0:0:
258,22,54002,5,8,0:0:0:0:
220,227,54174,1,0,1:0:0:0:
372,90,54347,5,8,0:0:0:0:
502,179,54520,1,0,1:0:0:0:
366,95,54692,5,8,0:0:0:0:
449,264,54865,1,0,1:0:0:0:
357,96,55037,5,8,0:0:0:0:
342,321,55210,1,0,1:0:0:0:
350,93,55382,5,8,0:0:0:0:
206,307,55555,1,2,1:2:0:0:
277,35,55727,5,0,1:0:0:0:
233,21,55813,1,0,1:0:0:0:
189,25,55899,1,2,1:2:0:0:
150,46,55985,1,0,1:0:0:0:
123,82,56071,1,2,1:2:0:0:
112,125,56158,1,0,1:0:0:0:
120,170,56244,1,2,1:2:0:0:
144,207,56330,1,0,1:0:0:0:
181,232,56416,5,2,1:2:0:0:
266,209,56589,1,2,0:0:0:0:
220,139,56761,1,2,0:0:0:0:
276,83,56934,1,2,0:0:0:0:
501,272,57106,6,0,B|428:272|378:221|378:221|405:259|396:308,1,216,6|0,1:2|0:0,0:0:0:0:
305,349,57451,2,0,L|316:268,1,72,8|0,0:0|0:0,0:0:0:0:
426,85,57623,1,2,0:0:0:0:
426,85,57709,1,2,0:0:0:0:
426,85,57796,2,0,L|435:156,1,72,2|0,0:0|0:0,0:0:0:0:
261,48,57968,1,0,1:0:0:0:
378,221,58140,2,0,B|331:186|331:186|246:205,1,144,8|0,0:0|0:0,0:0:0:0:
136,334,58485,1,0,1:0:0:0:
103,100,58658,6,0,L|116:184,1,72,2|0,0:0|0:0,0:0:0:0:
39,227,58830,2,0,L|52:311,1,72,10|0,0:0|0:0,0:0:0:0:
200,143,59002,2,0,L|213:227,1,72,2|0,0:0|0:0,0:0:0:0:
206,375,59175,6,0,B|241:356|241:356|285:365,1,72,2|0,0:0|0:0,0:0:0:0:
466,240,59347,2,0,B|431:259|431:259|387:250,1,72,2|0,1:2|0:0,0:0:0:0:
356,369,59520,2,0,B|348:319|348:319|322:294|322:294|314:237,1,144,8|0,0:0|0:0,0:0:0:0:
470,338,59865,5,0,1:0:0:0:
426,123,60037,2,0,P|363:108|305:156,1,144,2|8,0:0|0:0,0:0:0:0:
234,256,60382,1,2,0:0:0:0:
229,184,60468,1,2,0:0:0:0:
224,113,60554,2,0,L|218:41,1,72,2|0,0:0|0:0,0:0:0:0:
235,264,60727,2,0,L|240:335,1,72,0|0,1:0|0:0,0:0:0:0:
26,150,60899,2,0,P|85:126|149:165,1,144,8|2,0:0|0:0,0:0:0:0:
402,56,61244,6,0,B|343:0|260:35|260:35|294:51|311:95,1,216,2|0,1:2|0:0,0:0:0:0:
268,178,61589,2,0,P|302:162|342:164,1,72,8|0,0:0|0:0,0:0:0:0:
488,292,61761,2,0,B|521:252|521:252|506:147,1,144,2|2,0:0|0:0,0:0:0:0:
481,9,62106,1,2,1:2:0:0:
481,9,62192,1,0,3:0:0:0:
481,9,62278,2,0,L|494:86,1,72,10|0,0:0|0:0,0:0:0:0:
433,223,62451,2,0,L|421:152,1,72,2|0,0:0|0:0,0:0:0:0:
235,133,62623,6,0,B|308:126|367:81|367:81|338:108|333:151,1,216,0|0,1:0|0:0,0:0:0:0:
225,255,62968,2,0,B|152:248|93:203|93:203|122:230|127:273,1,216,8|0,0:0|0:0,0:0:0:0:
47,325,63313,6,0,P|46:289|31:257,1,72,2|0,0:0|0:0,0:0:0:0:
154,384,63485,1,0,1:0:0:0:
133,129,63658,2,0,P|66:120|14:169,1,144,8|2,0:0|0:0,0:0:0:0:
115,0,64002,1,0,1:0:0:0:
257,234,64175,6,0,L|263:154,1,72,2|0,0:0|0:0,0:0:0:0:
349,177,64347,2,0,L|371:101,1,72,10|0,0:0|0:0,0:0:0:0:
174,162,64520,2,0,L|164:83,1,72,2|0,0:0|0:0,0:0:0:0:
394,319,64692,6,0,B|360:297|360:297|316:302,1,72,2|0,0:0|0:0,0:0:0:0:
108,294,64865,2,0,B|144:278|144:278|187:290,1,72,2|0,1:2|0:0,0:0:0:0:
245,378,65037,2,0,L|258:226,1,144,10|0,0:0|0:0,0:0:0:0:
423,78,65382,5,0,1:0:0:0:
183,171,65554,2,0,B|243:133|243:133|329:162,1,144,2|8,0:0|0:0,0:0:0:0:
317,239,65899,1,2,0:0:0:0:
245,245,65985,1,2,0:0:0:0:
174,252,66071,2,0,L|102:258,1,72,2|0,0:0|0:0,0:0:0:0:
325,238,66244,2,0,L|396:231,1,72,2|0,1:2|0:0,0:0:0:0:
196,330,66416,2,0,B|262:356|262:356|342:313,1,144,8|2,0:0|0:0,0:0:0:0:
136,100,66761,6,0,P|95:153|97:236,1,144,2|0,1:2|0:0,0:0:0:0:
30,79,67106,2,0,P|29:43|14:11,1,72,8|0,0:0|0:0,0:0:0:0:
259,0,67278,2,0,L|103:21,1,144,2|0,0:0|0:0,0:0:0:0:
206,200,67623,1,2,1:2:0:0:
206,200,67709,1,2,1:2:0:0:
206,200,67795,2,0,L|216:124,1,72,10|0,0:0|0:0,0:0:0:0:
349,0,67968,2,0,L|359:71,1,72,0|0,0:0|0:0,0:0:0:0:
442,226,68140,5,0,1:0:0:0:
295,140,68313,1,0,1:0:0:0:
350,336,68485,6,0,L|360:260,1,72,8|0,0:0|0:0,0:0:0:0:
504,175,68658,2,0,B|460:138|460:138|361:162,1,144,2|0,0:0|0:0,0:0:0:0:
304,134,68916,1,8,0:3:0:0:
295,140,69002,2,0,L|285:211,1,72,0|0,1:0|0:0,0:0:0:0:
58,236,69175,2,0,B|115:173|199:208|199:208|166:222|151:259,1,216,8|0,0:0|0:0,0:0:0:0:
151,285,69520,1,0,1:0:0:0:
228,89,69692,6,0,P|197:107|161:110,1,72,2|0,0:0|0:0,0:0:0:0:
5,3,69865,2,0,P|36:20|56:49,1,72,10|0,0:0|0:0,0:0:0:0:
42,239,70037,2,0,P|41:203|56:170,1,72,2|0,0:0|0:0,0:0:0:0:
246,13,70209,6,0,B|230:46|230:46|239:80,1,72,2|0,0:0|0:0,0:0:0:0:
418,92,70382,2,0,B|431:59|431:59|420:24,1,72,2|0,1:2|0:0,0:0:0:0:
322,186,70554,2,0,L|327:114,1,72,8|0,0:0|0:0,0:0:0:0:
512,267,70727,2,0,B|458:271|458:271|427:248|427:248|369:252,1,144,2|0,0:0|1:0,0:0:0:0:
179,384,71071,6,0,B|215:338|215:338|197:244,1,144,2|8,0:0|0:0,0:0:0:0:
7,193,71416,1,2,0:0:0:0:
78,185,71502,1,2,0:0:0:0:
150,177,71588,2,0,L|221:169,1,72,2|0,0:0|0:0,0:0:0:0:
357,247,71761,2,0,L|285:239,1,72,2|0,1:2|0:0,0:0:0:0:
341,28,71934,2,0,B|304:73|304:73|322:167,1,144,8|2,0:0|0:0,0:0:0:0:
35,80,72278,6,0,B|94:59|115:12|115:12|144:53|215:66,1,216,2|0,1:2|0:0,0:0:0:0:
207,65,72623,2,0,L|219:136,1,72,10|0,0:0|0:0,0:0:0:0:
270,300,72796,2,0,P|283:220|331:174,1,144,2|2,0:0|0:0,0:0:0:0:
120,202,73141,1,2,1:2:0:0:
120,202,73227,1,0,3:0:0:0:
120,202,73313,2,0,P|152:219|192:219,1,72,10|0,0:0|0:0,0:0:0:0:
342,299,73485,2,0,P|306:300|274:317,1,72,2|0,0:0|0:0,0:0:0:0:
274,85,73658,6,0,P|356:44|361:154,1,216,0|0,1:0|0:0,0:0:0:0:
504,180,74002,2,0,P|421:139|416:249,1,216,8|0,0:0|0:0,0:0:0:0:
342,299,74347,6,0,P|311:279|271:275,1,72,2|0,0:0|0:0,0:0:0:0:
138,320,74520,1,0,1:0:0:0:
268,177,74692,2,0,P|237:196|197:200,1,72,8|0,0:0|0:0,0:0:0:0:
64,156,74865,1,2,0:0:0:0:
226,60,75037,1,0,1:0:0:0:
128,323,75210,6,0,L|118:252,1,72,2|0,0:0|0:0,0:0:0:0:
224,379,75382,2,0,L|214:308,1,72,10|0,0:0|0:0,0:0:0:0:
47,371,75554,2,0,L|37:300,1,72,2|0,0:0|0:0,0:0:0:0:
268,177,75727,6,0,B|234:199|234:199|190:194,1,72,2|0,0:0|0:0,0:0:0:0:
56,124,75899,2,0,B|90:102|90:102|134:107,1,72,2|0,1:2|0:0,0:0:0:0:
272,188,76071,2,0,B|238:210|238:210|194:205,1,72,10|0,0:0|0:0,0:0:0:0:
60,135,76243,2,0,B|94:113|94:113|138:118,1,72,2|0,0:0|0:0,0:0:0:0:
329,254,76416,6,0,B|369:214|369:214|347:119,1,144,0|0,1:0|0:0,0:0:0:0:
331,336,76761,1,8,0:0:0:0:
128,203,76934,2,0,L|272:187,1,144,2|0,0:0|0:0,0:0:0:0:
418,288,77278,1,0,1:0:0:0:
312,108,77451,1,8,0:0:0:0:
512,171,77623,2,0,P|478:179|451:207,1,72,2|0,0:0|0:0,0:0:0:0:
331,336,77796,6,0,L|350:193,1,125.999996154785,0|0,1:0|0:0,0:0:0:0:
190,135,78140,1,8,0:0:0:0:
159,275,78313,1,0,1:0:0:0:
85,99,78485,1,0,1:0:0:0:
255,294,78658,5,0,1:0:0:0:
247,280,78744,1,0,1:0:0:0:
239,266,78830,2,0,L|143:275,1,80.9999975280763,10|0,0:0|0:0,0:0:0:0:
0,293,79002,2,0,L|80:284,1,80.9999975280763,2|0,0:0|0:0,0:0:0:0:
285,159,79175,1,4,1:2:0:0:
341,363,79347,6,0,P|342:327|357:295,1,72,2|0,0:0|0:0,0:0:0:0:
509,146,79520,2,0,B|442:125|442:125|379:192|446:267,1,216,8|0,0:0|0:0,0:0:0:0:
497,339,79865,1,0,3:0:0:0:
497,339,79951,1,8,0:3:0:0:
497,339,80037,2,0,L|420:348,1,72,0|0,1:0|0:0,0:0:0:0:
318,181,80209,2,0,B|247:178|247:178|215:159|215:159|183:176|183:176|111:173,1,216,8|0,0:0|0:0,0:0:0:0:
86,193,80554,1,0,1:0:0:0:
220,56,80727,6,0,L|217:127,1,72,2|0,0:0|0:0,0:0:0:0:
214,207,80899,2,0,L|211:278,1,72,10|0,0:0|0:0,0:0:0:0:
34,102,81071,5,2,0:0:0:0:
34,102,81158,1,2,0:0:0:0:
34,102,81244,2,0,P|64:120|102:121,1,72,2|0,0:0|0:0,0:0:0:0:
270,8,81416,2,0,P|238:24|218:57,1,72,2|0,1:2|0:0,0:0:0:0:
322,166,81589,2,0,P|322:130|304:96,1,72,10|0,0:0|0:0,0:0:0:0:
107,166,81761,2,0,B|148:132|148:132|256:154,1,144,2|0,0:0|1:0,0:0:0:0:
430,107,82106,6,0,P|360:109|321:171,1,144,2|8,0:0|0:0,0:0:0:0:
180,384,82451,1,2,0:0:0:0:
172,312,82537,1,2,0:0:0:0:
165,241,82623,2,0,L|156:169,1,72,2|0,0:0|0:0,0:0:0:0:
255,307,82796,2,0,L|246:235,1,72,2|0,1:2|0:0,0:0:0:0:
128,91,82968,2,0,P|198:93|237:155,1,144,8|2,0:0|0:0,0:0:0:0:
512,71,83313,6,0,B|439:71|389:20|389:20|416:58|407:107,1,216,2|0,1:2|0:0,0:0:0:0:
317,152,83658,2,0,L|326:75,1,72,8|0,0:0|0:0,0:0:0:0:
119,225,83830,2,0,B|163:188|163:188|262:212,1,144,2|2,0:0|0:0,0:0:0:0:
202,347,84175,1,2,1:2:0:0:
202,347,84261,1,0,3:0:0:0:
202,347,84347,2,0,P|185:310|185:276,1,72,10|0,0:0|0:0,0:0:0:0:
189,89,84520,2,0,P|206:126|206:160,1,72,2|0,0:0|0:0,0:0:0:0:
270,295,84692,1,0,1:0:0:0:
48,145,84865,5,2,0:0:0:0:
48,145,84951,1,2,0:0:0:0:
48,145,85037,2,0,L|124:140,1,72,10|2,0:0|0:0,0:0:0:0:
231,216,85209,1,2,0:0:0:0:
231,216,85295,1,2,0:0:0:0:
231,216,85381,2,0,L|307:211,1,72,2|8,0:0|0:3,0:0:0:0:
123,329,85554,1,0,1:0:0:0:
288,92,85727,2,0,B|231:29|147:64|147:64|180:78|195:115,1,216,8|0,0:0|0:0,0:0:0:0:
119,140,86071,1,0,1:0:0:0:
383,124,86244,6,0,L|373:47,1,72,2|0,0:0|0:0,0:0:0:0:
256,243,86416,2,0,L|246:166,1,72,10|0,0:0|0:0,0:0:0:0:
353,291,86589,2,0,L|343:214,1,72,2|0,0:0|0:0,0:0:0:0:
16,153,86761,6,0,B|-4:183|-4:183|0:218,1,72,2|0,0:0|0:0,0:0:0:0:
150,253,86934,2,0,B|170:222|170:222|166:187,1,72,2|0,1:2|0:0,0:0:0:0:
111,81,87106,2,0,L|92:164,1,72,10|0,0:0|0:0,0:0:0:0:
0,326,87278,2,0,B|54:322|54:322|85:345|85:345|143:341,1,144,2|0,0:0|1:0,0:0:0:0:
285,108,87623,6,0,B|247:168|247:168|276:254,1,144,2|8,0:0|0:0,0:0:0:0:
353,242,87968,1,2,0:0:0:0:
359,170,88054,1,2,0:0:0:0:
366,99,88140,2,0,L|372:27,1,72,2|0,0:0|0:0,0:0:0:0:
352,250,88313,2,0,L|345:321,1,72,2|0,1:2|0:0,0:0:0:0:
444,121,88485,2,0,B|470:187|470:187|427:267,1,144,8|2,0:0|0:0,0:0:0:0:
286,21,88830,6,0,B|161:5|215:103|90:87,1,216,2|0,1:2|0:0,0:0:0:0:
60,71,89175,1,8,0:0:0:0:
224,250,89347,2,0,P|237:173|258:105,1,144,2|0,0:0|0:0,0:0:0:0:
76,183,89692,1,2,1:2:0:0:
76,183,89778,1,2,1:2:0:0:
76,183,89865,2,0,P|112:200|151:196,1,72,10|0,0:0|0:0,0:0:0:0:
224,29,90037,2,0,P|191:51|175:87,1,72,0|0,0:0|0:0,0:0:0:0:
224,250,90209,6,0,L|228:215,10,26.9999991760254,0|0|0|0|0|0|0|0|0|0|0,1:0|0:0|0:0|0:0|0:0|0:0|0:0|0:0|0:0|0:0|0:0,0:0:0:0:
258,324,90727,2,0,B|202:328|202:328|146:333,1,107.999996704102,2|0,0:0|0:0,0:0:0:0:
118,360,90985,1,8,0:3:0:0:
109,354,91071,2,0,P|103:312|99:281,1,72,0|0,1:0|0:0,0:0:0:0:
330,212,91244,6,0,B|282:149|192:172|192:172|221:193|232:244,1,216,8|0,0:0|0:0,0:0:0:0:
224,250,91589,1,0,1:0:0:0:
403,333,91761,6,0,L|408:262,1,72,2|0,0:0|0:0,0:0:0:0:
414,182,91933,2,0,L|419:111,1,72,10|0,0:0|0:0,0:0:0:0:
310,354,92105,5,2,0:0:0:0:
310,354,92192,1,2,0:0:0:0:
310,354,92278,2,0,P|280:336|242:335,1,72,2|0,0:0|0:0,0:0:0:0:
33,182,92451,2,0,P|49:212|82:232,1,72,2|0,1:2|0:0,0:0:0:0:
96,315,92623,2,0,P|130:315|164:297,1,72,8|0,0:0|0:0,0:0:0:0:
204,157,92795,2,0,B|220:125|220:125|112:147,1,144,2|0,0:0|1:0,0:0:0:0:
407,22,93140,6,0,P|337:24|298:86,1,144,2|8,0:0|0:0,0:0:0:0:
314,295,93485,1,2,0:0:0:0:
309,223,93571,1,2,0:0:0:0:
304,152,93657,2,0,L|298:80,1,72,2|0,0:0|0:0,0:0:0:0:
315,303,93830,2,0,L|320:374,1,72,2|0,1:2|0:0,0:0:0:0:
181,41,94002,2,0,P|250:30|299:85,1,144,8|2,0:0|0:0,0:0:0:0:
438,326,94347,6,0,B|488:266|452:184|452:184|436:216|393:235,1,216,2|0,1:2|0:0,0:0:0:0:
308,169,94692,2,0,P|342:151|386:156,1,72,8|0,0:0|0:0,0:0:0:0:
242,375,94864,2,0,B|228:223,1,144,2|2,0:0|0:0,0:0:0:0:
144,273,95209,1,2,1:2:0:0:
144,273,95295,1,0,3:0:0:0:
144,273,95381,2,0,P|140:308|150:342,1,72,10|0,0:0|0:0,0:0:0:0:
326,327,95554,2,0,P|330:286|318:254,1,72,2|0,0:0|0:0,0:0:0:0:
166,178,95726,1,0,1:0:0:0:
347,169,95899,5,2,0:0:0:0:
347,169,95985,1,2,0:0:0:0:
347,169,96071,2,0,L|271:174,1,72,10|2,0:0|0:0,0:0:0:0:
92,102,96243,1,2,0:0:0:0:
92,102,96329,1,2,0:0:0:0:
92,102,96415,2,0,L|163:97,1,72,2|8,0:0|0:3,0:0:0:0:
192,274,96588,1,0,1:0:0:0:
218,39,96761,2,0,B|201:113|201:113|237:163|237:163|219:257,1,216,8|0,0:0|0:0,0:0:0:0:
192,274,97105,1,0,1:0:0:0:
477,11,97278,6,0,P|441:14|411:33,1,72,2|0,0:0|0:0,0:0:0:0:
290,92,97451,2,0,P|326:95|356:115,1,72,10|0,0:0|0:0,0:0:0:0:
477,171,97623,2,0,P|441:174|411:193,1,72,2|0,0:0|0:0,0:0:0:0:
103,283,97796,6,0,B|99:247|99:247|119:218,1,72,2|0,0:0|0:0,0:0:0:0:
228,192,97969,2,0,B|261:206|261:206|276:238,1,72,2|0,1:2|0:0,0:0:0:0:
244,345,98141,2,0,B|214:366|214:366|179:363,1,72,10|0,0:0|0:0,0:0:0:0:
385,340,98313,5,2,1:2:0:0:
385,340,98399,1,0,1:0:0:0:
385,340,98485,2,0,B|260:356|314:258|189:274,1,215.999993408203,0|8,1:0|0:0,0:0:0:0:
36,270,99002,2,0,P|137:263|159:365,1,215.999993408203,0|0,1:0|1:0,0:0:0:0:
221,131,99520,1,8,0:0:0:0:
89,330,99692,1,8,0:0:0:0:
81,338,100037,5,0,1:0:0:0:
50,166,100209,1,0,1:0:0:0:
197,317,100382,1,0,1:0:0:0:
246,108,100554,1,0,1:0:0:0:
37,262,100727,1,0,1:0:0:0:
37,262,100813,1,0,1:0:0:0:
37,262,100899,1,8,0:0:0:0:
37,262,101244,6,0,B|130:246|92:324|185:308,1,161.999995056153,4|8,0:0|0:0,0:0:0:0:
348,210,101761,1,2,0:0:0:0:
328,197,101847,1,0,3:0:0:0:
308,189,101933,1,2,0:0:0:0:
285,187,102019,1,0,3:0:0:0:
264,192,102105,1,0,1:0:0:0:
279,361,102278,2,0,L|291:275,1,80.9999975280763,8|0,0:0|0:0,0:0:0:0:
478,119,102623,6,0,P|442:141|397:137,1,80.9999975280763,0|0,1:0|0:0,0:0:0:0:
252,48,102968,1,8,0:0:0:0:
339,204,103140,1,2,0:0:0:0:
339,204,103227,1,0,3:0:0:0:
339,204,103313,1,2,0:0:0:0:
168,109,103485,1,0,1:0:0:0:
333,0,103658,2,0,L|344:80,1,80.9999975280763,8|0,0:0|0:0,0:0:0:0:
249,240,104002,6,0,P|206:203|134:211,1,121.499996292114,0|0,1:0|0:0,0:0:0:0:
115,234,104347,1,8,0:0:0:0:
10,133,104520,1,2,0:0:0:0:
10,133,104606,1,0,3:0:0:0:
10,133,104692,2,0,L|58:125,1,40.4999987640381,2|0,0:0|3:0,0:0:0:0:
141,72,104865,1,0,1:0:0:0:
41,297,105037,2,0,P|32:248|23:206,1,80.9999975280763,8|0,0:0|0:0,0:0:0:0:
190,384,105382,6,0,P|198:335|208:293,1,80.9999975280763,0|0,1:0|0:0,0:0:0:0:
281,181,105727,1,8,0:0:0:0:
132,256,105899,1,2,0:0:0:0:
132,256,105985,1,0,3:0:0:0:
132,256,106071,1,2,0:0:0:0:
192,100,106244,1,0,1:0:0:0:
289,277,106416,2,0,P|322:298|362:297,1,80.9999975280763,8|0,0:0|0:0,0:0:0:0:
465,121,106761,6,0,P|383:117|348:190,1,161.999995056153,0|8,1:0|0:0,0:0:0:0:
464,324,107278,1,2,0:0:0:0:
469,303,107364,1,0,3:0:0:0:
467,280,107450,1,2,0:0:0:0:
459,260,107536,1,0,3:0:0:0:
446,240,107622,1,0,1:0:0:0:
301,357,107796,2,0,L|287:267,1,80.9999975280763,8|0,0:0|0:0,0:0:0:0:
173,140,108140,6,0,L|160:220,1,80.9999975280763,0|0,1:0|0:0,0:0:0:0:
275,88,108485,1,8,0:0:0:0:
138,32,108658,1,2,0:0:0:0:
138,32,108744,1,0,3:0:0:0:
138,32,108830,1,2,0:0:0:0:
245,195,109002,1,0,1:0:0:0:
334,21,109175,2,0,P|300:0|260:0,1,80.9999975280763,8|0,0:0|0:0,0:0:0:0:
121,200,109520,5,0,1:0:0:0:
161,218,109606,1,0,3:0:0:0:
206,217,109692,1,0,3:0:0:0:
245,195,109778,1,0,3:0:0:0:
271,159,109864,1,8,3:2:0:0:
298,123,109951,1,0,3:0:0:0:
337,101,110037,1,2,3:2:0:0:
382,100,110123,1,0,3:0:0:0:
422,117,110209,5,2,3:2:0:0:
424,137,110296,1,0,3:0:0:0:
426,157,110382,1,0,1:0:0:0:
428,177,110468,1,0,3:0:0:0:
431,197,110554,1,8,3:2:0:0:
433,217,110641,1,0,3:0:0:0:
435,237,110727,1,0,3:0:0:0:
438,257,110813,1,0,3:0:0:0:
440,277,110899,6,0,L|392:281,1,40.4999987640381,0|0,1:0|3:0,0:0:0:0:
279,290,111072,2,0,L|320:287,1,40.4999987640381,0|0,3:0|3:0,0:0:0:0:
350,193,111244,2,0,L|302:197,1,40.4999987640381,8|0,3:2|3:0,0:0:0:0:
189,206,111417,2,0,L|229:202,1,40.4999987640381,2|0,3:2|3:0,0:0:0:0:
262,64,111589,6,0,P|240:77|210:80,1,40.4999987640381,2|0,3:2|3:0,0:0:0:0:
103,212,111761,1,0,1:0:0:0:
103,212,111847,1,0,1:0:0:0:
103,212,111934,2,0,P|104:187|117:159,1,40.4999987640381,8|0,3:2|3:0,0:0:0:0:
54,1,112106,2,0,P|76:15|94:40,1,40.4999987640381,0|0,3:0|3:0,0:0:0:0:
140,93,112279,5,4,1:0:0:0:
