osu file format v14

[General]
AudioFilename: C-Show - Rocking To The Beat [Cut ver.].mp3
AudioLeadIn: 0
PreviewTime: 54664
Countdown: 0
SampleSet: None
StackLeniency: 0.2
Mode: 0
LetterboxInBreaks: 1
WidescreenStoryboard: 1

[Editor]
Bookmarks: 22250,33285,110526
DistanceSpacing: 0.5
BeatDivisor: 4
GridSize: 4
TimelineZoom: 1.3

[Metadata]
Title:Rocking To The Beat
TitleUnicode:Rocking To The Beat
Artist:C-Show
ArtistUnicode:C-Show
Creator:HikaruR
Version:Hard
Source:
Tags:Drum and Bass Drumstep Kusemono Records Cut version short
BeatmapID:749773
BeatmapSetID:338844

[Difficulty]
HPDrainRate:5
CircleSize:3.8
OverallDifficulty:6
ApproachRate:8
SliderMultiplier:1.4
SliderTickRate:1

[Events]
//Background and Video events
0,0,"rttbbg.jpg",0,0
//Break Periods
2,22450,40811
//Storyboard Layer 0 (Background)
//Storyboard Layer 1 (Fail)
//Storyboard Layer 2 (Pass)
//Storyboard Layer 3 (Foreground)
//Storyboard Sound Samples

[TimingPoints]
182,344.827586206897,4,3,0,70,1,0
11216,-80,4,2,0,70,0,0
19492,-100,4,2,0,70,0,0
22250,-133.333333333333,4,2,0,50,0,0
33285,-200,4,2,0,50,0,0
44319,-133.333333333333,4,2,0,50,0,0
49837,-100,4,2,0,50,0,0
53285,-100,4,2,0,20,0,0
53975,-100,4,2,0,30,0,0
54147,-100,4,2,0,40,0,0
54319,-100,4,2,0,50,0,0
54492,-100,4,2,0,60,0,0
54664,-133.333333333333,4,2,0,20,0,0
55354,-80,4,1,0,80,0,1
57423,-66.6666666666667,4,1,0,80,0,1
58285,-80,4,1,0,80,0,1
60871,-66.6666666666667,4,1,0,80,0,1
61561,-80,4,1,0,80,0,1
66388,-133.333333333333,4,1,0,5,0,0
66733,-80,4,1,0,80,0,1
68457,-66.6666666666667,4,1,0,80,0,1
69664,-80,4,1,0,80,0,1
71906,-66.6666666666667,4,1,0,80,0,1
72595,-80,4,1,0,80,0,1
73975,-66.6666666666667,4,1,0,80,0,1
74664,-133.333333333333,4,1,0,60,0,0
77078,-100,4,1,0,60,0,0
77423,-80,4,1,0,80,0,1
85009,-66.6666666666667,4,1,0,80,0,1
85526,-100,4,1,0,80,0,1
85871,-80,4,1,0,80,0,1
88457,-66.6666666666667,4,1,0,5,0,0
89319,-66.6666666666667,4,3,0,55,0,0
89492,-100,4,1,0,80,0,1
96044,-66.6666666666667,4,1,0,80,0,1
96733,-133.333333333333,4,1,0,80,0,1
98113,-80,4,3,0,5,0,0
98457,-80,4,3,0,25,0,0
98630,-80,4,3,0,35,0,0
98802,-80,4,3,0,45,0,0
98975,-80,4,3,0,55,0,0
99147,-80,4,1,0,65,0,0
99492,-80,4,1,0,80,0,1
99578,-80,4,1,0,80,0,0
107768,-100,4,2,0,80,0,0

[Colours]
Combo1 : 12,32,171
Combo2 : 0,64,128
Combo3 : 0,121,121
Combo4 : 9,176,142

[HitObjects]
241,307,182,5,4,0:0:0:0:
216,240,354,1,0,0:0:0:0:
188,172,526,2,0,L|160:96,1,70,8|0,0:0|0:0,0:0:0:0:
248,108,871,1,0,0:0:0:0:
272,176,1044,1,4,0:0:0:0:
320,112,1216,2,0,P|312:64|284:44,1,70,8|0,0:0|0:0,0:0:0:0:
204,41,1561,5,4,0:0:0:0:
140,72,1733,1,0,0:0:0:0:
76,104,1906,2,0,B|36:128|36:128|8:156,1,70,8|0,0:0|0:0,0:0:0:0:
84,188,2250,1,0,0:0:0:0:
120,252,2423,1,4,0:0:0:0:
155,188,2595,2,0,P|179:160|227:148,1,70,8|0,0:0|0:0,0:0:0:0:
285,160,2940,5,4,0:0:0:0:
344,197,3113,1,0,0:0:0:0:
403,232,3285,2,0,P|441:273|446:309,1,70,8|0,0:0|0:0,0:0:0:0:
375,298,3630,1,0,0:0:0:0:
323,345,3802,1,4,0:0:0:0:
291,282,3975,2,0,P|278:239|292:213,1,70,8|0,0:0|0:0,0:0:0:0:
332,153,4319,5,4,0:0:0:0:
358,87,4492,1,0,0:0:0:0:
288,94,4664,1,8,0:0:0:0:
260,158,4837,1,0,0:0:0:0:
192,128,5009,1,0,0:0:0:0:
140,180,5182,1,4,0:0:0:0:
215,215,5354,1,8,0:0:0:0:
186,303,5526,1,0,0:0:0:0:
268,365,5699,5,4,0:0:0:0:
348,360,5871,1,0,0:0:0:0:
424,336,6044,2,0,B|458:315|469:277,1,70,8|0,0:0|0:0,0:0:0:0:
467,282,6302,1,0,0:0:0:0:
467,282,6389,1,0,0:0:0:0:
438,208,6561,1,4,0:0:0:0:
459,139,6733,1,8,0:0:0:0:
420,81,6906,1,0,0:0:0:0:
389,143,7078,5,4,0:0:0:0:
321,126,7250,1,0,0:0:0:0:
252,109,7423,2,0,P|195:113|171:127,1,70,8|0,0:0|0:0,0:0:0:0:
134,167,7768,1,0,0:0:0:0:
201,184,7940,1,4,0:0:0:0:
152,234,8113,2,0,P|101:233|77:203,1,70,8|0,0:0|0:0,0:0:0:0:
62,157,8457,6,0,L|86:78,1,70,4|0,0:0|0:0,0:0:0:0:
148,26,8802,2,0,L|168:101,1,70,8|0,0:0|0:0,0:0:0:0:
231,158,9147,2,0,L|257:86,1,70,0|4,0:0|0:0,0:0:0:0:
313,26,9492,2,0,L|344:99,1,70,8|0,0:0|0:0,0:0:0:0:
381,175,9837,5,4,0:0:0:0:
330,222,10009,2,0,P|289:248|260:251,1,70,0|8,0:0|0:0,0:0:0:0:
387,268,10354,1,0,0:0:0:0:
324,298,10526,2,0,P|274:292|255:272,1,70,0|4,0:0|0:0,0:0:0:0:
260,280,10785,1,4,0:0:0:0:
260,280,10871,1,8,0:0:0:0:
107,313,11216,6,0,P|90:258|101:218,1,87.5
123,146,11561,1,8,0:0:0:0:
168,71,11733,2,0,B|178:48|178:48|178:22,2,43.75,2|0|2,0:0|0:0|0:0,0:0:0:0:
208,148,12078,1,0,0:0:0:0:
290,176,12250,2,0,P|346:174|374:148,1,87.5,8|0,0:0|0:0,0:0:0:0:
398,72,12595,6,0,P|445:105|454:145,1,87.5
446,219,12940,1,8,0:0:0:0:
410,298,13113,2,0,L|409:351,2,43.75,2|0|2,0:0|0:0|0:0,0:0:0:0:
332,260,13457,1,0,0:0:0:0:
256,304,13630,2,0,P|200:312|156:296,1,87.5,8|0,0:0|0:0,0:0:0:0:
96,352,13975,6,0,P|80:296|112:236,1,87.5
156,212,14319,1,8,0:0:0:0:
232,168,14492,1,2,0:0:0:0:
232,168,14578,1,0,0:0:0:0:
232,168,14664,1,2,0:0:0:0:
164,112,14837,1,0,0:0:0:0:
96,56,15009,2,0,P|40:72|24:128,1,87.5,8|0,0:0|0:0,0:0:0:0:
44,180,15354,6,0,L|88:264,1,87.5
120,336,15699,2,0,L|168:236,1,87.5,8|2,0:0|0:0,0:0:0:0:
192,176,16044,2,0,L|236:260,1,87.5,2|0,0:0|0:0,0:0:0:0:
268,332,16389,2,0,L|316:232,1,87.5,8|0,0:0|0:0,0:0:0:0:
392,276,16733,6,0,P|384:208|356:180,1,87.5
312,132,17078,1,8,0:0:0:0:
252,68,17250,2,0,L|252:24,2,43.75,2|0|2,0:0|0:0|0:0,0:0:0:0:
228,152,17595,1,0,0:0:0:0:
292,212,17768,2,0,P|352:208|384:176,1,87.5,8|0,0:0|0:0,0:0:0:0:
404,112,18113,6,0,P|448:144|456:192,1,87.5
432,256,18457,1,8,0:0:0:0:
392,336,18630,2,0,L|392:380,2,43.75,2|0|2,0:0|0:0|0:0,0:0:0:0:
308,308,18975,1,0,0:0:0:0:
220,304,19147,2,0,B|152:304|152:304|116:288,1,87.5,8|0,0:0|0:0,0:0:0:0:
104,232,19492,6,2,L|88:176,7,35,4|0|2|0|8|0|2|0,3:0|0:0|0:0|0:0|0:0|0:0|0:0|0:0,0:0:0:0:
164,192,20182,6,2,L|148:140,7,35,2|0|4|0|8|0|2|0,0:0|0:0|3:0|0:0|0:0|0:0|0:0|0:0,0:0:0:0:
224,144,20871,6,2,L|200:92,3,35,4|0|2|0,0:3|0:0|0:0|0:0,0:0:0:0:
280,96,21216,2,2,L|260:52,3,35,8|0|2|0,0:0|0:0|0:0|0:0,0:0:0:0:
340,56,21561,6,2,L|320:12,3,35,2|0|4|0,0:0|0:0|0:3|0:0,0:0:0:0:
400,20,21906,1,8,0:0:0:0:
412,128,22250,5,4,0:0:0:0:
256,192,41561,12,4,44319,0:0:0:0:
180,136,44664,5,0,0:0:0:0:
300,120,45009,1,0,0:0:0:0:
408,196,45354,2,0,L|448:236,1,52.5000020027161
276,300,46044,6,0,P|224:316|176:288,1,105.000004005432
104,188,46733,2,0,L|88:136,1,52.5000020027161
224,92,47250,2,0,P|228:48|332:32,1,157.500006008148
388,192,48285,5,0,0:0:0:0:
332,252,48457,2,0,L|272:292,1,52.5000020027161
256,208,48802,2,0,L|196:212,1,52.5000020027161
216,128,49147,2,0,P|172:88|184:40,1,105.000004005432
360,108,49837,6,0,L|432:136,2,70,8|0|4,0:0|0:0|0:3,0:0:0:0:
296,156,50354,2,0,L|232:188,2,70,8|0|4,0:0|0:0|0:3,0:0:0:0:
368,196,50871,6,0,L|424:252,2,70,8|0|4,0:0|0:0|0:3,0:0:0:0:
304,244,51388,2,0,L|268:324,2,70,8|0|4,0:0|0:0|0:3,0:0:0:0:
364,288,51906,6,0,L|388:360,1,70,8|0,0:0|0:0,0:0:0:0:
440,264,52250,2,0,L|416:192,1,70,8|0,0:0|0:0,0:0:0:0:
476,176,52595,2,0,L|396:120,1,70,8|0,0:0|0:0,0:0:0:0:
464,84,52940,2,0,L|388:68,1,70,8|0,0:0|0:0,0:0:0:0:
256,192,53285,12,0,54664,0:0:0:0:
128,224,55354,6,0,B|128:176|128:176|156:112|224:88,1,175,0|8,0:0|0:0,0:0:0:0:
284,76,55871,1,0,0:0:0:0:
348,64,56044,2,0,L|440:52,2,87.5,0|0|8,0:0|0:0|0:0,0:0:0:0:
328,188,56733,5,0,0:0:0:0:
356,260,56906,2,0,L|388:352,2,87.5,0|8|0,0:0|0:0|0:0,0:0:0:0:
260,216,57423,2,0,L|224:104,2,105.000004005432,0|0|8,0:0|0:0|0:0,0:0:0:0:
284,304,57940,1,0,0:0:0:0:
188,296,58113,6,0,P|132:308|76:260,1,105.000004005432
60,224,58457,1,8,0:0:0:0:
40,160,58630,2,0,L|28:112,2,43.75
124,160,58975,6,0,P|128:108|232:48,1,175
216,140,59492,2,0,P|280:136|368:224,1,175,0|8,0:0|0:0,0:0:0:0:
264,232,60009,2,0,P|296:304|248:380,1,175
196,300,60526,1,8,0:0:0:0:
88,196,60871,6,0,L|64:88,1,105.000004005432
156,140,61216,2,0,L|132:32,1,105.000004005432,8|0,0:0|0:0,0:0:0:0:
224,88,61561,2,0,B|268:56|268:56|320:40,2,87.5,0|0|8,0:0|0:0|0:0,0:0:0:0:
196,172,62078,1,0,0:0:0:0:
192,260,62250,5,0,0:0:0:0:
268,300,62423,2,0,P|328:312|372:300,2,87.5,0|8|0,0:0|0:0|0:0,0:0:0:0:
224,180,62940,2,0,P|152:180|120:200,2,87.5,0|0|8,0:0|0:0|0:0,0:0:0:0:
392,220,63630,5,0,0:0:0:0:
432,140,63802,2,0,P|436:100|400:44,1,87.5,0|8,0:0|0:0,0:0:0:0:
320,40,64147,2,0,L|260:32,2,43.75
264,104,64492,6,0,P|188:116|136:220,1,175
244,204,65009,2,0,B|184:224|248:320|128:340,1,175,0|8,0:0|0:0,0:0:0:0:
120,252,65526,2,0,B|80:240|80:240|116:208|116:208|56:168|48:136,1,175
36,112,65957,1,0,0:0:0:0:
36,68,66044,1,8,0:0:0:0:
188,80,66388,6,0,L|260:100,1,52.5000020027161
344,72,66733,6,0,P|384:112|384:176,1,87.5,8|0,0:0|0:0,0:0:0:0:
364,224,67078,2,0,L|348:264,2,43.75
448,204,67423,1,8,0:0:0:0:
424,288,67595,1,0,0:0:0:0:
336,304,67768,5,0,0:0:0:0:
248,312,67940,2,0,L|160:328,2,87.5,0|8|0,0:0|0:0|0:0,0:0:0:0:
148,232,68457,2,0,L|44:204,2,105.000004005432,0|0|8,0:0|0:0|0:0,0:0:0:0:
236,164,68975,2,0,L|360:128,1,105.000004005432
400,52,69319,6,0,P|444:116|432:172,1,105.000004005432,0|8,0:0|0:0,0:0:0:0:
460,244,69664,1,0,0:0:0:0:
460,244,69750,1,0,0:0:0:0:
460,244,69837,1,0,0:0:0:0:
356,228,70009,2,0,P|308:292|200:284,1,175
264,212,70526,6,0,P|216:188|204:72,1,175,0|8,0:0|0:0,0:0:0:0:
280,120,71044,1,0,0:0:0:0:
364,92,71216,2,0,B|412:88|412:88|460:100,1,87.5,2|2,0:0|0:0,0:0:0:0:
350,217,71561,2,0,B|302:221|302:221|254:209,1,87.5,10|2,0:0|0:0,0:0:0:0:
208,112,71906,6,0,P|168:143|144:196,1,105.000004005432,4|0,0:0|0:0,0:0:0:0:
286,296,72250,2,0,P|325:264|350:212,1,105.000004005432,8|0,0:0|0:0,0:0:0:0:
364,92,72595,6,0,L|376:4,2,87.5,0|0|8,0:0|0:0|0:0,0:0:0:0:
332,176,73113,1,0,0:0:0:0:
288,252,73285,1,0,0:0:0:0:
208,304,73457,2,0,P|148:328|96:324,2,87.5,0|8|0,0:0|0:0|0:0,0:0:0:0:
32,252,73975,1,0,0:0:0:0:
28,148,74147,1,0,0:0:0:0:
132,144,74319,1,8,0:0:0:0:
136,248,74492,1,0,0:0:0:0:
216,212,74664,2,0,L|176:168,1,52.5000020027161
120,100,75009,5,8,0:0:0:0:
220,68,75182,1,0,0:0:0:0:
364,56,75526,2,0,L|344:116,1,52.5000020027161,0|8,0:0|0:0,0:0:0:0:
312,196,75871,1,0,0:0:0:0:
256,192,76044,12,0,77078,0:0:0:0:
372,200,77595,6,0,B|332:240|332:240|280:260,1,87.5,2|8,0:0|0:0,0:0:0:0:
272,332,77940,2,0,P|220:288|220:240,1,87.5,2|0,0:0|0:0,0:0:0:0:
216,272,78199,1,0,0:0:0:0:
216,272,78285,1,0,0:0:0:0:
128,288,78457,6,0,P|136:224|236:184,1,175,8|0,0:0|0:0,0:0:0:0:
372,200,78975,2,0,L|328:112,1,87.5,0|8,0:0|0:0,0:0:0:0:
228,182,79319,1,0,0:0:0:0:
224,168,79406,1,0,0:0:0:0:
220,156,79492,1,0,0:0:0:0:
357,210,79664,2,0,L|313:122,1,87.5,0|8,0:0|0:0,0:0:0:0:
272,32,80009,2,0,P|220:28|160:64,1,87.5
132,208,80354,6,0,P|176:264|280:260,1,175
308,240,80785,1,0,0:0:0:0:
328,200,80871,1,0,0:0:0:0:
228,182,81044,2,0,P|272:116|376:112,1,175
328,200,81561,2,0,P|412:240|420:324,1,175,0|8,0:0|0:0,0:0:0:0:
328,292,82078,2,0,P|308:344|196:356,1,175
240,280,82595,1,8,0:0:0:0:
80,184,82940,5,0,0:0:0:0:
164,96,83113,2,0,B|200:64|200:64|256:52,1,87.5,0|8,0:0|0:0,0:0:0:0:
232,164,83457,2,0,P|312:160|348:184,1,87.5
356,184,83716,1,0,0:0:0:0:
384,220,83802,1,0,0:0:0:0:
452,288,83975,2,0,P|372:316|296:248,1,175,8|0,0:0|0:0,0:0:0:0:
143,255,84492,6,0,L|47:243,2,87.5,0|8|0,0:0|0:0|0:0,0:0:0:0:
216,344,85009,2,0,L|328:328,2,105.000004005432,0|0|8,0:0|0:0|0:0,0:0:0:0:
45,314,85526,2,0,L|61:218,1,70
48,120,85871,6,0,P|104:80|224:104,1,175
240,116,86302,1,0,0:0:0:0:
264,152,86388,1,0,0:0:0:0:
168,192,86561,2,0,P|216:244|344:224,1,175
352,140,87078,6,0,P|408:164|428:208,1,87.5
416,336,87423,1,8,0:0:0:0:
240,360,87595,2,0,B|220:320|220:320|224:260,1,87.5
264,152,87940,1,0,0:0:0:0:
264,152,88026,1,0,0:0:0:0:
264,152,88113,2,0,P|252:96|144:64,1,175,8|0,0:0|0:0,0:0:0:0:
48,80,88630,5,0,0:0:0:0:
16,28,88802,2,0,L|28:140,1,105.000004005432
44,244,89319,6,0,B|61:295|61:295|96:340,1,105.000004005432,0|8,0:0|0:0,0:0:0:0:
224,360,89664,1,0,0:0:0:0:
332,336,89837,1,0,0:0:0:0:
404,256,90009,2,0,L|436:180,1,70,0|8,0:0|0:0,0:0:0:0:
348,164,90354,5,0,0:0:0:0:
344,156,90440,1,0,0:0:0:0:
340,148,90526,1,0,0:0:0:0:
248,120,90699,2,0,P|220:72|192:60,1,70,0|8,0:0|0:0,0:0:0:0:
88,52,91044,2,0,P|104:112|132:124,1,70
40,188,91388,2,0,P|132:208|180:180,1,140
188,160,91819,1,0,0:0:0:0:
196,132,91906,1,0,0:0:0:0:
224,296,92078,6,0,P|246:212|213:137,1,140
328,164,92595,2,0,P|296:96|224:68,1,140,0|8,0:0|0:0,0:0:0:0:
312,8,93113,1,0,0:0:0:0:
176,40,93285,1,2,0:0:0:0:
108,136,93457,1,2,0:0:0:0:
92,260,93630,2,0,L|84:336,1,70,10|2,0:0|0:0,0:0:0:0:
212,328,93975,5,0,0:0:0:0:
212,328,94147,2,0,P|296:344|356:312,1,140,2|0,0:0|0:0,0:0:0:0:
456,256,94664,1,0,0:0:0:0:
456,256,94750,1,0,0:0:0:0:
456,256,94837,1,0,0:0:0:0:
368,152,95009,2,0,B|368:112|368:112|348:64|348:64|348:4,1,140,8|0,0:0|0:0,0:0:0:0:
200,112,95526,6,0,B|168:144|168:144|136:164,2,70,0|8|0,0:0|0:0|0:0,0:0:0:0:
280,160,96044,1,0,0:0:0:0:
368,80,96216,1,0,0:0:0:0:
256,52,96388,1,8,0:0:0:0:
320,120,96561,1,0,0:0:0:0:
380,208,96733,6,0,P|344:252|288:264,1,105.000004005432,0|8,0:0|0:0,0:0:0:0:
304,352,97250,2,0,P|248:336|212:280,1,105.000004005432
132,336,97768,2,0,P|124:300|132:268,1,52.5000020027161,8|0,0:0|0:0,0:0:0:0:
256,192,98113,12,0,99492,0:0:0:0:
