osu file format v14

[General]
AudioFilename: PANIC HOLIC (VIP).mp3
AudioLeadIn: 0
PreviewTime: 96553
Countdown: 0
SampleSet: Normal
StackLeniency: 0.7
Mode: 1
LetterboxInBreaks: 0
WidescreenStoryboard: 0

[Editor]
DistanceSpacing: 1.8
BeatDivisor: 4
GridSize: 4
TimelineZoom: 2.599999

[Metadata]
Title:PANIC HOLIC (VIP)
TitleUnicode:PANIC HOLIC (VIP)
Artist:C-Show
ArtistUnicode:C-Show
Creator:MMzz
Version:Inner Oni
Source:SOUND VOLTEX BOOTH
Tags:Nwolf Ayyri REFLEC BEAT colette -Summer- Akira Michi Crack Traxxxx
BeatmapID:1007802
BeatmapSetID:471504

[Difficulty]
HPDrainRate:6
CircleSize:5
OverallDifficulty:6
ApproachRate:5
SliderMultiplier:1.4
SliderTickRate:1

[Events]
//Background and Video events
0,0,"Cs.jpg",0,0
//Break Periods
//Storyboard Layer 0 (Background)
//Storyboard Layer 1 (Fail)
//Storyboard Layer 2 (Pass)
//Storyboard Layer 3 (Foreground)
//Storyboard Sound Samples

[TimingPoints]
9281,272.727272727273,4,1,0,80,1,0
15826,-111.111111111111,4,1,0,80,0,0
18008,-100,4,1,0,80,0,0
96553,-100,4,1,0,80,0,1
112917,-100,4,1,0,80,0,0
114008,-100,4,1,0,80,0,1
127099,-100,4,1,0,80,0,0
166371,-100,4,1,0,80,0,1
183826,-95.2380952380952,4,1,0,80,0,1
192553,-90.9090909090909,4,1,0,80,0,1
200871,-86.9565217391304,4,1,0,80,0,0
201212,-95.2380952380952,4,1,0,80,0,0
201553,-100,4,1,0,80,0,0

[Colours]
Combo1 : 32,143,255
Combo2 : 255,0,0

[HitObjects]
144,168,15826,5,0,0:0:0:0:
144,168,15962,1,0,0:0:0:0:
144,168,16099,1,0,0:0:0:0:
144,168,16371,1,8,0:0:0:0:
156,168,16644,1,0,0:0:0:0:
152,168,16781,1,0,0:0:0:0:
152,168,16917,1,0,0:0:0:0:
164,104,17053,1,8,0:0:0:0:
164,104,17190,1,0,0:0:0:0:
172,116,17326,1,0,0:0:0:0:
160,112,17462,1,8,0:0:0:0:
92,144,17599,1,0,0:0:0:0:
92,144,17735,1,0,0:0:0:0:
264,204,18008,5,12,0:0:0:0:
268,200,18144,1,0,0:0:0:0:
268,200,18281,1,0,0:0:0:0:
264,204,18417,1,8,0:0:0:0:
264,196,18553,1,0,0:0:0:0:
268,192,18690,1,0,0:0:0:0:
264,196,18826,1,8,0:0:0:0:
264,196,18962,1,8,0:0:0:0:
188,152,19099,1,0,0:0:0:0:
188,152,19190,1,0,0:0:0:0:
188,152,19281,1,0,0:0:0:0:
188,152,19371,1,8,0:0:0:0:
220,128,19508,1,8,0:0:0:0:
220,128,19644,1,4,0:0:0:0:
220,128,19917,1,12,0:0:0:0:
128,140,20190,1,0,0:0:0:0:
196,136,20462,1,8,0:0:0:0:
128,128,20735,1,0,0:0:0:0:
200,132,20871,1,0,0:0:0:0:
112,120,21008,1,8,0:0:0:0:
112,128,21144,1,8,0:0:0:0:
112,124,21281,1,0,0:0:0:0:
112,124,21553,1,8,0:0:0:0:
112,124,21826,1,0,0:0:0:0:
168,108,21962,1,0,0:0:0:0:
104,124,22099,1,8,0:0:0:0:
248,164,22371,1,8,0:0:0:0:
248,164,22508,1,0,0:0:0:0:
248,164,22644,1,0,0:0:0:0:
248,164,22781,1,8,0:0:0:0:
248,164,22917,1,0,0:0:0:0:
248,164,23053,1,0,0:0:0:0:
248,164,23190,1,8,0:0:0:0:
248,164,23326,1,8,0:0:0:0:
256,120,23462,1,0,0:0:0:0:
256,120,23553,1,0,0:0:0:0:
256,120,23644,1,0,0:0:0:0:
256,120,23735,1,8,0:0:0:0:
272,108,23871,1,8,0:0:0:0:
272,108,24008,1,4,0:0:0:0:
268,108,24281,1,12,0:0:0:0:
164,184,24553,1,0,0:0:0:0:
160,176,24826,1,8,0:0:0:0:
236,188,25099,1,0,0:0:0:0:
236,188,25235,1,8,0:0:0:0:
236,188,25371,1,8,0:0:0:0:
236,188,25508,1,8,0:0:0:0:
236,188,25644,1,0,0:0:0:0:
148,136,25917,1,8,0:0:0:0:
152,132,26190,1,0,0:0:0:0:
236,188,26326,1,8,0:0:0:0:
236,188,26462,1,8,0:0:0:0:
236,188,26599,1,8,0:0:0:0:
228,172,26735,1,0,0:0:0:0:
228,172,26940,1,0,0:0:0:0:
228,172,27144,1,0,0:0:0:0:
228,172,27281,1,12,0:0:0:0:
148,128,27417,1,0,0:0:0:0:
148,128,27553,1,8,0:0:0:0:
148,128,27690,1,8,0:0:0:0:
248,116,27826,1,0,0:0:0:0:
248,116,27917,1,0,0:0:0:0:
248,116,28008,1,0,0:0:0:0:
248,116,28099,1,8,0:0:0:0:
240,112,28235,1,8,0:0:0:0:
240,112,28371,1,4,0:0:0:0:
236,112,28644,1,12,0:0:0:0:
148,128,28917,1,0,0:0:0:0:
148,128,29190,1,8,0:0:0:0:
148,128,29462,1,0,0:0:0:0:
148,128,29599,1,0,0:0:0:0:
148,128,29735,1,8,0:0:0:0:
148,128,29871,1,8,0:0:0:0:
148,128,30008,1,0,0:0:0:0:
148,128,30281,1,8,0:0:0:0:
148,128,30553,1,0,0:0:0:0:
148,128,30690,1,0,0:0:0:0:
148,128,30826,1,8,0:0:0:0:
252,148,31099,1,8,0:0:0:0:
252,148,31235,1,0,0:0:0:0:
252,148,31371,1,0,0:0:0:0:
252,148,31508,1,8,0:0:0:0:
252,148,31644,1,0,0:0:0:0:
252,148,31781,1,0,0:0:0:0:
252,148,31917,1,8,0:0:0:0:
252,148,32053,1,8,0:0:0:0:
272,104,32190,1,0,0:0:0:0:
272,104,32281,1,0,0:0:0:0:
272,104,32371,1,0,0:0:0:0:
272,104,32462,1,8,0:0:0:0:
308,68,32599,1,8,0:0:0:0:
308,68,32735,1,4,0:0:0:0:
308,68,33008,1,12,0:0:0:0:
224,136,33281,1,0,0:0:0:0:
224,136,33417,1,8,0:0:0:0:
224,136,33553,1,8,0:0:0:0:
224,128,33690,1,8,0:0:0:0:
224,128,33826,1,0,0:0:0:0:
224,128,33962,1,8,0:0:0:0:
224,128,34099,1,8,0:0:0:0:
224,128,34235,1,8,0:0:0:0:
212,152,34371,1,0,0:0:0:0:
212,152,34644,1,0,0:0:0:0:
212,152,34781,1,8,0:0:0:0:
200,148,35190,1,4,0:0:0:0:
200,148,35462,1,4,0:0:0:0:
228,140,35599,1,8,0:0:0:0:
224,140,35735,1,0,0:0:0:0:
224,140,35871,1,0,0:0:0:0:
224,140,36008,1,8,0:0:0:0:
224,140,36144,1,0,0:0:0:0:
224,140,36281,1,0,0:0:0:0:
224,140,36417,1,8,0:0:0:0:
220,140,36553,1,0,0:0:0:0:
220,140,36621,1,0,0:0:0:0:
224,140,36690,1,0,0:0:0:0:
224,140,36826,1,0,0:0:0:0:
224,140,36962,1,0,0:0:0:0:
216,140,37099,1,8,0:0:0:0:
216,140,37235,1,0,0:0:0:0:
224,140,37371,1,8,0:0:0:0:
224,140,37508,1,8,0:0:0:0:
224,140,37644,1,0,0:0:0:0:
224,140,37781,1,8,0:0:0:0:
216,140,37917,1,0,0:0:0:0:
220,140,38053,1,0,0:0:0:0:
220,140,38190,1,8,0:0:0:0:
224,140,38326,1,0,0:0:0:0:
224,140,38462,1,0,0:0:0:0:
224,140,38599,1,8,0:0:0:0:
248,192,38735,1,0,0:0:0:0:
240,140,39008,1,0,0:0:0:0:
248,192,39144,1,8,0:0:0:0:
240,140,39417,1,0,0:0:0:0:
200,148,39553,1,4,0:0:0:0:
200,148,39825,1,4,0:0:0:0:
228,140,39962,1,8,0:0:0:0:
224,140,40098,1,0,0:0:0:0:
224,140,40234,1,0,0:0:0:0:
224,140,40371,1,8,0:0:0:0:
224,140,40507,1,0,0:0:0:0:
224,140,40644,1,0,0:0:0:0:
224,140,40780,1,8,0:0:0:0:
220,140,40916,1,0,0:0:0:0:
220,140,40984,1,0,0:0:0:0:
224,140,41053,1,0,0:0:0:0:
224,140,41189,1,0,0:0:0:0:
224,140,41325,1,0,0:0:0:0:
216,140,41462,1,8,0:0:0:0:
216,140,41598,1,0,0:0:0:0:
224,140,41734,1,4,0:0:0:0:
160,152,42008,1,12,0:0:0:0:
172,148,42281,1,0,0:0:0:0:
172,148,42417,1,0,0:0:0:0:
160,152,42553,1,12,0:0:0:0:
172,148,42826,1,0,0:0:0:0:
172,148,42962,1,0,0:0:0:0:
160,152,43099,1,12,0:0:0:0:
160,120,43371,1,0,0:0:0:0:
164,132,43508,1,12,0:0:0:0:
84,132,43781,1,0,0:0:0:0:
200,148,43917,1,4,0:0:0:0:
200,148,44189,1,4,0:0:0:0:
228,140,44326,1,8,0:0:0:0:
224,140,44462,1,0,0:0:0:0:
224,140,44598,1,0,0:0:0:0:
224,140,44735,1,8,0:0:0:0:
224,140,44871,1,0,0:0:0:0:
224,140,45008,1,0,0:0:0:0:
224,140,45144,1,8,0:0:0:0:
220,140,45280,1,0,0:0:0:0:
220,140,45348,1,0,0:0:0:0:
224,140,45417,1,0,0:0:0:0:
224,140,45553,1,0,0:0:0:0:
224,140,45689,1,0,0:0:0:0:
216,140,45826,1,8,0:0:0:0:
216,140,45962,1,0,0:0:0:0:
224,140,46098,1,4,0:0:0:0:
224,140,46371,1,4,0:0:0:0:
224,140,46508,1,8,0:0:0:0:
216,140,46644,1,0,0:0:0:0:
220,140,46780,1,0,0:0:0:0:
220,140,46917,1,8,0:0:0:0:
224,140,47053,1,0,0:0:0:0:
224,140,47189,1,0,0:0:0:0:
224,140,47326,1,8,0:0:0:0:
248,192,47462,1,0,0:0:0:0:
208,160,47735,1,0,0:0:0:0:
248,192,47871,1,8,0:0:0:0:
208,160,48144,1,0,0:0:0:0:
200,148,48281,1,4,0:0:0:0:
200,148,48553,1,4,0:0:0:0:
228,140,48690,1,8,0:0:0:0:
224,140,48826,1,0,0:0:0:0:
224,140,48962,1,0,0:0:0:0:
224,140,49099,1,8,0:0:0:0:
224,140,49235,1,0,0:0:0:0:
224,140,49372,1,0,0:0:0:0:
224,140,49508,1,8,0:0:0:0:
220,140,49644,1,0,0:0:0:0:
220,140,49712,1,0,0:0:0:0:
224,140,49781,1,0,0:0:0:0:
224,140,49917,1,0,0:0:0:0:
224,140,50053,1,0,0:0:0:0:
216,140,50190,1,8,0:0:0:0:
216,140,50326,1,0,0:0:0:0:
224,140,50462,1,4,0:0:0:0:
224,140,50735,1,12,0:0:0:0:
216,140,51008,1,0,0:0:0:0:
220,140,51144,1,0,0:0:0:0:
220,140,51281,1,12,0:0:0:0:
224,140,51553,1,0,0:0:0:0:
224,140,51690,1,0,0:0:0:0:
248,192,51826,1,12,0:0:0:0:
72,132,52099,1,0,0:0:0:0:
248,192,52235,1,12,0:0:0:0:
216,128,52508,1,0,0:0:0:0:
200,148,52644,1,4,0:0:0:0:
176,160,52917,1,4,0:0:0:0:
216,132,53053,1,8,0:0:0:0:
216,132,53190,1,0,0:0:0:0:
216,132,53326,1,0,0:0:0:0:
216,128,53462,1,8,0:0:0:0:
216,128,53599,1,0,0:0:0:0:
220,132,53735,1,0,0:0:0:0:
216,128,53871,1,8,0:0:0:0:
136,164,54008,1,4,0:0:0:0:
200,136,54281,1,0,0:0:0:0:
204,132,54417,1,0,0:0:0:0:
204,132,54553,1,8,0:0:0:0:
204,132,54690,1,0,0:0:0:0:
204,132,54826,1,8,0:0:0:0:
208,132,54962,1,8,0:0:0:0:
136,164,55099,1,4,0:0:0:0:
192,128,55371,1,0,0:0:0:0:
204,112,55508,1,0,0:0:0:0:
204,112,55644,1,8,0:0:0:0:
204,112,55781,1,0,0:0:0:0:
204,112,55917,1,0,0:0:0:0:
204,112,56053,1,8,0:0:0:0:
136,164,56190,1,4,0:0:0:0:
208,132,56462,1,0,0:0:0:0:
208,132,56599,1,0,0:0:0:0:
208,132,56735,1,8,0:0:0:0:
144,164,56871,1,4,0:0:0:0:
144,164,57281,1,4,0:0:0:0:
232,120,57417,1,8,0:0:0:0:
232,120,57553,1,0,0:0:0:0:
232,120,57690,1,0,0:0:0:0:
232,120,57826,1,8,0:0:0:0:
232,120,57962,1,0,0:0:0:0:
232,120,58099,1,0,0:0:0:0:
232,120,58235,1,8,0:0:0:0:
120,164,58371,1,4,0:0:0:0:
208,116,58644,1,0,0:0:0:0:
208,116,58781,1,0,0:0:0:0:
212,112,58917,1,8,0:0:0:0:
216,112,59053,1,0,0:0:0:0:
216,112,59190,1,8,0:0:0:0:
216,112,59326,1,8,0:0:0:0:
132,164,59462,1,4,0:0:0:0:
212,112,59735,1,0,0:0:0:0:
208,116,59871,1,0,0:0:0:0:
208,116,60008,1,8,0:0:0:0:
208,116,60144,1,0,0:0:0:0:
208,112,60281,1,0,0:0:0:0:
212,112,60417,1,8,0:0:0:0:
132,164,60553,1,4,0:0:0:0:
208,95,60826,1,8,0:0:0:0:
209,94,60962,1,0,0:0:0:0:
209,94,61099,1,8,0:0:0:0:
204,94,61235,1,4,0:0:0:0:
205,94,61644,1,4,0:0:0:0:
259,188,61781,1,8,0:0:0:0:
259,188,61917,1,0,0:0:0:0:
259,188,62053,1,0,0:0:0:0:
259,188,62190,1,8,0:0:0:0:
130,159,62326,1,0,0:0:0:0:
259,188,62462,1,0,0:0:0:0:
146,159,62599,1,8,0:0:0:0:
146,160,62735,1,0,0:0:0:0:
146,160,62803,1,0,0:0:0:0:
142,159,62871,1,0,0:0:0:0:
142,159,63008,1,0,0:0:0:0:
132,152,63144,1,0,0:0:0:0:
131,152,63281,1,8,0:0:0:0:
130,152,63417,1,0,0:0:0:0:
131,152,63553,1,8,0:0:0:0:
133,152,63690,1,8,0:0:0:0:
137,156,63826,1,0,0:0:0:0:
137,156,63962,1,8,0:0:0:0:
137,156,64099,1,0,0:0:0:0:
138,156,64235,1,0,0:0:0:0:
138,156,64371,1,8,0:0:0:0:
142,159,64508,1,0,0:0:0:0:
138,156,64644,1,0,0:0:0:0:
76,149,64781,1,8,0:0:0:0:
202,162,64917,1,0,0:0:0:0:
202,162,64985,1,0,0:0:0:0:
202,162,65053,1,0,0:0:0:0:
202,162,65190,1,8,0:0:0:0:
202,162,65326,1,0,0:0:0:0:
202,162,65394,1,0,0:0:0:0:
202,162,65462,1,0,0:0:0:0:
192,155,65599,1,8,0:0:0:0:
192,155,65735,1,0,0:0:0:0:
192,155,65803,1,0,0:0:0:0:
192,155,65871,1,8,0:0:0:0:
288,187,66008,5,0,0:0:0:0:
293,189,66144,1,0,0:0:0:0:
293,189,66212,1,0,0:0:0:0:
288,187,66281,1,0,0:0:0:0:
288,187,66417,1,0,0:0:0:0:
288,187,66553,1,8,0:0:0:0:
288,187,66690,1,0,0:0:0:0:
288,187,66826,1,8,0:0:0:0:
288,187,66962,1,8,0:0:0:0:
288,187,67099,1,8,0:0:0:0:
288,187,67235,1,0,0:0:0:0:
288,187,67303,1,0,0:0:0:0:
288,187,67371,1,8,0:0:0:0:
288,187,67508,1,8,0:0:0:0:
293,189,67644,1,8,0:0:0:0:
293,189,67781,1,0,0:0:0:0:
288,187,67917,1,8,0:0:0:0:
288,187,67985,1,0,0:0:0:0:
288,187,68053,1,8,0:0:0:0:
253,188,68190,5,8,0:0:0:0:
253,188,68258,1,0,0:0:0:0:
253,188,68326,1,0,0:0:0:0:
253,188,68394,1,0,0:0:0:0:
253,188,68462,1,8,0:0:0:0:
253,188,68531,1,8,0:0:0:0:
253,188,68599,1,0,0:0:0:0:
253,188,68667,1,0,0:0:0:0:
253,188,68735,1,8,0:0:0:0:
253,188,68803,1,8,0:0:0:0:
253,188,68871,1,0,0:0:0:0:
253,188,68940,1,0,0:0:0:0:
246,178,69008,1,8,0:0:0:0:
243,178,69076,1,8,0:0:0:0:
243,178,69144,1,8,0:0:0:0:
242,177,69212,1,0,0:0:0:0:
242,164,69281,5,8,0:0:0:0:
234,160,69417,1,0,0:0:0:0:
234,160,69553,1,8,0:0:0:0:
235,160,69690,1,8,0:0:0:0:
242,164,69826,1,0,0:0:0:0:
242,164,69894,1,0,0:0:0:0:
242,164,69962,1,0,0:0:0:0:
242,164,70031,1,0,0:0:0:0:
242,164,70099,1,8,0:0:0:0:
192,136,70371,5,4,0:0:0:0:
208,136,70508,1,0,0:0:0:0:
208,136,70576,1,0,0:0:0:0:
208,132,70644,1,8,0:0:0:0:
208,132,70781,1,0,0:0:0:0:
200,136,70917,1,8,0:0:0:0:
184,128,71053,1,0,0:0:0:0:
184,128,71121,1,0,0:0:0:0:
180,128,71190,1,0,0:0:0:0:
180,128,71326,1,8,0:0:0:0:
176,124,71462,1,0,0:0:0:0:
176,128,71599,1,0,0:0:0:0:
176,128,71667,1,0,0:0:0:0:
176,128,71735,1,8,0:0:0:0:
176,128,71871,1,0,0:0:0:0:
172,128,72008,1,8,0:0:0:0:
112,136,72076,1,0,0:0:0:0:
168,128,72144,1,0,0:0:0:0:
168,128,72212,1,0,0:0:0:0:
168,128,72281,1,8,0:0:0:0:
160,128,72417,1,8,0:0:0:0:
160,128,72553,1,0,0:0:0:0:
152,172,72690,1,0,0:0:0:0:
152,172,72758,1,0,0:0:0:0:
144,160,72826,1,8,0:0:0:0:
144,160,72962,1,0,0:0:0:0:
144,160,73099,1,8,0:0:0:0:
144,160,73235,1,0,0:0:0:0:
148,160,73303,1,0,0:0:0:0:
164,80,73371,1,0,0:0:0:0:
164,80,73508,1,8,0:0:0:0:
160,88,73644,1,8,0:0:0:0:
148,92,73781,1,0,0:0:0:0:
172,88,73917,1,0,0:0:0:0:
176,116,74053,1,8,0:0:0:0:
176,116,74190,1,0,0:0:0:0:
176,116,74462,1,0,0:0:0:0:
214,176,74735,1,0,0:0:0:0:
214,176,74871,1,0,0:0:0:0:
214,176,74940,1,0,0:0:0:0:
214,176,75008,1,8,0:0:0:0:
214,176,75144,1,0,0:0:0:0:
214,176,75281,1,8,0:0:0:0:
205,175,75417,1,0,0:0:0:0:
205,175,75485,1,0,0:0:0:0:
203,175,75553,1,0,0:0:0:0:
203,175,75690,1,8,0:0:0:0:
206,175,75826,1,0,0:0:0:0:
206,175,75962,1,0,0:0:0:0:
206,175,76031,1,0,0:0:0:0:
206,174,76099,1,8,0:0:0:0:
206,174,76235,1,0,0:0:0:0:
206,174,76371,1,8,0:0:0:0:
192,120,76440,1,0,0:0:0:0:
205,174,76508,1,0,0:0:0:0:
204,174,76576,1,0,0:0:0:0:
204,174,76644,1,8,0:0:0:0:
204,174,76781,1,8,0:0:0:0:
198,161,76917,1,0,0:0:0:0:
215,123,77053,1,8,0:0:0:0:
145,151,77121,1,8,0:0:0:0:
205,139,77190,1,0,0:0:0:0:
177,148,77326,1,0,0:0:0:0:
178,147,77462,1,8,0:0:0:0:
178,147,77599,1,0,0:0:0:0:
178,146,77735,1,0,0:0:0:0:
248,184,77871,1,8,0:0:0:0:
248,184,77940,1,0,0:0:0:0:
248,184,78008,1,8,0:0:0:0:
248,184,78144,1,8,0:0:0:0:
248,184,78281,1,0,0:0:0:0:
248,184,78417,1,8,0:0:0:0:
248,184,78553,1,8,0:0:0:0:
248,184,78690,1,8,0:0:0:0:
168,100,78826,1,0,0:0:0:0:
168,100,78962,1,8,0:0:0:0:
168,100,79099,1,4,0:0:0:0:
208,136,79235,1,0,0:0:0:0:
208,136,79303,1,0,0:0:0:0:
208,132,79371,1,8,0:0:0:0:
208,132,79508,1,0,0:0:0:0:
200,136,79644,1,8,0:0:0:0:
184,128,79780,1,0,0:0:0:0:
184,128,79848,1,0,0:0:0:0:
180,128,79917,1,0,0:0:0:0:
180,128,80053,1,8,0:0:0:0:
176,124,80189,1,0,0:0:0:0:
176,128,80326,1,0,0:0:0:0:
176,128,80394,1,0,0:0:0:0:
176,128,80462,1,8,0:0:0:0:
176,128,80598,1,0,0:0:0:0:
172,128,80735,1,8,0:0:0:0:
212,160,80803,1,0,0:0:0:0:
168,128,80871,1,0,0:0:0:0:
168,128,80939,1,0,0:0:0:0:
168,128,81008,1,8,0:0:0:0:
160,128,81144,1,8,0:0:0:0:
160,128,81280,1,0,0:0:0:0:
152,172,81417,1,0,0:0:0:0:
152,172,81485,1,0,0:0:0:0:
144,160,81553,1,8,0:0:0:0:
144,160,81689,1,0,0:0:0:0:
144,160,81826,1,8,0:0:0:0:
144,160,81962,1,0,0:0:0:0:
148,160,82030,1,0,0:0:0:0:
164,80,82098,1,0,0:0:0:0:
164,80,82235,1,8,0:0:0:0:
160,88,82371,1,8,0:0:0:0:
148,92,82508,1,0,0:0:0:0:
172,88,82644,1,0,0:0:0:0:
176,116,82780,1,8,0:0:0:0:
176,116,82917,1,0,0:0:0:0:
176,116,83189,1,0,0:0:0:0:
214,176,83462,1,0,0:0:0:0:
214,176,83598,1,0,0:0:0:0:
214,176,83667,1,0,0:0:0:0:
214,176,83735,1,8,0:0:0:0:
214,176,83871,1,0,0:0:0:0:
214,176,84008,1,8,0:0:0:0:
205,175,84144,1,0,0:0:0:0:
205,175,84212,1,0,0:0:0:0:
203,175,84280,1,0,0:0:0:0:
203,175,84417,1,8,0:0:0:0:
206,175,84553,1,0,0:0:0:0:
206,175,84689,1,0,0:0:0:0:
206,175,84758,1,0,0:0:0:0:
206,174,84826,1,8,0:0:0:0:
206,174,84962,1,0,0:0:0:0:
206,174,85098,1,8,0:0:0:0:
172,136,85167,1,0,0:0:0:0:
205,174,85235,1,0,0:0:0:0:
204,174,85303,1,0,0:0:0:0:
204,174,85371,1,8,0:0:0:0:
204,174,85508,1,8,0:0:0:0:
198,161,85644,1,0,0:0:0:0:
215,123,85780,1,8,0:0:0:0:
145,151,85848,1,8,0:0:0:0:
205,139,85917,1,0,0:0:0:0:
177,148,86053,1,0,0:0:0:0:
178,147,86189,1,8,0:0:0:0:
178,147,86326,1,0,0:0:0:0:
178,146,86462,1,0,0:0:0:0:
248,184,86598,1,8,0:0:0:0:
248,184,86667,1,0,0:0:0:0:
248,184,86735,1,8,0:0:0:0:
248,184,86871,1,8,0:0:0:0:
248,184,87008,1,0,0:0:0:0:
248,184,87144,1,8,0:0:0:0:
248,184,87280,5,8,0:0:0:0:
248,184,87417,1,8,0:0:0:0:
168,100,87553,1,4,0:0:0:0:
208,164,87826,5,12,0:0:0:0:
208,164,87962,1,8,0:0:0:0:
208,164,88031,1,8,0:0:0:0:
208,164,88099,1,8,0:0:0:0:
208,164,88235,1,0,0:0:0:0:
208,164,88371,1,8,0:0:0:0:
168,136,88508,1,0,0:0:0:0:
168,136,88576,1,0,0:0:0:0:
168,136,88644,1,0,0:0:0:0:
172,132,88781,1,8,0:0:0:0:
148,128,88917,1,0,0:0:0:0:
140,128,89053,1,0,0:0:0:0:
144,124,89121,1,0,0:0:0:0:
144,124,89190,1,8,0:0:0:0:
144,124,89326,1,0,0:0:0:0:
144,124,89462,1,8,0:0:0:0:
144,124,89531,1,8,0:0:0:0:
144,124,89599,1,0,0:0:0:0:
144,124,89667,1,0,0:0:0:0:
144,124,89735,1,8,0:0:0:0:
144,124,89871,1,8,0:0:0:0:
184,112,90008,1,0,0:0:0:0:
188,120,90144,1,8,0:0:0:0:
188,120,90212,1,8,0:0:0:0:
188,120,90281,1,8,0:0:0:0:
184,120,90417,1,0,0:0:0:0:
184,120,90553,1,8,0:0:0:0:
184,140,90690,1,0,0:0:0:0:
184,140,90758,1,0,0:0:0:0:
184,140,90826,1,0,0:0:0:0:
180,140,90962,1,8,0:0:0:0:
180,140,91099,1,0,0:0:0:0:
184,100,91235,1,0,0:0:0:0:
188,128,91371,1,8,0:0:0:0:
188,128,91508,1,0,0:0:0:0:
184,128,91644,1,0,0:0:0:0:
176,128,91781,1,8,0:0:0:0:
184,136,91917,1,0,0:0:0:0:
155,146,92053,1,8,0:0:0:0:
143,146,92121,1,8,0:0:0:0:
143,147,92190,1,0,0:0:0:0:
184,56,92326,1,8,0:0:0:0:
184,56,92394,1,8,0:0:0:0:
184,56,92462,1,8,0:0:0:0:
184,52,92599,1,0,0:0:0:0:
180,52,92735,1,8,0:0:0:0:
180,52,92871,1,0,0:0:0:0:
180,52,92940,1,0,0:0:0:0:
184,48,93008,1,0,0:0:0:0:
184,48,93144,1,8,0:0:0:0:
184,48,93281,1,4,0:0:0:0:
184,56,93417,1,0,0:0:0:0:
184,56,93485,1,0,0:0:0:0:
180,56,93553,1,8,0:0:0:0:
156,40,93690,1,0,0:0:0:0:
180,64,93826,1,8,0:0:0:0:
180,60,93894,1,8,0:0:0:0:
180,60,93962,1,0,0:0:0:0:
184,56,94031,1,0,0:0:0:0:
180,60,94099,1,8,0:0:0:0:
184,60,94235,1,8,0:0:0:0:
184,76,94371,1,4,0:0:0:0:
184,76,94917,1,4,0:0:0:0:
280,92,95053,1,0,0:0:0:0:
280,92,95121,1,0,0:0:0:0:
280,92,95190,1,0,0:0:0:0:
280,92,95258,1,0,0:0:0:0:
280,92,95326,1,0,0:0:0:0:
280,92,95394,1,0,0:0:0:0:
280,92,95462,1,8,0:0:0:0:
248,92,95599,1,0,0:0:0:0:
248,92,95735,1,8,0:0:0:0:
172,60,95871,1,0,0:0:0:0:
176,60,96008,1,8,0:0:0:0:
172,152,96144,1,0,0:0:0:0:
172,152,96281,1,0,0:0:0:0:
168,180,96553,5,4,0:0:0:0:
168,180,96826,1,8,0:0:0:0:
168,180,96894,1,8,0:0:0:0:
168,180,96962,1,8,0:0:0:0:
168,180,97031,1,8,0:0:0:0:
168,180,97099,1,0,0:0:0:0:
168,196,97235,1,8,0:0:0:0:
168,196,97371,1,8,0:0:0:0:
168,196,97508,1,8,0:0:0:0:
168,192,97644,1,0,0:0:0:0:
168,192,97781,1,8,0:0:0:0:
168,192,97849,1,0,0:0:0:0:
168,192,97917,1,8,0:0:0:0:
168,192,98053,1,8,0:0:0:0:
172,200,98190,1,0,0:0:0:0:
172,200,98326,1,8,0:0:0:0:
164,160,98462,1,8,0:0:0:0:
164,160,98531,1,8,0:0:0:0:
164,160,98599,1,8,0:0:0:0:
188,160,98735,1,0,0:0:0:0:
188,160,98871,1,8,0:0:0:0:
184,160,98940,1,0,0:0:0:0:
184,160,99008,1,8,0:0:0:0:
188,160,99076,1,8,0:0:0:0:
188,160,99144,1,0,0:0:0:0:
192,104,99212,1,0,0:0:0:0:
184,164,99281,1,8,0:0:0:0:
148,168,99417,1,0,0:0:0:0:
148,168,99553,1,8,0:0:0:0:
144,168,99826,1,0,0:0:0:0:
144,168,99962,1,8,0:0:0:0:
180,112,100031,1,8,0:0:0:0:
180,112,100099,1,8,0:0:0:0:
180,112,100235,1,0,0:0:0:0:
104,128,100371,1,12,0:0:0:0:
240,152,100917,5,4,0:0:0:0:
240,152,101190,1,4,0:0:0:0:
228,156,101462,1,0,0:0:0:0:
228,156,101599,1,8,0:0:0:0:
228,156,101735,1,8,0:0:0:0:
228,156,101871,1,8,0:0:0:0:
228,156,102008,1,0,0:0:0:0:
192,152,102144,1,0,0:0:0:0:
192,152,102212,1,0,0:0:0:0:
192,152,102281,1,8,0:0:0:0:
192,152,102417,1,0,0:0:0:0:
192,152,102553,1,8,0:0:0:0:
188,144,102690,1,8,0:0:0:0:
188,144,102758,1,0,0:0:0:0:
188,144,102826,1,8,0:0:0:0:
188,144,102962,1,8,0:0:0:0:
208,152,103099,1,0,0:0:0:0:
208,152,103235,1,0,0:0:0:0:
208,152,103303,1,0,0:0:0:0:
208,152,103371,1,0,0:0:0:0:
204,152,103508,1,8,0:0:0:0:
200,152,103644,1,0,0:0:0:0:
192,152,103781,1,0,0:0:0:0:
192,152,103849,1,0,0:0:0:0:
192,152,103917,1,8,0:0:0:0:
192,152,104053,1,8,0:0:0:0:
160,128,104190,1,0,0:0:0:0:
160,144,104281,1,0,0:0:0:0:
160,144,104371,1,0,0:0:0:0:
160,140,104462,1,8,0:0:0:0:
256,112,104599,1,8,0:0:0:0:
160,144,104735,1,4,0:0:0:0:
212,132,105008,1,4,0:0:0:0:
224,136,105281,1,12,0:0:0:0:
220,132,105417,1,0,0:0:0:0:
220,132,105485,1,0,0:0:0:0:
208,120,105553,1,0,0:0:0:0:
224,136,105690,1,8,0:0:0:0:
212,132,105826,1,0,0:0:0:0:
212,132,105962,1,8,0:0:0:0:
212,132,106099,1,8,0:0:0:0:
212,132,106235,1,8,0:0:0:0:
212,132,106371,1,0,0:0:0:0:
192,160,106508,1,8,0:0:0:0:
192,160,106576,1,0,0:0:0:0:
192,160,106644,1,8,0:0:0:0:
192,160,106781,1,8,0:0:0:0:
192,160,106917,1,0,0:0:0:0:
180,160,107053,1,8,0:0:0:0:
180,160,107190,1,8,0:0:0:0:
184,160,107258,1,8,0:0:0:0:
184,160,107326,1,8,0:0:0:0:
180,156,107462,1,0,0:0:0:0:
180,156,107599,1,8,0:0:0:0:
176,156,107667,1,0,0:0:0:0:
176,156,107735,1,8,0:0:0:0:
176,156,107803,1,8,0:0:0:0:
176,156,107871,1,0,0:0:0:0:
176,156,107940,1,0,0:0:0:0:
180,152,108008,1,8,0:0:0:0:
152,124,108144,1,0,0:0:0:0:
152,124,108281,1,8,0:0:0:0:
176,132,108553,1,0,0:0:0:0:
176,132,108690,1,8,0:0:0:0:
176,132,108758,1,8,0:0:0:0:
176,132,108826,1,8,0:0:0:0:
180,132,108962,1,0,0:0:0:0:
64,132,109099,1,12,0:0:0:0:
152,124,109644,5,4,0:0:0:0:
176,132,109917,1,4,0:0:0:0:
176,132,110190,1,0,0:0:0:0:
176,132,110326,1,8,0:0:0:0:
176,128,110462,1,8,0:0:0:0:
176,128,110599,1,8,0:0:0:0:
176,128,110735,1,0,0:0:0:0:
168,128,110871,1,0,0:0:0:0:
168,128,110940,1,0,0:0:0:0:
168,128,111008,1,8,0:0:0:0:
172,124,111144,1,0,0:0:0:0:
168,124,111281,1,8,0:0:0:0:
168,124,111417,1,8,0:0:0:0:
168,124,111485,1,0,0:0:0:0:
168,124,111553,1,8,0:0:0:0:
168,124,111690,1,8,0:0:0:0:
168,124,111826,1,0,0:0:0:0:
168,124,111962,1,8,0:0:0:0:
172,124,112031,1,0,0:0:0:0:
176,128,112099,1,8,0:0:0:0:
176,128,112167,1,8,0:0:0:0:
176,128,112235,1,0,0:0:0:0:
172,124,112303,1,0,0:0:0:0:
168,128,112371,1,8,0:0:0:0:
168,128,112508,1,0,0:0:0:0:
172,124,112644,1,8,0:0:0:0:
156,120,112781,1,0,0:0:0:0:
156,120,112917,1,4,0:0:0:0:
152,120,113190,1,0,0:0:0:0:
152,116,113326,1,0,0:0:0:0:
152,116,113462,1,12,0:0:0:0:
200,136,113735,1,8,0:0:0:0:
200,136,113871,1,8,0:0:0:0:
200,136,114008,1,4,0:0:0:0:
168,180,114281,1,8,0:0:0:0:
168,180,114349,1,8,0:0:0:0:
168,180,114417,1,8,0:0:0:0:
168,180,114486,1,8,0:0:0:0:
168,180,114554,1,0,0:0:0:0:
168,196,114690,1,8,0:0:0:0:
168,196,114826,1,8,0:0:0:0:
168,196,114963,1,8,0:0:0:0:
168,192,115099,1,0,0:0:0:0:
168,192,115236,1,8,0:0:0:0:
168,192,115304,1,0,0:0:0:0:
168,192,115372,1,8,0:0:0:0:
168,192,115508,1,8,0:0:0:0:
172,200,115645,1,0,0:0:0:0:
172,200,115781,1,8,0:0:0:0:
164,160,115917,1,8,0:0:0:0:
164,160,115986,1,8,0:0:0:0:
164,160,116054,1,8,0:0:0:0:
188,160,116190,1,0,0:0:0:0:
188,160,116326,1,8,0:0:0:0:
184,160,116395,1,0,0:0:0:0:
184,160,116463,1,8,0:0:0:0:
188,160,116531,1,8,0:0:0:0:
188,160,116599,1,0,0:0:0:0:
192,104,116667,1,0,0:0:0:0:
184,164,116736,1,8,0:0:0:0:
148,168,116872,1,0,0:0:0:0:
148,168,117008,1,8,0:0:0:0:
144,168,117281,1,0,0:0:0:0:
144,168,117417,1,8,0:0:0:0:
180,112,117486,1,8,0:0:0:0:
180,112,117554,1,8,0:0:0:0:
180,112,117690,1,0,0:0:0:0:
128,144,117826,1,12,0:0:0:0:
240,152,118372,5,4,0:0:0:0:
240,152,118645,1,4,0:0:0:0:
228,156,118917,1,0,0:0:0:0:
228,156,119054,1,8,0:0:0:0:
228,156,119190,1,8,0:0:0:0:
228,156,119326,1,8,0:0:0:0:
228,156,119463,1,0,0:0:0:0:
192,152,119599,1,0,0:0:0:0:
192,152,119667,1,0,0:0:0:0:
192,152,119736,1,8,0:0:0:0:
192,152,119872,1,0,0:0:0:0:
192,152,120008,1,8,0:0:0:0:
188,144,120145,1,8,0:0:0:0:
188,144,120213,1,0,0:0:0:0:
188,144,120281,1,8,0:0:0:0:
188,144,120417,1,8,0:0:0:0:
208,152,120554,1,0,0:0:0:0:
136,128,120690,1,8,0:0:0:0:
136,128,120758,1,0,0:0:0:0:
136,128,120826,1,8,0:0:0:0:
136,128,120894,1,8,0:0:0:0:
136,128,120962,1,0,0:0:0:0:
136,128,121031,1,0,0:0:0:0:
136,128,121099,1,8,0:0:0:0:
136,128,121235,1,0,0:0:0:0:
136,128,121371,1,8,0:0:0:0:
136,128,121508,1,0,0:0:0:0:
128,132,121644,1,0,0:0:0:0:
124,128,121917,1,0,0:0:0:0:
120,128,122053,1,0,0:0:0:0:
224,132,122121,1,0,0:0:0:0:
120,128,122190,1,8,0:0:0:0:
120,128,122326,1,0,0:0:0:0:
120,128,122462,1,8,0:0:0:0:
120,128,122599,1,8,0:0:0:0:
224,136,122736,1,4,0:0:0:0:
220,132,122872,1,0,0:0:0:0:
220,132,122940,1,0,0:0:0:0:
208,120,123008,1,0,0:0:0:0:
224,136,123145,1,8,0:0:0:0:
212,132,123281,1,0,0:0:0:0:
212,132,123417,1,8,0:0:0:0:
212,132,123554,1,8,0:0:0:0:
212,132,123690,1,8,0:0:0:0:
212,132,123826,1,0,0:0:0:0:
192,160,123963,1,8,0:0:0:0:
192,160,124031,1,0,0:0:0:0:
192,160,124099,1,8,0:0:0:0:
192,160,124236,1,8,0:0:0:0:
192,160,124372,1,0,0:0:0:0:
180,160,124508,1,8,0:0:0:0:
180,160,124645,1,8,0:0:0:0:
184,160,124713,1,8,0:0:0:0:
184,160,124781,1,8,0:0:0:0:
180,156,124917,1,0,0:0:0:0:
180,156,125054,1,8,0:0:0:0:
176,156,125122,1,0,0:0:0:0:
176,156,125190,1,8,0:0:0:0:
176,156,125258,1,8,0:0:0:0:
176,156,125326,1,0,0:0:0:0:
176,156,125395,1,0,0:0:0:0:
180,152,125463,1,8,0:0:0:0:
152,124,125599,1,0,0:0:0:0:
152,124,125736,1,8,0:0:0:0:
176,132,126008,1,0,0:0:0:0:
176,132,126145,1,8,0:0:0:0:
176,132,126281,1,0,0:0:0:0:
180,132,126417,1,0,0:0:0:0:
164,120,126553,1,12,0:0:0:0:
132,164,126962,1,8,0:0:0:0:
152,124,127099,5,4,0:0:0:0:
140,156,127371,1,4,0:0:0:0:
140,156,127644,1,0,0:0:0:0:
140,156,127781,1,8,0:0:0:0:
140,156,127917,1,0,0:0:0:0:
140,156,128053,1,8,0:0:0:0:
140,156,128190,1,4,0:0:0:0:
140,156,128462,1,4,0:0:0:0:
208,110,128735,1,8,0:0:0:0:
208,110,128871,1,8,0:0:0:0:
208,110,129008,1,8,0:0:0:0:
208,110,129144,1,8,0:0:0:0:
179,189,129281,1,0,0:0:0:0:
100,152,129417,1,8,0:0:0:0:
100,152,129485,1,0,0:0:0:0:
100,152,129553,1,8,0:0:0:0:
100,152,129621,1,8,0:0:0:0:
100,152,129690,1,0,0:0:0:0:
137,113,129758,1,0,0:0:0:0:
178,109,129826,1,8,0:0:0:0:
178,109,129962,1,0,0:0:0:0:
178,109,130099,1,0,0:0:0:0:
178,109,130235,1,0,0:0:0:0:
179,175,130371,1,8,0:0:0:0:
179,175,130440,1,8,0:0:0:0:
179,175,130508,1,0,0:0:0:0:
175,168,130576,1,0,0:0:0:0:
175,168,130644,1,8,0:0:0:0:
175,168,130712,1,0,0:0:0:0:
194,83,130781,1,8,0:0:0:0:
194,83,130849,1,8,0:0:0:0:
194,83,130917,1,0,0:0:0:0:
177,86,130985,1,0,0:0:0:0:
177,86,131053,1,8,0:0:0:0:
177,86,131121,1,0,0:0:0:0:
178,86,131190,1,8,0:0:0:0:
90,173,131462,1,4,0:0:0:0:
259,141,131599,1,0,0:0:0:0:
259,141,131667,1,0,0:0:0:0:
259,141,131735,1,8,0:0:0:0:
260,135,131871,1,0,0:0:0:0:
287,136,132144,1,0,0:0:0:0:
285,136,132281,1,8,0:0:0:0:
285,136,132417,1,0,0:0:0:0:
242,83,132690,1,0,0:0:0:0:
242,83,132826,1,8,0:0:0:0:
242,83,132962,1,0,0:0:0:0:
242,83,133099,1,0,0:0:0:0:
242,83,133235,1,0,0:0:0:0:
300,164,133371,1,12,0:0:0:0:
300,164,133644,1,4,0:0:0:0:
215,94,133781,1,0,0:0:0:0:
216,94,133849,1,0,0:0:0:0:
217,94,133917,1,8,0:0:0:0:
219,94,134053,1,0,0:0:0:0:
178,121,134326,1,0,0:0:0:0:
178,121,134462,1,8,0:0:0:0:
178,121,134599,1,0,0:0:0:0:
300,164,134735,1,12,0:0:0:0:
149,130,134871,1,0,0:0:0:0:
149,130,135008,1,0,0:0:0:0:
300,164,135144,1,12,0:0:0:0:
166,136,135417,1,0,0:0:0:0:
300,164,135553,1,12,0:0:0:0:
300,164,135826,1,4,0:0:0:0:
186,118,135962,1,0,0:0:0:0:
178,121,136031,1,0,0:0:0:0:
178,121,136099,1,8,0:0:0:0:
182,117,136235,1,0,0:0:0:0:
183,116,136508,1,0,0:0:0:0:
184,116,136644,1,8,0:0:0:0:
182,116,136781,1,0,0:0:0:0:
177,117,137053,1,0,0:0:0:0:
177,117,137190,1,8,0:0:0:0:
177,117,137326,1,0,0:0:0:0:
175,116,137462,1,0,0:0:0:0:
178,121,137599,1,0,0:0:0:0:
174,116,137735,1,12,0:0:0:0:
174,116,138008,1,4,0:0:0:0:
174,116,138144,1,0,0:0:0:0:
172,116,138212,1,0,0:0:0:0:
172,116,138281,1,8,0:0:0:0:
177,117,138417,1,0,0:0:0:0:
177,117,138690,1,0,0:0:0:0:
177,117,138826,1,8,0:0:0:0:
175,116,138962,1,0,0:0:0:0:
178,121,139099,1,12,0:0:0:0:
174,116,139235,1,0,0:0:0:0:
174,116,139371,1,12,0:0:0:0:
174,116,139508,1,0,0:0:0:0:
172,116,139781,1,12,0:0:0:0:
233,180,140190,1,4,0:0:0:0:
233,180,140326,1,0,0:0:0:0:
233,180,140394,1,0,0:0:0:0:
233,180,140462,1,8,0:0:0:0:
233,180,140599,1,0,0:0:0:0:
233,180,140735,1,8,0:0:0:0:
225,178,141008,1,8,0:0:0:0:
224,178,141144,1,0,0:0:0:0:
222,178,141281,1,8,0:0:0:0:
222,178,141417,1,8,0:0:0:0:
222,178,141553,1,0,0:0:0:0:
222,178,141690,1,0,0:0:0:0:
221,177,141826,1,8,0:0:0:0:
215,165,141962,1,0,0:0:0:0:
214,165,142099,1,12,0:0:0:0:
214,165,142371,1,4,0:0:0:0:
221,184,142508,1,0,0:0:0:0:
219,182,142576,1,0,0:0:0:0:
224,178,142644,1,8,0:0:0:0:
220,158,142781,1,0,0:0:0:0:
219,158,142917,1,8,0:0:0:0:
219,158,143053,1,8,0:0:0:0:
219,158,143190,1,8,0:0:0:0:
227,156,143326,1,0,0:0:0:0:
227,156,143462,1,12,0:0:0:0:
219,153,143599,1,0,0:0:0:0:
216,148,143735,1,0,0:0:0:0:
219,148,143871,1,12,0:0:0:0:
222,150,144144,1,0,0:0:0:0:
224,150,144281,1,12,0:0:0:0:
222,149,144553,1,4,0:0:0:0:
208,149,144690,1,0,0:0:0:0:
207,149,144758,1,0,0:0:0:0:
208,149,144826,1,8,0:0:0:0:
209,149,144962,1,0,0:0:0:0:
210,149,145099,1,8,0:0:0:0:
177,133,145371,1,8,0:0:0:0:
177,133,145508,1,0,0:0:0:0:
177,133,145644,1,8,0:0:0:0:
177,133,145781,1,8,0:0:0:0:
177,133,145917,1,0,0:0:0:0:
182,132,146053,1,0,0:0:0:0:
134,138,146190,1,8,0:0:0:0:
177,133,146326,1,0,0:0:0:0:
177,133,146462,1,12,0:0:0:0:
177,133,146735,1,4,0:0:0:0:
191,137,146871,1,0,0:0:0:0:
189,136,146940,1,0,0:0:0:0:
185,136,147008,1,8,0:0:0:0:
167,61,147144,1,0,0:0:0:0:
167,61,147281,1,8,0:0:0:0:
167,61,147417,1,8,0:0:0:0:
167,61,147553,1,8,0:0:0:0:
167,61,147690,1,0,0:0:0:0:
164,90,147826,1,12,0:0:0:0:
166,90,147962,1,0,0:0:0:0:
167,90,148099,1,12,0:0:0:0:
168,89,148235,1,0,0:0:0:0:
168,89,148508,1,12,0:0:0:0:
166,142,148917,1,4,0:0:0:0:
166,142,149053,1,0,0:0:0:0:
172,141,149121,1,0,0:0:0:0:
172,141,149190,1,8,0:0:0:0:
172,141,149326,1,0,0:0:0:0:
172,141,149462,1,8,0:0:0:0:
188,150,149599,1,0,0:0:0:0:
189,150,149667,1,0,0:0:0:0:
188,150,149735,1,8,0:0:0:0:
195,148,149871,1,0,0:0:0:0:
226,134,150008,1,8,0:0:0:0:
226,134,150144,1,8,0:0:0:0:
226,134,150281,1,0,0:0:0:0:
226,134,150417,1,0,0:0:0:0:
226,134,150553,1,8,0:0:0:0:
231,135,150690,1,0,0:0:0:0:
226,134,150826,1,12,0:0:0:0:
226,134,151099,1,4,0:0:0:0:
234,135,151235,1,0,0:0:0:0:
236,135,151303,1,0,0:0:0:0:
236,135,151371,1,8,0:0:0:0:
235,135,151508,1,0,0:0:0:0:
234,135,151644,1,8,0:0:0:0:
234,135,151712,1,8,0:0:0:0:
234,135,151781,1,0,0:0:0:0:
234,135,151917,1,8,0:0:0:0:
220,131,152053,1,0,0:0:0:0:
211,131,152190,1,12,0:0:0:0:
212,130,152326,1,0,0:0:0:0:
212,130,152462,1,0,0:0:0:0:
212,131,152599,1,12,0:0:0:0:
199,127,152871,1,0,0:0:0:0:
198,127,153008,1,12,0:0:0:0:
198,127,153281,1,4,0:0:0:0:
237,124,153417,1,0,0:0:0:0:
237,124,153485,1,0,0:0:0:0:
237,124,153553,1,8,0:0:0:0:
237,124,153690,1,0,0:0:0:0:
235,124,153826,1,8,0:0:0:0:
227,123,153894,1,0,0:0:0:0:
227,123,153962,1,0,0:0:0:0:
233,101,154031,1,0,0:0:0:0:
227,123,154099,1,8,0:0:0:0:
214,112,154235,1,8,0:0:0:0:
217,112,154303,1,8,0:0:0:0:
219,112,154371,1,0,0:0:0:0:
219,108,154508,1,0,0:0:0:0:
219,108,154576,1,0,0:0:0:0:
219,108,154644,1,8,0:0:0:0:
219,108,154781,1,0,0:0:0:0:
205,106,154917,1,8,0:0:0:0:
211,102,154985,1,8,0:0:0:0:
211,101,155053,1,0,0:0:0:0:
213,101,155190,1,12,0:0:0:0:
213,101,155462,1,4,0:0:0:0:
217,108,155599,1,0,0:0:0:0:
218,108,155667,1,0,0:0:0:0:
218,108,155735,1,8,0:0:0:0:
217,112,155871,1,0,0:0:0:0:
219,108,156008,1,8,0:0:0:0:
188,164,156076,1,8,0:0:0:0:
219,108,156144,1,0,0:0:0:0:
219,108,156212,1,0,0:0:0:0:
219,108,156281,1,8,0:0:0:0:
221,103,156417,1,0,0:0:0:0:
207,95,156553,1,12,0:0:0:0:
207,94,156690,1,0,0:0:0:0:
202,95,156826,1,12,0:0:0:0:
202,95,156962,1,0,0:0:0:0:
207,95,157235,1,12,0:0:0:0:
232,142,157644,1,4,0:0:0:0:
185,143,157781,1,0,0:0:0:0:
185,143,157917,1,8,0:0:0:0:
185,143,158053,1,0,0:0:0:0:
185,143,158121,1,8,0:0:0:0:
185,143,158190,1,0,0:0:0:0:
185,143,158326,1,0,0:0:0:0:
185,143,158462,1,8,0:0:0:0:
185,143,158599,1,0,0:0:0:0:
232,142,158735,1,4,0:0:0:0:
180,136,158871,1,0,0:0:0:0:
180,136,159008,1,8,0:0:0:0:
175,136,159144,1,8,0:0:0:0:
175,136,159212,1,8,0:0:0:0:
176,136,159281,1,0,0:0:0:0:
177,136,159417,1,0,0:0:0:0:
214,135,159553,1,8,0:0:0:0:
214,135,159621,1,8,0:0:0:0:
216,135,159690,1,8,0:0:0:0:
225,131,159826,1,4,0:0:0:0:
90,141,159962,1,0,0:0:0:0:
90,141,160099,1,8,0:0:0:0:
90,141,160235,1,0,0:0:0:0:
90,141,160303,1,8,0:0:0:0:
90,141,160371,1,0,0:0:0:0:
90,141,160508,1,0,0:0:0:0:
90,141,160644,1,8,0:0:0:0:
90,141,160781,1,0,0:0:0:0:
225,131,160917,1,4,0:0:0:0:
202,93,161053,1,0,0:0:0:0:
207,94,161121,1,0,0:0:0:0:
208,94,161190,1,8,0:0:0:0:
208,94,161326,1,0,0:0:0:0:
200,140,161462,1,8,0:0:0:0:
214,132,161599,1,4,0:0:0:0:
200,140,161871,1,0,0:0:0:0:
213,132,162008,1,4,0:0:0:0:
206,138,162281,1,8,0:0:0:0:
207,137,162349,1,8,0:0:0:0:
207,137,162417,1,8,0:0:0:0:
208,137,162553,1,4,0:0:0:0:
204,137,162826,1,8,0:0:0:0:
203,137,162894,1,0,0:0:0:0:
207,136,162962,1,8,0:0:0:0:
208,136,163099,1,4,0:0:0:0:
197,134,163371,1,0,0:0:0:0:
197,134,163644,1,4,0:0:0:0:
185,137,163917,1,12,0:0:0:0:
184,137,164190,1,4,0:0:0:0:
204,155,164326,1,0,0:0:0:0:
204,156,164394,1,0,0:0:0:0:
205,156,164462,1,8,0:0:0:0:
207,156,164599,1,0,0:0:0:0:
206,156,164735,1,8,0:0:0:0:
206,156,164871,1,0,0:0:0:0:
208,156,164940,1,0,0:0:0:0:
209,155,165008,1,8,0:0:0:0:
209,155,165144,1,0,0:0:0:0:
194,145,165281,1,8,0:0:0:0:
194,145,165417,1,8,0:0:0:0:
195,145,165485,1,0,0:0:0:0:
198,144,165553,1,8,0:0:0:0:
199,144,165690,1,8,0:0:0:0:
231,148,165826,1,0,0:0:0:0:
231,148,165894,1,0,0:0:0:0:
231,148,165962,1,0,0:0:0:0:
185,137,166031,1,0,0:0:0:0:
104,150,166099,1,8,0:0:0:0:
203,141,166371,1,12,0:0:0:0:
203,140,166508,1,0,0:0:0:0:
203,140,166576,1,0,0:0:0:0:
203,140,166644,1,0,0:0:0:0:
207,140,166781,1,8,0:0:0:0:
207,140,166917,1,0,0:0:0:0:
207,140,167053,1,0,0:0:0:0:
207,140,167121,1,0,0:0:0:0:
207,139,167190,1,8,0:0:0:0:
208,138,167326,1,8,0:0:0:0:
208,137,167462,1,0,0:0:0:0:
208,137,167599,1,8,0:0:0:0:
208,137,167667,1,0,0:0:0:0:
209,137,167735,1,8,0:0:0:0:
213,136,167871,1,0,0:0:0:0:
214,136,168008,1,8,0:0:0:0:
214,136,168144,1,8,0:0:0:0:
215,135,168212,1,8,0:0:0:0:
215,135,168281,1,0,0:0:0:0:
214,135,168417,1,0,0:0:0:0:
214,135,168553,1,8,0:0:0:0:
238,137,168690,1,0,0:0:0:0:
229,133,168758,1,0,0:0:0:0:
229,133,168826,1,0,0:0:0:0:
230,133,168962,1,8,0:0:0:0:
230,133,169099,1,0,0:0:0:0:
230,133,169235,1,0,0:0:0:0:
232,133,169303,1,0,0:0:0:0:
233,133,169371,1,8,0:0:0:0:
233,133,169508,1,0,0:0:0:0:
263,182,169644,1,8,0:0:0:0:
263,182,169781,1,8,0:0:0:0:
263,182,169917,1,0,0:0:0:0:
263,182,170053,1,8,0:0:0:0:
263,182,170190,1,0,0:0:0:0:
263,182,170462,1,0,0:0:0:0:
187,178,170735,1,8,0:0:0:0:
241,149,170871,1,0,0:0:0:0:
240,149,170940,1,0,0:0:0:0:
240,149,171008,1,0,0:0:0:0:
241,149,171144,1,8,0:0:0:0:
241,149,171281,1,0,0:0:0:0:
241,149,171417,1,0,0:0:0:0:
241,149,171485,1,0,0:0:0:0:
241,149,171553,1,8,0:0:0:0:
241,149,171690,1,8,0:0:0:0:
241,149,171826,1,0,0:0:0:0:
241,149,171962,1,8,0:0:0:0:
241,149,172031,1,0,0:0:0:0:
241,149,172099,1,8,0:0:0:0:
241,149,172235,1,0,0:0:0:0:
231,120,172371,1,8,0:0:0:0:
231,120,172508,1,8,0:0:0:0:
231,120,172576,1,8,0:0:0:0:
231,120,172644,1,0,0:0:0:0:
261,187,172781,1,8,0:0:0:0:
261,187,172917,1,8,0:0:0:0:
261,187,173053,1,8,0:0:0:0:
261,187,173190,1,0,0:0:0:0:
238,141,173258,1,0,0:0:0:0:
234,142,173326,1,8,0:0:0:0:
235,142,173462,1,0,0:0:0:0:
238,141,173599,1,8,0:0:0:0:
212,86,173667,1,0,0:0:0:0:
212,86,173735,1,8,0:0:0:0:
212,86,173871,1,0,0:0:0:0:
253,186,174008,1,8,0:0:0:0:
254,185,174144,1,8,0:0:0:0:
248,184,174281,1,0,0:0:0:0:
251,182,174417,1,8,0:0:0:0:
251,182,174553,1,8,0:0:0:0:
253,181,174690,1,4,0:0:0:0:
203,141,175099,1,12,0:0:0:0:
203,140,175236,1,0,0:0:0:0:
203,140,175304,1,0,0:0:0:0:
203,140,175372,1,0,0:0:0:0:
207,140,175509,1,8,0:0:0:0:
207,140,175645,1,0,0:0:0:0:
207,140,175781,1,0,0:0:0:0:
207,140,175849,1,0,0:0:0:0:
207,139,175918,1,8,0:0:0:0:
208,138,176054,1,8,0:0:0:0:
208,137,176190,1,0,0:0:0:0:
208,137,176327,1,8,0:0:0:0:
208,137,176395,1,0,0:0:0:0:
209,137,176463,1,8,0:0:0:0:
213,136,176599,1,0,0:0:0:0:
214,136,176736,1,8,0:0:0:0:
214,136,176872,1,8,0:0:0:0:
215,135,176940,1,8,0:0:0:0:
215,135,177009,1,0,0:0:0:0:
214,135,177145,1,0,0:0:0:0:
214,135,177281,1,8,0:0:0:0:
238,137,177418,1,0,0:0:0:0:
229,133,177486,1,0,0:0:0:0:
229,133,177554,1,0,0:0:0:0:
230,133,177690,1,8,0:0:0:0:
230,133,177827,1,0,0:0:0:0:
230,133,177963,1,0,0:0:0:0:
232,133,178031,1,0,0:0:0:0:
233,133,178099,1,8,0:0:0:0:
233,133,178236,1,0,0:0:0:0:
263,182,178372,1,8,0:0:0:0:
263,182,178509,1,8,0:0:0:0:
263,182,178645,1,0,0:0:0:0:
263,182,178781,1,8,0:0:0:0:
263,182,178918,1,0,0:0:0:0:
263,182,179190,1,0,0:0:0:0:
187,178,179463,1,8,0:0:0:0:
241,149,179599,1,0,0:0:0:0:
240,149,179668,1,0,0:0:0:0:
240,149,179736,1,0,0:0:0:0:
241,149,179872,1,8,0:0:0:0:
241,149,180009,1,0,0:0:0:0:
241,149,180145,1,0,0:0:0:0:
241,149,180213,1,0,0:0:0:0:
241,149,180281,1,8,0:0:0:0:
241,149,180418,1,8,0:0:0:0:
241,149,180554,1,0,0:0:0:0:
241,149,180690,1,8,0:0:0:0:
241,149,180759,1,0,0:0:0:0:
241,149,180827,1,8,0:0:0:0:
241,149,180962,1,0,0:0:0:0:
231,120,181099,1,8,0:0:0:0:
231,120,181236,1,8,0:0:0:0:
231,120,181304,1,8,0:0:0:0:
231,120,181372,1,0,0:0:0:0:
261,187,181509,1,8,0:0:0:0:
261,187,181645,1,8,0:0:0:0:
261,187,181781,1,8,0:0:0:0:
261,187,181918,1,0,0:0:0:0:
238,141,181985,1,0,0:0:0:0:
234,142,182054,1,8,0:0:0:0:
235,142,182190,1,0,0:0:0:0:
238,141,182327,1,8,0:0:0:0:
212,86,182395,1,0,0:0:0:0:
212,86,182463,1,8,0:0:0:0:
212,86,182599,1,0,0:0:0:0:
253,186,182736,1,8,0:0:0:0:
254,185,182872,1,8,0:0:0:0:
248,184,183009,1,0,0:0:0:0:
251,182,183145,1,8,0:0:0:0:
251,182,183281,1,8,0:0:0:0:
253,181,183418,1,4,0:0:0:0:
203,141,183826,1,12,0:0:0:0:
203,140,183963,1,0,0:0:0:0:
203,140,184031,1,0,0:0:0:0:
203,140,184099,1,0,0:0:0:0:
207,140,184236,1,8,0:0:0:0:
207,140,184372,1,0,0:0:0:0:
158,116,184440,1,0,0:0:0:0:
207,140,184508,1,0,0:0:0:0:
207,140,184576,1,0,0:0:0:0:
207,139,184645,1,8,0:0:0:0:
208,138,184781,1,8,0:0:0:0:
208,137,184917,1,0,0:0:0:0:
208,137,185054,1,8,0:0:0:0:
208,137,185122,1,8,0:0:0:0:
209,137,185190,1,0,0:0:0:0:
213,136,185326,1,8,0:0:0:0:
214,136,185463,1,8,0:0:0:0:
119,123,185531,1,8,0:0:0:0:
214,136,185599,1,0,0:0:0:0:
215,135,185667,1,0,0:0:0:0:
215,135,185736,1,8,0:0:0:0:
214,135,185872,1,0,0:0:0:0:
214,135,186008,1,8,0:0:0:0:
238,137,186145,1,0,0:0:0:0:
229,133,186213,1,0,0:0:0:0:
229,133,186281,1,0,0:0:0:0:
230,133,186417,1,8,0:0:0:0:
230,133,186554,1,0,0:0:0:0:
212,129,186621,1,0,0:0:0:0:
230,133,186690,1,0,0:0:0:0:
232,133,186758,1,0,0:0:0:0:
233,133,186826,1,8,0:0:0:0:
233,133,186963,1,0,0:0:0:0:
263,182,187099,1,8,0:0:0:0:
263,182,187236,1,8,0:0:0:0:
263,182,187372,1,0,0:0:0:0:
263,182,187508,1,8,0:0:0:0:
263,182,187645,1,0,0:0:0:0:
263,182,187917,1,0,0:0:0:0:
187,178,188190,1,8,0:0:0:0:
241,149,188326,1,0,0:0:0:0:
240,149,188395,1,0,0:0:0:0:
240,149,188463,1,0,0:0:0:0:
241,149,188599,1,8,0:0:0:0:
241,149,188736,1,0,0:0:0:0:
195,139,188803,1,0,0:0:0:0:
241,149,188872,1,0,0:0:0:0:
241,149,188940,1,0,0:0:0:0:
241,149,189008,1,8,0:0:0:0:
241,149,189145,1,8,0:0:0:0:
241,149,189281,1,0,0:0:0:0:
241,149,189417,1,8,0:0:0:0:
241,149,189486,1,8,0:0:0:0:
241,149,189554,1,0,0:0:0:0:
241,149,189690,1,8,0:0:0:0:
231,120,189826,1,8,0:0:0:0:
216,114,189894,1,8,0:0:0:0:
231,120,189962,1,0,0:0:0:0:
231,120,190031,1,0,0:0:0:0:
231,120,190099,1,8,0:0:0:0:
261,187,190235,1,0,0:0:0:0:
261,187,190372,1,8,0:0:0:0:
261,187,190508,1,8,0:0:0:0:
261,187,190645,1,0,0:0:0:0:
238,141,190712,1,0,0:0:0:0:
234,142,190781,1,8,0:0:0:0:
235,142,190917,1,0,0:0:0:0:
207,106,190985,1,0,0:0:0:0:
238,141,191054,1,8,0:0:0:0:
212,86,191122,1,0,0:0:0:0:
212,86,191190,1,8,0:0:0:0:
212,86,191326,1,0,0:0:0:0:
253,186,191463,1,8,0:0:0:0:
254,185,191599,1,8,0:0:0:0:
176,110,191667,1,8,0:0:0:0:
248,184,191736,1,0,0:0:0:0:
251,182,191872,1,8,0:0:0:0:
251,182,192008,1,8,0:0:0:0:
253,181,192145,1,4,0:0:0:0:
203,141,192553,1,12,0:0:0:0:
203,140,192690,1,0,0:0:0:0:
203,140,192758,1,0,0:0:0:0:
203,140,192826,1,0,0:0:0:0:
207,140,192963,1,8,0:0:0:0:
207,140,193099,1,0,0:0:0:0:
193,91,193167,1,0,0:0:0:0:
207,140,193235,1,0,0:0:0:0:
207,140,193303,1,0,0:0:0:0:
207,139,193372,1,8,0:0:0:0:
208,138,193508,1,8,0:0:0:0:
208,137,193644,1,0,0:0:0:0:
208,137,193781,1,8,0:0:0:0:
208,137,193849,1,0,0:0:0:0:
209,137,193917,1,8,0:0:0:0:
166,131,193985,1,8,0:0:0:0:
213,136,194053,1,0,0:0:0:0:
214,136,194190,1,8,0:0:0:0:
102,146,194258,1,8,0:0:0:0:
102,146,194326,1,0,0:0:0:0:
102,146,194394,1,0,0:0:0:0:
215,135,194463,1,8,0:0:0:0:
214,135,194599,1,0,0:0:0:0:
214,135,194735,1,8,0:0:0:0:
238,137,194872,1,0,0:0:0:0:
229,133,194940,1,0,0:0:0:0:
229,133,195008,1,0,0:0:0:0:
230,133,195144,1,8,0:0:0:0:
230,133,195281,1,0,0:0:0:0:
230,133,195349,1,0,0:0:0:0:
232,133,195417,1,8,0:0:0:0:
233,133,195485,1,0,0:0:0:0:
274,112,195553,1,8,0:0:0:0:
233,133,195690,1,0,0:0:0:0:
263,182,195826,1,8,0:0:0:0:
263,182,195963,1,8,0:0:0:0:
263,182,196099,1,0,0:0:0:0:
263,182,196235,1,8,0:0:0:0:
263,182,196372,1,0,0:0:0:0:
263,182,196644,1,0,0:0:0:0:
187,178,196917,1,12,0:0:0:0:
241,149,197053,1,0,0:0:0:0:
240,149,197122,1,0,0:0:0:0:
240,149,197190,1,0,0:0:0:0:
241,149,197326,1,8,0:0:0:0:
241,149,197463,1,0,0:0:0:0:
192,129,197531,1,0,0:0:0:0:
241,149,197599,1,0,0:0:0:0:
241,149,197667,1,0,0:0:0:0:
241,149,197735,1,8,0:0:0:0:
241,149,197872,1,8,0:0:0:0:
241,149,198008,1,0,0:0:0:0:
241,149,198144,1,8,0:0:0:0:
241,149,198213,1,0,0:0:0:0:
241,149,198281,1,8,0:0:0:0:
191,134,198349,1,8,0:0:0:0:
241,149,198417,1,0,0:0:0:0:
231,120,198553,1,8,0:0:0:0:
191,85,198621,1,8,0:0:0:0:
231,120,198690,1,0,0:0:0:0:
231,120,198758,1,0,0:0:0:0:
231,120,198826,1,8,0:0:0:0:
261,187,198963,1,0,0:0:0:0:
261,187,199099,1,8,0:0:0:0:
261,187,199235,1,8,0:0:0:0:
261,187,199372,1,0,0:0:0:0:
238,141,199440,1,0,0:0:0:0:
234,142,199508,1,8,0:0:0:0:
235,142,199644,1,0,0:0:0:0:
184,103,199712,1,0,0:0:0:0:
238,141,199781,1,8,0:0:0:0:
212,86,199849,1,0,0:0:0:0:
212,86,199917,1,8,0:0:0:0:
212,86,200053,1,0,0:0:0:0:
109,132,200190,1,8,0:0:0:0:
109,132,200258,1,8,0:0:0:0:
109,132,200326,1,8,0:0:0:0:
109,132,200394,1,0,0:0:0:0:
116,132,200462,1,8,0:0:0:0:
116,132,200531,1,8,0:0:0:0:
120,132,200599,1,0,0:0:0:0:
120,132,200667,1,0,0:0:0:0:
120,132,200735,1,8,0:0:0:0:
119,132,200871,1,4,0:0:0:0:
119,132,201281,1,4,0:0:0:0:
204,124,201553,1,8,0:0:0:0:
204,124,201826,1,8,0:0:0:0:
204,124,202099,1,8,0:0:0:0:
220,136,202235,1,0,0:0:0:0:
204,124,202371,1,8,0:0:0:0:
224,136,202508,1,0,0:0:0:0:
204,124,202644,1,8,0:0:0:0:
196,132,202917,1,8,0:0:0:0:
251,150,203053,1,4,0:0:0:0:
251,150,203462,1,4,0:0:0:0:
