osu file format v14

[General]
AudioFilename: C-Show - On the FM.mp3
AudioLeadIn: 0
PreviewTime: 60736
Countdown: 0
SampleSet: Soft
StackLeniency: 0.7
Mode: 3
LetterboxInBreaks: 0
SpecialStyle: 0
WidescreenStoryboard: 0

[Editor]
Bookmarks: 102436
DistanceSpacing: 1
BeatDivisor: 4
GridSize: 4
TimelineZoom: 2.200001

[Metadata]
Title:On the FM
TitleUnicode:On the FM
Artist:C-Show
ArtistUnicode:C-Show
Creator:YaHao
Version:4K Shaking!!
Source:beatmania IIDX 23 copula
Tags:Kawawa Feerum Raymond Kuo Kyoka KONAMI BEMANI Kaitsuu! Tokotoko line
BeatmapID:1125596
BeatmapSetID:531090

[Difficulty]
HPDrainRate:8.5
CircleSize:4
OverallDifficulty:8.5
ApproachRate:5
SliderMultiplier:1.4
SliderTickRate:1

[Events]
//Background and Video events
0,0,"59711343.png",0,0
//Break Periods
//Storyboard Layer 0 (Background)
//Storyboard Layer 1 (Fail)
//Storyboard Layer 2 (Pass)
//Storyboard Layer 3 (Foreground)
//Storyboard Sound Samples

[TimingPoints]
1036,300,4,2,1,50,1,0
7336,-200,4,2,1,50,0,0
7936,-100,4,2,1,50,0,0
13036,-40,4,2,1,50,0,0
13186,-200,4,2,1,50,0,0
13486,-40,4,2,1,50,0,0
13636,-200,4,2,1,50,0,0
13936,-40,4,2,1,50,0,0
14086,-200,4,2,1,50,0,0
14386,-40,4,2,1,50,0,0
14536,-200,4,2,1,50,0,0
14836,-66.6666666666667,4,2,1,50,0,0
14986,-200,4,2,1,50,0,0
15136,-66.6666666666667,4,2,1,50,0,0
15286,-200,4,2,1,50,0,0
15436,-100,4,2,1,50,0,0
19934,-66.6666666666667,4,2,1,50,0,0
20084,-200,4,2,1,50,0,0
20234,-100,4,2,1,50,0,0
41536,-66.6666666666667,4,2,1,50,0,0
41686,-200,4,2,1,50,0,0
41836,-100,4,2,1,50,0,1
50836,-100,4,2,1,50,0,0
51436,-133.333333333333,4,2,1,50,0,0
51736,-66.6666666666667,4,2,1,50,0,0
51886,-133.333333333333,4,2,1,50,0,0
52186,-66.6666666666667,4,2,1,50,0,0
52336,-133.333333333333,4,2,1,50,0,0
52636,-66.6666666666667,4,2,1,50,0,0
52786,-133.333333333333,4,2,1,50,0,0
53086,-66.6666666666667,4,2,1,50,0,0
53236,-100,4,2,1,50,0,0
53686,-66.6666666666667,4,2,1,50,0,0
53836,-133.333333333333,4,2,1,50,0,0
54136,-66.6666666666667,4,2,1,50,0,0
54286,-133.333333333333,4,2,1,50,0,0
54586,-66.6666666666667,4,2,1,50,0,0
54736,-133.333333333333,4,2,1,50,0,0
55036,-66.6666666666667,4,2,1,50,0,0
55186,-133.333333333333,4,2,1,50,0,0
55486,-66.6666666666667,4,2,1,50,0,0
55636,-100,4,2,1,50,0,0
56236,-66.6666666666667,4,2,1,50,0,0
56386,-200,4,2,1,50,0,0
56536,-66.6666666666667,4,2,1,50,0,0
56686,-200,4,2,1,50,0,0
56836,-66.6666666666667,4,2,1,50,0,0
56986,-200,4,2,1,50,0,0
57136,-100,4,2,1,50,0,0
58636,-133.333333333333,4,2,1,50,0,0
58936,-66.6666666666667,4,2,1,50,0,0
59086,-133.333333333333,4,2,1,50,0,0
59386,-66.6666666666667,4,2,1,50,0,0
59536,-133.333333333333,4,2,1,50,0,0
59686,-66.6666666666667,4,2,1,50,0,0
59836,-133.333333333333,4,2,1,50,0,0
60136,-100,4,2,1,50,0,0
61036,-100,4,2,1,50,0,1
79936,-100,4,2,1,50,0,0
80236,-133.333333333333,4,2,1,50,0,0
80536,-66.6666666666667,4,2,1,50,0,0
80686,-133.333333333333,4,2,1,50,0,0
80986,-66.6666666666667,4,2,1,50,0,0
81136,-133.333333333333,4,2,1,50,0,0
81436,-66.6666666666667,4,2,1,50,0,0
81586,-133.333333333333,4,2,1,50,0,0
81886,-66.6666666666667,4,2,1,50,0,0
82036,-100,4,2,1,50,0,0
82486,-66.6666666666667,4,2,1,50,0,0
82636,-133.333333333333,4,2,1,50,0,0
82936,-66.6666666666667,4,2,1,50,0,0
83086,-133.333333333333,4,2,1,50,0,0
83386,-66.6666666666667,4,2,1,50,0,0
83536,-133.333333333333,4,2,1,50,0,0
83836,-66.6666666666667,4,2,1,50,0,0
83986,-133.333333333333,4,2,1,50,0,0
84286,-66.6666666666667,4,2,1,50,0,0
84436,-100,4,2,1,50,0,0
85036,-66.6666666666667,4,2,1,50,0,0
85186,-200,4,2,1,50,0,0
85336,-66.6666666666667,4,2,1,50,0,0
85486,-200,4,2,1,50,0,0
85636,-66.6666666666667,4,2,1,50,0,0
85786,-200,4,2,1,50,0,0
85936,-100,4,2,1,50,0,0
87436,-133.333333333333,4,2,1,50,0,0
87736,-66.6666666666667,4,2,1,50,0,0
87886,-133.333333333333,4,2,1,50,0,0
88186,-66.6666666666667,4,2,1,50,0,0
88336,-133.333333333333,4,2,1,50,0,0
88486,-66.6666666666667,4,2,1,50,0,0
88636,-133.333333333333,4,2,1,50,0,0
88936,-100,4,2,1,50,0,0
89536,-66.6666666666667,4,2,1,50,0,0
89686,-200,4,2,1,50,0,0
89836,-100,4,2,1,50,0,1
98836,-100,4,2,1,50,0,0
99436,-133.333333333333,4,2,1,50,0,0
99736,-66.6666666666667,4,2,1,50,0,0
99886,-133.333333333333,4,2,1,50,0,0
100186,-66.6666666666667,4,2,1,50,0,0
100336,-133.333333333333,4,2,1,50,0,0
100486,-66.6666666666667,4,2,1,50,0,0
100636,-133.333333333333,4,2,1,50,0,0
101086,-100,4,2,1,50,0,0

[HitObjects]
64,192,736,128,0,1036:0:0:0:70:1stLaser.wav
448,192,1036,5,0,0:0:0:0:
192,192,1036,1,0,0:0:0:0:
320,192,1186,1,0,0:0:0:0:
192,192,1336,1,0,0:0:0:0:
64,192,1336,1,0,0:0:0:0:
192,192,1486,1,0,0:0:0:0:
320,192,1636,1,0,0:0:0:0:
448,192,1636,1,0,0:0:0:0:
448,192,1786,1,0,0:0:0:0:
64,192,1786,1,0,0:0:0:0:
320,192,1861,1,0,0:0:0:0:
64,192,1936,1,0,0:0:0:0:
192,192,1936,1,0,0:0:0:0:
448,192,2086,1,0,0:0:0:0:
320,192,2086,1,0,0:0:0:0:
64,192,2236,1,0,0:0:0:0:
448,192,2236,1,0,0:0:0:0:
192,192,2386,1,0,0:0:0:0:
448,192,2536,1,0,0:0:0:0:
64,192,2536,1,0,0:0:0:0:
320,192,2686,1,0,0:0:0:0:
192,192,2836,1,0,0:0:0:0:
64,192,2836,1,0,0:0:0:0:
448,192,2986,1,0,0:0:0:0:
64,192,2986,1,0,0:0:0:0:
192,192,3061,1,0,0:0:0:0:
320,192,3136,1,0,0:0:0:0:
448,192,3136,128,0,3436:0:0:0:0:
320,192,3286,128,0,3436:0:0:0:0:
192,192,3436,1,0,0:0:0:70:Kick.wav
64,192,3436,1,0,0:0:0:0:
192,192,3586,1,0,0:0:0:70:Kick.wav
320,192,3586,1,0,0:0:0:0:
448,192,3736,1,0,0:0:0:0:
320,192,3736,1,0,0:0:0:70:Kick.wav
64,192,3886,1,0,0:0:0:0:
192,192,3886,1,0,0:0:0:70:Kick.wav
320,192,4036,1,0,0:0:0:70:Kick.wav
448,192,4036,1,0,0:0:0:0:
448,192,4186,1,0,0:0:0:0:
64,192,4186,1,0,0:0:0:70:Kick.wav
192,192,4336,1,0,0:0:0:70:Kick.wav
320,192,4336,1,0,0:0:0:0:
448,192,4486,1,0,0:0:0:0:
64,192,4486,1,0,0:0:0:70:Kick.wav
64,192,4636,1,0,0:0:0:0:
192,192,4636,1,0,0:0:0:70:Kick.wav
448,192,4711,1,0,0:0:0:0:
320,192,4711,1,0,0:0:0:70:Kick.wav
192,192,4786,1,0,0:0:0:70:Kick.wav
64,192,4786,1,0,0:0:0:0:
320,192,4861,1,0,0:0:0:70:Kick.wav
448,192,4861,1,0,0:0:0:0:
192,192,4936,1,0,0:0:0:70:Kick.wav
64,192,4936,1,0,0:0:0:0:
320,192,5011,1,0,0:0:0:70:Kick.wav
448,192,5011,1,0,0:0:0:0:
64,192,5086,1,0,0:0:0:0:
192,192,5086,1,0,0:0:0:70:Kick.wav
320,192,5161,1,0,0:0:0:70:Kick.wav
448,192,5161,1,0,0:0:0:0:
64,192,5236,1,0,0:0:0:0:
192,192,5236,1,0,0:0:0:70:Kick.wav
448,192,5386,1,0,0:0:0:70:Kick.wav
64,192,5386,1,0,0:0:0:0:
192,192,5461,1,0,0:0:0:0:
320,192,5536,1,0,0:0:0:0:
448,192,5536,1,0,0:0:0:70:Kick.wav
64,192,5611,1,0,0:0:0:0:
448,192,5686,1,0,0:0:0:70:Kick.wav
192,192,5686,1,0,0:0:0:0:
320,192,5761,1,0,0:0:0:0:
64,192,5836,1,0,0:0:0:0:
192,192,5836,1,0,0:0:0:0:
448,192,5836,1,0,0:0:0:70:Kick.wav
64,192,5986,1,0,0:0:0:0:
192,192,6136,1,0,0:0:0:0:
448,192,6136,1,0,0:0:0:0:
320,192,6286,1,0,0:0:0:0:
448,192,6286,1,0,0:0:0:0:
64,192,6436,1,0,0:0:0:0:
192,192,6586,1,0,0:0:0:0:
448,192,6586,1,0,0:0:0:0:
320,192,6736,1,0,0:0:0:0:
192,192,6886,1,0,0:0:0:0:
64,192,6886,1,0,0:0:0:0:
64,192,7036,1,0,0:0:0:0:
448,192,7036,128,0,8236:0:0:0:70:2ndLaser.wav
320,192,7936,128,0,8236:0:0:0:0:
192,192,8236,1,0,0:0:0:0:
64,192,8236,1,0,0:0:0:0:
320,192,8336,1,0,0:0:0:0:
448,192,8336,1,0,0:0:0:0:
192,192,8436,1,0,0:0:0:0:
64,192,8436,1,0,0:0:0:0:
320,192,8536,1,0,0:0:0:0:
448,192,8536,1,0,0:0:0:0:
192,192,8636,1,0,0:0:0:0:
320,192,8636,1,0,0:0:0:0:
64,192,8736,1,0,0:0:0:0:
192,192,8736,1,0,0:0:0:0:
64,192,8836,1,0,0:0:0:0:
448,192,8836,1,8,0:0:0:0:
320,192,8836,1,0,0:0:0:0:
320,192,8986,1,2,0:0:0:0:
448,192,8986,1,0,0:0:0:0:
64,192,9136,1,0,0:0:0:0:
192,192,9286,1,2,0:0:0:0:
448,192,9286,1,0,0:0:0:0:
320,192,9436,1,0,0:0:0:0:
192,192,9586,1,2,0:0:0:0:
64,192,9586,1,0,0:0:0:0:
320,192,9736,1,2,0:0:0:0:
448,192,9736,1,0,0:0:0:0:
448,192,9886,1,0,0:0:0:0:
64,192,9886,1,0,0:0:0:0:
320,192,10036,1,8,0:0:0:0:
64,192,10036,1,0,0:0:0:0:
448,192,10186,1,0,0:0:0:0:
192,192,10186,1,2,0:0:0:0:
320,192,10336,1,2,0:0:0:0:
64,192,10336,128,0,10636:0:0:0:0:
320,192,10636,1,2,0:0:0:0:
192,192,10636,1,0,0:0:0:0:
448,192,10636,1,0,0:0:0:0:
448,192,10786,1,0,0:0:0:0:
192,192,10936,1,0,0:0:0:0:
320,192,11086,1,0,0:0:0:0:
64,192,11236,1,0,0:0:0:0:
192,192,11236,1,8,0:0:0:0:
448,192,11386,1,2,0:0:0:0:
64,192,11386,1,0,0:0:0:0:
192,192,11461,1,0,0:0:0:0:
448,192,11536,1,0,0:0:0:0:
320,192,11536,1,0,0:0:0:0:
64,192,11686,1,0,0:0:0:0:
192,192,11686,1,0,0:0:0:0:
448,192,11836,1,0,0:0:0:0:
192,192,11986,1,0,0:0:0:0:
64,192,11986,1,0,0:0:0:0:
192,192,12136,1,2,0:0:0:0:
448,192,12136,1,0,0:0:0:0:
64,192,12286,1,0,0:0:0:0:
320,192,12286,1,2,0:0:0:0:
448,192,12436,1,0,0:0:0:0:
320,192,12436,1,2,0:0:0:0:
64,192,12586,1,0,0:0:0:0:
192,192,12586,1,2,0:0:0:0:
320,192,12736,128,0,13036:0:0:0:0:
448,192,12736,1,0,0:0:0:0:
64,192,13036,1,0,0:0:0:0:
192,192,13036,1,0,0:0:0:70:NEXT1.wav
448,192,13036,1,0,0:0:0:0:
64,192,13486,1,0,0:0:0:0:
448,192,13486,1,0,0:0:0:0:
192,192,13486,1,0,0:0:0:70:NEXT2.wav
320,192,13936,1,0,0:0:0:70:NEXT3.wav
448,192,13936,1,0,0:0:0:0:
64,192,13936,1,0,0:0:0:0:
64,192,14386,1,0,0:0:0:0:
320,192,14386,1,0,0:0:0:70:NEXT4.wav
448,192,14386,1,0,0:0:0:0:
192,192,14836,1,0,0:0:0:70:NEXT5.wav
64,192,14836,1,0,0:0:0:0:
448,192,14836,1,0,0:0:0:0:
64,192,15136,1,0,0:0:0:0:
320,192,15136,1,0,0:0:0:70:NEXT6.wav
448,192,15136,1,0,0:0:0:0:
192,192,15436,1,0,0:0:0:0:
64,192,15436,128,0,17536:0:0:0:70:3rdLaser.wav
448,192,17836,1,0,0:0:0:0:
64,192,17836,1,0,0:0:0:70:Kick.wav
320,192,17911,1,0,0:0:0:70:Kick.wav
64,192,17986,1,0,0:0:0:0:
192,192,17986,1,0,0:0:0:70:Kick.wav
448,192,18061,1,0,0:0:0:70:Kick.wav
192,192,18136,1,0,0:0:0:0:
320,192,18136,1,0,0:0:0:70:Kick.wav
64,192,18211,1,0,0:0:0:70:Kick.wav
448,192,18286,1,0,0:0:0:0:
320,192,18286,1,0,0:0:0:70:Kick.wav
192,192,18361,1,0,0:0:0:70:Kick.wav
320,192,18436,1,0,0:0:0:70:Kick.wav
448,192,18436,1,0,0:0:0:0:
64,192,18511,1,0,0:0:0:70:Kick.wav
192,192,18586,1,0,0:0:0:70:Kick.wav
448,192,18586,1,0,0:0:0:0:
320,192,18661,1,0,0:0:0:70:Kick.wav
192,192,18736,1,0,0:0:0:70:Kick.wav
64,192,18736,1,0,0:0:0:0:
448,192,18811,1,0,0:0:0:70:Kick.wav
64,192,18886,1,0,0:0:0:0:
320,192,18886,1,0,0:0:0:70:Kick.wav
192,192,18961,1,0,0:0:0:70:Kick.wav
448,192,19036,1,0,0:0:0:0:
320,192,19036,1,0,0:0:0:70:Kick.wav
64,192,19111,1,0,0:0:0:0:
192,192,19111,1,0,0:0:0:70:Kick.wav
448,192,19186,1,0,0:0:0:0:
192,192,19261,1,0,0:0:0:70:Kick.wav
64,192,19261,1,0,0:0:0:0:
448,192,19336,1,0,0:0:0:0:
320,192,19336,1,0,0:0:0:70:Kick.wav
448,192,19486,1,0,0:0:0:0:
64,192,19486,1,0,0:0:0:70:Kick.wav
192,192,19561,1,0,0:0:0:70:Kick.wav
320,192,19561,1,0,0:0:0:0:
64,192,19636,1,0,0:0:0:70:Kick.wav
448,192,19636,1,0,0:0:0:0:
192,192,19786,1,0,0:0:0:70:Kick.wav
64,192,19786,1,0,0:0:0:0:
320,192,19936,1,0,0:0:0:70:Kick.wav
448,192,19936,1,0,0:0:0:0:
448,192,20236,1,0,0:0:0:0:
192,192,20236,1,4,0:0:0:0:
64,192,20236,1,2,0:0:0:0:
320,192,20311,1,0,0:0:0:0:
192,192,20386,1,0,0:0:0:0:
448,192,20536,1,2,0:0:0:0:
64,192,20536,1,0,0:0:0:0:
320,192,20611,1,0,0:0:0:0:
192,192,20686,1,0,0:0:0:0:
448,192,20836,1,2,0:0:0:0:
320,192,20836,1,0,0:0:0:0:
64,192,20986,1,0,0:0:0:0:
192,192,20986,1,0,0:0:0:0:
448,192,21136,1,2,0:0:0:0:
64,192,21136,1,0,0:0:0:0:
192,192,21286,1,0,0:0:0:0:
320,192,21286,1,0,0:0:0:0:
64,192,21436,1,2,0:0:0:0:
448,192,21436,1,0,0:0:0:0:
448,192,21586,1,0,0:0:0:0:
320,192,21586,128,0,21736:0:0:0:0:
64,192,21736,1,2,0:0:0:0:
192,192,21736,128,0,21886:0:0:0:0:
448,192,21886,128,0,22336:0:0:0:0:
320,192,21886,1,0,0:0:0:0:
192,192,22036,1,0,0:0:0:0:
64,192,22036,1,2,0:0:0:0:
64,192,22186,1,0,0:0:0:0:
64,192,22336,1,2,0:0:0:0:
320,192,22336,1,0,0:0:0:0:
192,192,22411,1,0,0:0:0:0:
320,192,22486,1,0,0:0:0:0:
448,192,22486,1,0,0:0:0:0:
192,192,22561,1,0,0:0:0:0:
64,192,22636,1,2,0:0:0:0:
448,192,22636,1,0,0:0:0:0:
320,192,22711,1,0,0:0:0:0:
192,192,22786,1,0,0:0:0:0:
448,192,22936,1,2,0:0:0:0:
64,192,22936,1,0,0:0:0:0:
320,192,23011,1,0,0:0:0:0:
192,192,23086,1,0,0:0:0:0:
320,192,23236,1,0,0:0:0:0:
448,192,23236,1,2,0:0:0:0:
64,192,23386,1,0,0:0:0:0:
448,192,23386,1,0,0:0:0:0:
192,192,23536,1,0,0:0:0:0:
64,192,23536,1,2,0:0:0:0:
320,192,23686,1,0,0:0:0:0:
448,192,23686,1,0,0:0:0:0:
64,192,23836,1,2,0:0:0:0:
448,192,23836,1,0,0:0:0:0:
64,192,23986,128,0,24136:0:0:0:0:
192,192,23986,1,0,0:0:0:0:
320,192,24136,1,2,0:0:0:0:
448,192,24136,1,0,0:0:0:0:
192,192,24286,1,0,0:0:0:0:
448,192,24286,128,0,24436:0:0:0:0:
320,192,24436,1,2,0:0:0:0:
64,192,24436,128,0,24586:0:0:0:0:
192,192,24586,1,0,0:0:0:0:
448,192,24586,128,0,24736:0:0:0:0:
320,192,24736,1,2,0:0:0:0:
64,192,24736,128,0,24886:0:0:0:0:
448,192,24886,1,0,0:0:0:0:
192,192,24886,1,2,0:0:0:0:
64,192,25036,1,0,0:0:0:0:
320,192,25036,1,2,0:0:0:0:
448,192,25036,1,4,0:0:0:0:
192,192,25111,1,0,0:0:0:0:
320,192,25186,1,0,0:0:0:0:
64,192,25336,1,0,0:0:0:0:
448,192,25336,1,0,0:0:0:0:
192,192,25411,1,0,0:0:0:0:
320,192,25486,1,0,0:0:0:0:
64,192,25636,1,0,0:0:0:0:
192,192,25636,1,2,0:0:0:0:
448,192,25786,1,0,0:0:0:0:
320,192,25786,1,0,0:0:0:0:
64,192,25936,1,0,0:0:0:0:
448,192,25936,1,2,0:0:0:0:
192,192,26086,1,0,0:0:0:0:
320,192,26086,1,0,0:0:0:0:
64,192,26236,1,0,0:0:0:0:
448,192,26236,1,2,0:0:0:0:
64,192,26386,1,0,0:0:0:0:
192,192,26386,128,0,26536:0:0:0:0:
320,192,26536,128,0,26686:0:0:0:0:
448,192,26536,1,2,0:0:0:0:
192,192,26686,1,0,0:0:0:0:
64,192,26686,128,0,27136:0:0:0:0:
320,192,26836,1,0,0:0:0:0:
448,192,26836,1,2,0:0:0:0:
448,192,26986,1,0,0:0:0:0:
192,192,27136,1,0,0:0:0:0:
448,192,27136,1,2,0:0:0:0:
320,192,27211,1,0,0:0:0:0:
192,192,27286,1,0,0:0:0:0:
64,192,27286,1,0,0:0:0:0:
320,192,27361,1,0,0:0:0:0:
64,192,27436,1,4,0:0:0:0:
448,192,27436,1,2,0:0:0:0:
192,192,27511,1,0,0:0:0:0:
320,192,27586,1,0,0:0:0:0:
64,192,27736,5,2,0:0:0:0:
448,192,27736,1,0,0:0:0:0:
192,192,27811,1,0,0:0:0:0:
320,192,27886,1,0,0:0:0:0:
192,192,28036,1,0,0:0:0:0:
64,192,28036,1,2,0:0:0:0:
320,192,28186,1,0,0:0:0:0:
448,192,28186,1,0,0:0:0:0:
192,192,28336,1,0,0:0:0:0:
64,192,28336,1,2,0:0:0:0:
64,192,28486,1,2,0:0:0:0:
448,192,28486,128,0,28786:0:0:0:0:
320,192,28486,128,4,28786:0:0:0:0:
192,192,28786,5,0,0:0:0:0:
64,192,28786,1,0,0:0:0:0:
320,192,28861,1,0,0:0:0:0:
448,192,28861,1,0,0:0:0:0:
192,192,28936,1,2,0:0:0:0:
64,192,28936,1,0,0:0:0:0:
64,192,29086,1,0,0:0:0:0:
448,192,29086,1,0,0:0:0:0:
320,192,29161,1,0,0:0:0:0:
192,192,29161,1,0,0:0:0:0:
64,192,29236,1,0,0:0:0:0:
448,192,29236,1,2,0:0:0:0:
320,192,29386,1,0,0:0:0:0:
448,192,29386,1,0,0:0:0:0:
64,192,29461,1,0,0:0:0:0:
192,192,29461,1,0,0:0:0:0:
320,192,29536,1,2,0:0:0:0:
448,192,29536,1,0,0:0:0:0:
64,192,29686,128,0,29836:0:0:0:0:
192,192,29686,1,0,0:0:0:0:
448,192,29836,1,4,0:0:0:0:
320,192,29836,1,2,0:0:0:0:
192,192,29911,1,0,0:0:0:0:
320,192,29986,1,0,0:0:0:0:
448,192,29986,1,0,0:0:0:0:
64,192,30136,1,2,0:0:0:0:
448,192,30136,1,0,0:0:0:0:
320,192,30211,1,0,0:0:0:0:
64,192,30286,128,0,30436:0:0:0:0:
192,192,30286,1,0,0:0:0:0:
448,192,30436,1,0,0:0:0:0:
320,192,30436,1,2,0:0:0:0:
64,192,30586,128,0,30736:0:0:0:0:
192,192,30586,1,0,0:0:0:0:
448,192,30736,1,0,0:0:0:0:
320,192,30736,1,2,0:0:0:0:
448,192,30886,128,0,31036:0:0:0:0:
64,192,30886,1,0,0:0:0:0:
192,192,31036,1,2,0:0:0:0:
64,192,31036,1,0,0:0:0:0:
448,192,31186,128,0,31336:0:0:0:0:
320,192,31186,1,0,0:0:0:0:
192,192,31336,128,0,31486:0:0:0:0:
64,192,31336,1,2,0:0:0:0:
320,192,31486,128,0,31636:0:0:0:0:
448,192,31486,1,0,0:0:0:0:
192,192,31636,1,2,0:0:0:0:
64,192,31636,128,0,31786:0:0:0:0:
448,192,31786,1,0,0:0:0:0:
320,192,31861,1,0,0:0:0:0:
64,192,31936,1,0,0:0:0:0:
192,192,31936,1,2,0:0:0:0:
320,192,32086,1,0,0:0:0:0:
448,192,32086,1,0,0:0:0:0:
64,192,32236,1,2,0:0:0:0:
448,192,32236,1,4,0:0:0:0:
320,192,32311,1,0,0:0:0:0:
192,192,32386,1,0,0:0:0:0:
64,192,32386,1,0,0:0:0:0:
320,192,32536,1,2,0:0:0:0:
448,192,32536,1,0,0:0:0:0:
192,192,32611,1,0,0:0:0:0:
64,192,32686,1,0,0:0:0:0:
448,192,32686,128,0,32836:0:0:0:0:
192,192,32836,1,2,0:0:0:0:
64,192,32836,1,0,0:0:0:0:
448,192,32986,128,0,33136:0:0:0:0:
320,192,32986,1,0,0:0:0:0:
192,192,33136,1,2,0:0:0:0:
64,192,33136,1,0,0:0:0:0:
448,192,33286,1,0,0:0:0:0:
64,192,33286,128,0,33436:0:0:0:0:
448,192,33436,1,0,0:0:0:0:
320,192,33436,1,2,0:0:0:0:
64,192,33586,128,0,33736:0:0:0:0:
192,192,33586,1,0,0:0:0:0:
320,192,33736,1,2,0:0:0:0:
448,192,33736,1,0,0:0:0:0:
192,192,33886,1,0,0:0:0:0:
64,192,33886,128,0,34036:0:0:0:0:
448,192,34036,1,2,0:0:0:0:
320,192,34036,128,0,34186:0:0:0:0:
64,192,34186,1,0,0:0:0:0:
192,192,34186,128,0,34336:0:0:0:0:
320,192,34336,1,2,0:0:0:0:
448,192,34336,128,0,34636:0:0:0:0:
64,192,34486,1,0,0:0:0:0:
192,192,34486,1,0,0:0:0:0:
320,192,34636,1,2,0:0:0:0:
64,192,34636,1,4,0:0:0:0:
192,192,34711,1,0,0:0:0:0:
320,192,34786,1,0,0:0:0:0:
448,192,34786,1,0,0:0:0:0:
448,192,34936,1,0,0:0:0:0:
64,192,34936,1,2,0:0:0:0:
320,192,35011,1,0,0:0:0:0:
192,192,35086,1,0,0:0:0:0:
64,192,35086,128,0,35236:0:0:0:0:
320,192,35236,1,2,0:0:0:0:
448,192,35236,1,0,0:0:0:0:
448,192,35386,128,0,35536:0:0:0:0:
320,192,35386,1,0,0:0:0:0:
64,192,35536,1,0,0:0:0:0:
192,192,35536,1,2,0:0:0:0:
320,192,35686,1,2,0:0:0:0:
448,192,35686,128,0,35836:0:0:0:0:
192,192,35836,1,2,0:0:0:0:
64,192,35836,1,4,0:0:0:0:
64,192,35986,128,0,36136:0:0:0:0:
448,192,35986,1,0,0:0:0:0:
320,192,36136,1,2,0:0:0:0:
448,192,36136,128,0,36286:0:0:0:0:
192,192,36286,1,0,0:0:0:0:
64,192,36286,128,0,36586:0:0:0:0:
320,192,36436,1,2,0:0:0:0:
448,192,36436,1,0,0:0:0:0:
448,192,36586,1,0,0:0:0:0:
320,192,36661,1,0,0:0:0:0:
192,192,36736,1,2,0:0:0:0:
64,192,36736,1,0,0:0:0:0:
320,192,36886,1,2,0:0:0:0:
448,192,36886,1,0,0:0:0:0:
64,192,37036,1,2,0:0:0:0:
448,192,37036,1,4,0:0:0:0:
320,192,37111,1,0,0:0:0:0:
192,192,37186,1,0,0:0:0:0:
64,192,37186,1,0,0:0:0:0:
320,192,37336,5,0,0:0:0:0:
448,192,37336,1,2,0:0:0:0:
192,192,37411,1,0,0:0:0:0:
64,192,37486,1,0,0:0:0:0:
448,192,37486,1,2,0:0:0:0:
192,192,37636,1,2,0:0:0:0:
64,192,37636,1,4,0:0:0:0:
192,192,37786,1,0,0:0:0:0:
320,192,37786,1,0,0:0:0:0:
448,192,37936,1,2,0:0:0:0:
320,192,37936,1,0,0:0:0:0:
192,192,38086,128,4,38386:0:0:0:0:
64,192,38086,128,0,38386:0:0:0:0:
448,192,38086,1,2,0:0:0:0:
320,192,38386,5,0,0:0:0:0:
448,192,38386,1,0,0:0:0:0:
192,192,38461,1,0,0:0:0:0:
64,192,38461,1,0,0:0:0:0:
320,192,38536,1,2,0:0:0:0:
448,192,38536,1,0,0:0:0:0:
448,192,38686,1,0,0:0:0:0:
64,192,38686,1,0,0:0:0:0:
192,192,38761,1,0,0:0:0:0:
320,192,38761,1,0,0:0:0:0:
64,192,38836,1,0,0:0:0:0:
448,192,38836,1,2,0:0:0:0:
192,192,38986,1,0,0:0:0:0:
64,192,38986,1,0,0:0:0:0:
320,192,39061,1,0,0:0:0:0:
448,192,39061,1,0,0:0:0:0:
192,192,39136,1,2,0:0:0:0:
64,192,39136,128,0,39436:0:0:0:0:
448,192,39436,1,4,0:0:0:0:
192,192,39436,1,2,0:0:0:0:
320,192,39511,1,0,0:0:0:0:
192,192,39586,1,0,0:0:0:0:
448,192,39736,1,0,0:0:0:0:
320,192,39811,1,0,0:0:0:0:
192,192,39886,1,0,0:0:0:0:
448,192,40036,1,0,0:0:0:0:
64,192,40186,1,0,0:0:0:0:
448,192,40336,1,0,0:0:0:0:
64,192,40486,1,0,0:0:0:0:
448,192,40636,1,0,0:0:0:0:
448,192,40786,1,0,0:0:0:0:
192,192,40936,1,0,0:0:0:0:
448,192,41086,128,0,41386:0:0:0:0:
320,192,41086,1,0,0:0:0:0:
192,192,41236,1,0,0:0:0:0:
64,192,41236,128,0,41536:0:0:0:0:
320,192,41536,1,0,0:0:0:0:
448,192,41536,1,0,0:0:0:0:
192,192,41836,1,2,0:0:0:0:
64,192,41836,1,0,0:0:0:0:
320,192,41836,1,4,0:0:0:0:
448,192,41836,1,0,0:0:0:0:
192,192,42136,1,2,0:0:0:0:
64,192,42136,1,0,0:0:0:0:
448,192,42136,1,0,0:0:0:0:
64,192,42436,1,0,0:0:0:0:
448,192,42436,1,0,0:0:0:0:
320,192,42436,1,8,0:0:0:0:
320,192,42586,1,0,0:0:0:0:
448,192,42586,1,2,0:0:0:0:
192,192,42736,1,0,0:0:0:0:
448,192,42886,1,0,0:0:0:0:
64,192,42886,1,0,0:0:0:0:
320,192,43036,1,0,0:0:0:0:
192,192,43186,1,0,0:0:0:0:
64,192,43186,1,0,0:0:0:0:
64,192,43336,1,2,0:0:0:0:
448,192,43336,1,0,0:0:0:0:
192,192,43486,1,2,0:0:0:0:
320,192,43486,1,0,0:0:0:0:
448,192,43636,1,0,0:0:0:0:
64,192,43636,1,0,0:0:0:0:
192,192,43636,1,8,0:0:0:0:
320,192,43786,1,2,0:0:0:0:
448,192,43786,1,0,0:0:0:0:
64,192,43936,128,0,44236:0:0:0:0:
192,192,43936,1,0,0:0:0:0:
320,192,44236,1,2,0:0:0:0:
448,192,44236,1,0,0:0:0:0:
192,192,44236,1,4,0:0:0:0:
448,192,44386,1,0,0:0:0:0:
64,192,44536,1,0,0:0:0:0:
320,192,44536,1,2,0:0:0:0:
192,192,44686,1,0,0:0:0:0:
192,192,44836,1,8,0:0:0:0:
448,192,44836,1,0,0:0:0:0:
64,192,44836,1,0,0:0:0:0:
320,192,44986,1,2,0:0:0:0:
448,192,44986,1,0,0:0:0:0:
192,192,45136,1,0,0:0:0:0:
448,192,45286,1,0,0:0:0:0:
64,192,45286,1,0,0:0:0:0:
320,192,45436,1,0,0:0:0:0:
192,192,45586,1,0,0:0:0:0:
64,192,45586,1,0,0:0:0:0:
320,192,45736,1,2,0:0:0:0:
448,192,45736,1,0,0:0:0:0:
192,192,45886,1,2,0:0:0:0:
64,192,45886,1,0,0:0:0:0:
320,192,46036,1,0,0:0:0:0:
448,192,46036,1,8,0:0:0:0:
64,192,46036,128,0,46336:0:0:0:0:
320,192,46186,1,2,0:0:0:0:
448,192,46186,1,0,0:0:0:0:
448,192,46336,128,0,46636:0:0:0:0:
192,192,46336,1,0,0:0:0:0:
320,192,46636,1,0,0:0:0:0:
192,192,46636,1,4,0:0:0:0:
64,192,46636,1,2,0:0:0:0:
64,192,46786,1,0,0:0:0:0:
320,192,46936,1,2,0:0:0:0:
448,192,46936,1,0,0:0:0:0:
64,192,47086,1,0,0:0:0:70:Kick.wav
192,192,47086,1,0,0:0:0:0:
320,192,47236,1,0,0:0:0:0:
64,192,47236,1,0,0:0:0:70:Kick.wav
448,192,47236,1,0,0:0:0:0:
192,192,47386,1,0,0:0:0:0:
320,192,47386,1,2,0:0:0:0:
192,192,47536,1,0,0:0:0:70:Kick.wav
64,192,47536,1,0,0:0:0:0:
448,192,47686,1,0,0:0:0:0:
64,192,47686,1,0,0:0:0:0:
192,192,47836,1,0,0:0:0:0:
320,192,47836,1,0,0:0:0:0:
64,192,47986,1,0,0:0:0:70:Kick.wav
448,192,47986,1,0,0:0:0:0:
448,192,48136,1,2,0:0:0:0:
320,192,48136,1,0,0:0:0:70:Kick.wav
192,192,48286,1,0,0:0:0:0:
64,192,48286,1,2,0:0:0:0:
448,192,48436,1,0,0:0:0:0:
320,192,48436,1,0,0:0:0:70:Kick.wav
64,192,48436,1,0,0:0:0:0:
320,192,48586,1,0,0:0:0:0:
192,192,48586,1,2,0:0:0:0:
64,192,48736,1,0,0:0:0:0:
448,192,48736,128,2,49036:0:0:0:0:
320,192,49036,1,0,0:0:0:0:
64,192,49036,1,4,0:0:0:0:
192,192,49036,1,2,0:0:0:0:
64,192,49186,1,0,0:0:0:0:
448,192,49186,1,0,0:0:0:70:Kick.wav
192,192,49261,1,0,0:0:0:0:
448,192,49336,5,0,0:0:0:70:Kick.wav
320,192,49336,1,2,0:0:0:0:
448,192,49486,1,0,0:0:0:70:Kick.wav
320,192,49486,1,0,0:0:0:0:
448,192,49636,1,0,0:0:0:70:Kick.wav
320,192,49636,1,0,0:0:0:0:
448,192,49786,1,0,0:0:0:70:Kick.wav
64,192,49786,1,2,0:0:0:0:
320,192,49861,1,0,0:0:0:0:
64,192,49936,1,0,0:0:0:70:Kick.wav
192,192,49936,1,0,0:0:0:0:
64,192,50086,1,0,0:0:0:70:Kick.wav
192,192,50086,1,0,0:0:0:0:
192,192,50236,1,0,0:0:0:0:
64,192,50236,1,0,0:0:0:70:Kick.wav
64,192,50386,5,0,0:0:0:70:Kick.wav
448,192,50386,1,0,0:0:0:0:
192,192,50461,1,0,0:0:0:0:
320,192,50536,1,0,0:0:0:70:Kick.wav
448,192,50536,1,2,0:0:0:0:
192,192,50686,1,0,0:0:0:70:Kick.wav
64,192,50686,1,2,0:0:0:0:
64,192,50836,1,0,0:0:0:70:Kick.wav
448,192,50836,128,0,51286:0:0:0:0:
320,192,50836,128,4,51286:0:0:0:0:
192,192,51436,128,0,51736:0:0:0:70:Girls.wav
64,192,51436,128,4,51736:0:0:0:0:
448,192,51436,128,0,51736:0:0:0:0:
192,192,51886,128,0,52186:0:0:0:70:Girls.wav
64,192,51886,128,4,52186:0:0:0:0:
448,192,51886,128,0,52186:0:0:0:0:
64,192,52336,128,4,52636:0:0:0:0:
192,192,52336,128,0,52636:0:0:0:70:Girls.wav
448,192,52336,128,0,52636:0:0:0:0:
192,192,52786,128,0,53086:0:0:0:70:Girls.wav
64,192,52786,128,4,53086:0:0:0:0:
448,192,52786,128,0,53086:0:0:0:0:
448,192,53236,128,0,53686:0:0:0:0:
320,192,53236,128,4,53686:0:0:0:0:
192,192,53536,128,4,53686:0:0:0:0:
64,192,53536,128,0,53686:0:0:0:0:
448,192,53836,128,4,54136:0:0:0:0:
320,192,53836,128,0,54136:0:0:0:70:Girls.wav
64,192,53836,128,0,54136:0:0:0:0:
448,192,54286,128,4,54586:0:0:0:0:
320,192,54286,128,0,54586:0:0:0:70:Girls.wav
64,192,54286,128,0,54586:0:0:0:0:
448,192,54736,128,4,55036:0:0:0:0:
320,192,54736,128,0,55036:0:0:0:70:Girls.wav
64,192,54736,128,0,55036:0:0:0:0:
448,192,55186,128,4,55486:0:0:0:0:
320,192,55186,128,0,55486:0:0:0:70:Girls.wav
64,192,55186,128,0,55486:0:0:0:0:
192,192,55636,128,4,56086:0:0:0:0:
64,192,55636,128,0,56086:0:0:0:0:
320,192,55936,128,4,56086:0:0:0:0:
448,192,55936,128,0,56086:0:0:0:0:
448,192,56236,1,0,0:0:0:0:
192,192,56236,1,4,0:0:0:0:
64,192,56236,1,0,0:0:0:0:
448,192,56536,1,0,0:0:0:0:
192,192,56536,1,4,0:0:0:0:
64,192,56536,1,0,0:0:0:0:
448,192,56836,1,0,0:0:0:0:
320,192,56836,1,4,0:0:0:0:
64,192,56836,1,0,0:0:0:0:
448,192,57136,1,0,0:0:0:0:
320,192,57136,1,4,0:0:0:0:
64,192,57136,1,0,0:0:0:0:
192,192,57436,1,0,0:0:0:70:Kick.wav
64,192,57436,1,0,0:0:0:0:
320,192,57536,1,0,0:0:0:70:Kick.wav
448,192,57536,1,0,0:0:0:0:
64,192,57636,1,0,0:0:0:0:
192,192,57636,1,0,0:0:0:70:Kick.wav
320,192,57736,1,0,0:0:0:70:Kick.wav
448,192,57736,1,0,0:0:0:0:
192,192,57836,1,0,0:0:0:70:Kick.wav
64,192,57836,1,0,0:0:0:0:
320,192,57936,1,0,0:0:0:70:Kick.wav
448,192,57936,1,0,0:0:0:0:
192,192,58036,1,0,0:0:0:70:Kick.wav
64,192,58036,1,0,0:0:0:0:
448,192,58036,1,0,0:0:0:0:
192,192,58136,1,0,0:0:0:70:Kick.wav
64,192,58136,1,0,0:0:0:0:
64,192,58236,1,0,0:0:0:70:Kick.wav
192,192,58236,1,0,0:0:0:0:
320,192,58336,1,0,0:0:0:70:Kick.wav
64,192,58336,1,0,0:0:0:0:
448,192,58336,1,0,0:0:0:0:
448,192,58436,1,0,0:0:0:0:
320,192,58436,1,0,0:0:0:70:Kick.wav
320,192,58536,1,0,0:0:0:70:Kick.wav
448,192,58536,1,0,0:0:0:0:
192,192,58636,128,4,58936:0:0:0:0:
64,192,58636,128,0,58936:0:0:0:0:
448,192,58636,128,0,58936:0:0:0:0:
448,192,59086,128,0,59386:0:0:0:0:
64,192,59086,128,0,59386:0:0:0:0:
320,192,59086,128,4,59386:0:0:0:0:
64,192,59536,128,0,60136:0:0:0:0:
192,192,59536,128,4,60136:0:0:0:0:
320,192,59836,128,0,60136:0:0:0:0:
448,192,59836,128,0,60136:0:0:0:0:
448,192,60636,1,2,0:0:0:0:
64,192,60636,1,0,0:0:0:0:
448,192,60736,1,0,0:0:0:0:
192,192,60736,1,0,0:0:0:70:Snare.wav
64,192,60736,1,0,0:0:0:0:
320,192,60836,1,0,0:0:0:0:
192,192,60936,1,0,0:0:0:0:
448,192,61036,1,0,0:0:0:0:
320,192,61036,1,0,0:0:0:70:Snare.wav
64,192,61036,1,0,0:0:0:0:
320,192,61236,1,0,0:0:0:0:
448,192,61236,1,0,0:0:0:0:
64,192,61336,1,0,0:0:0:0:
192,192,61336,1,0,0:0:0:70:Snare.wav
448,192,61336,1,0,0:0:0:0:
64,192,61536,1,0,0:0:0:0:
320,192,61536,1,0,0:0:0:0:
320,192,61636,1,2,0:0:0:0:
64,192,61636,1,0,0:0:0:0:
320,192,61836,1,0,0:0:0:0:
448,192,61836,1,0,0:0:0:0:
192,192,61936,1,0,0:0:0:70:Snare.wav
448,192,61936,1,0,0:0:0:0:
64,192,61936,1,0,0:0:0:0:
448,192,62136,1,0,0:0:0:0:
64,192,62136,1,0,0:0:0:0:
320,192,62186,1,0,0:0:0:0:
192,192,62236,1,2,0:0:0:0:
64,192,62236,1,0,0:0:0:0:
448,192,62436,1,0,0:0:0:0:
320,192,62436,1,0,0:0:0:0:
320,192,62536,1,0,0:0:0:70:Snare.wav
448,192,62536,1,0,0:0:0:0:
64,192,62536,1,0,0:0:0:0:
192,192,62636,1,0,0:0:0:0:
320,192,62736,1,0,0:0:0:0:
448,192,62736,1,0,0:0:0:0:
64,192,62836,1,0,0:0:0:0:
192,192,62836,1,2,0:0:0:0:
320,192,62936,1,0,0:0:0:0:
64,192,63036,1,0,0:0:0:0:
192,192,63036,1,0,0:0:0:0:
320,192,63136,1,0,0:0:0:70:Snare.wav
448,192,63136,1,0,0:0:0:0:
64,192,63136,1,0,0:0:0:0:
320,192,63336,1,0,0:0:0:0:
448,192,63336,1,0,0:0:0:0:
448,192,63436,1,0,0:0:0:0:
64,192,63436,1,2,0:0:0:0:
192,192,63536,1,0,0:0:0:0:
320,192,63636,1,0,0:0:0:0:
448,192,63636,1,0,0:0:0:0:
192,192,63736,1,0,0:0:0:70:Snare.wav
448,192,63736,1,0,0:0:0:0:
64,192,63736,1,0,0:0:0:0:
320,192,63836,1,0,0:0:0:0:
192,192,63936,1,0,0:0:0:0:
64,192,63936,1,0,0:0:0:0:
448,192,64036,1,2,0:0:0:0:
64,192,64036,1,0,0:0:0:0:
320,192,64236,1,0,0:0:0:0:
64,192,64336,1,0,0:0:0:0:
320,192,64336,1,0,0:0:0:70:Snare.wav
448,192,64336,1,0,0:0:0:0:
192,192,64536,1,0,0:0:0:0:
448,192,64536,1,0,0:0:0:0:
448,192,64636,1,2,0:0:0:0:
192,192,64636,1,0,0:0:0:0:
64,192,64836,1,0,0:0:0:0:
192,192,64836,1,0,0:0:0:0:
448,192,64936,1,0,0:0:0:0:
64,192,64936,1,0,0:0:0:0:
320,192,64936,1,0,0:0:0:70:Snare.wav
192,192,65036,1,0,0:0:0:0:
320,192,65136,1,0,0:0:0:0:
448,192,65136,1,0,0:0:0:0:
192,192,65236,1,2,0:0:0:0:
64,192,65236,1,0,0:0:0:0:
320,192,65436,1,0,0:0:0:0:
448,192,65436,1,0,0:0:0:0:
448,192,65536,1,0,0:0:0:0:
192,192,65536,1,0,0:0:0:70:Snare.wav
64,192,65536,1,0,0:0:0:0:
320,192,65636,1,0,0:0:0:0:
192,192,65736,1,0,0:0:0:0:
64,192,65736,1,0,0:0:0:0:
320,192,65836,1,2,0:0:0:0:
448,192,65836,1,0,0:0:0:0:
64,192,65836,1,0,0:0:0:0:
320,192,66036,1,0,0:0:0:0:
448,192,66036,1,0,0:0:0:0:
448,192,66136,1,0,0:0:0:0:
64,192,66136,1,0,0:0:0:0:
192,192,66136,1,0,0:0:0:70:Snare.wav
320,192,66336,1,0,0:0:0:0:
64,192,66336,1,0,0:0:0:0:
320,192,66436,1,2,0:0:0:0:
64,192,66436,1,0,0:0:0:0:
192,192,66636,1,0,0:0:0:0:
448,192,66636,1,0,0:0:0:0:
448,192,66736,1,0,0:0:0:0:
64,192,66736,1,0,0:0:0:0:
192,192,66736,1,0,0:0:0:70:Snare.wav
448,192,66936,1,0,0:0:0:0:
64,192,66936,1,0,0:0:0:0:
320,192,66986,1,0,0:0:0:0:
192,192,67036,1,2,0:0:0:0:
64,192,67036,1,0,0:0:0:0:
448,192,67236,1,0,0:0:0:0:
320,192,67236,1,0,0:0:0:0:
64,192,67336,1,0,0:0:0:0:
320,192,67336,1,0,0:0:0:70:Snare.wav
448,192,67336,1,0,0:0:0:0:
64,192,67536,1,0,0:0:0:0:
192,192,67536,1,0,0:0:0:0:
448,192,67636,1,2,0:0:0:0:
64,192,67636,1,0,0:0:0:0:
192,192,67736,1,0,0:0:0:0:
320,192,67836,1,0,0:0:0:0:
448,192,67836,1,0,0:0:0:0:
64,192,67936,1,0,0:0:0:0:
448,192,67936,1,0,0:0:0:0:
192,192,67936,1,0,0:0:0:70:Snare.wav
320,192,68036,1,0,0:0:0:0:
192,192,68136,1,0,0:0:0:0:
64,192,68136,1,0,0:0:0:0:
320,192,68236,1,0,0:0:0:0:
448,192,68236,1,2,0:0:0:0:
192,192,68336,1,0,0:0:0:0:
320,192,68436,1,0,0:0:0:0:
448,192,68436,1,0,0:0:0:0:
64,192,68536,1,0,0:0:0:0:
448,192,68536,1,0,0:0:0:70:Snare.wav
192,192,68536,1,0,0:0:0:0:
320,192,68636,1,0,0:0:0:0:
192,192,68736,1,0,0:0:0:0:
64,192,68736,1,0,0:0:0:0:
64,192,68836,1,2,0:0:0:0:
448,192,68836,1,0,0:0:0:0:
192,192,68936,1,0,0:0:0:0:
320,192,69036,1,0,0:0:0:0:
448,192,69036,1,0,0:0:0:0:
64,192,69136,1,0,0:0:0:70:Snare.wav
448,192,69136,1,0,0:0:0:0:
192,192,69136,1,0,0:0:0:0:
64,192,69336,1,0,0:0:0:0:
448,192,69336,1,0,0:0:0:0:
192,192,69386,1,0,0:0:0:0:
320,192,69436,1,0,0:0:0:0:
448,192,69436,1,2,0:0:0:0:
192,192,69636,1,0,0:0:0:0:
64,192,69636,1,0,0:0:0:0:
320,192,69736,1,0,0:0:0:70:Snare.wav
64,192,69736,1,0,0:0:0:0:
448,192,69736,1,0,0:0:0:0:
192,192,69936,1,0,0:0:0:0:
448,192,69936,1,0,0:0:0:0:
192,192,70036,1,0,0:0:0:0:
448,192,70036,1,2,0:0:0:0:
320,192,70236,1,0,0:0:0:0:
64,192,70236,1,0,0:0:0:0:
64,192,70336,1,0,0:0:0:0:
192,192,70336,1,0,0:0:0:0:
448,192,70336,1,0,0:0:0:70:Snare.wav
192,192,70536,1,0,0:0:0:0:
448,192,70536,1,0,0:0:0:0:
64,192,70636,1,0,0:0:0:0:
192,192,70636,1,2,0:0:0:0:
448,192,70636,1,4,0:0:0:0:
320,192,70836,1,0,0:0:0:0:
64,192,70836,1,0,0:0:0:0:
64,192,70936,1,0,0:0:0:0:
448,192,70936,1,0,0:0:0:0:
320,192,70936,1,0,0:0:0:70:Snare.wav
448,192,71136,1,0,0:0:0:0:
64,192,71136,1,0,0:0:0:0:
448,192,71236,1,0,0:0:0:0:
320,192,71236,1,2,0:0:0:0:
192,192,71436,1,0,0:0:0:0:
64,192,71436,1,0,0:0:0:0:
64,192,71536,1,0,0:0:0:0:
448,192,71536,1,0,0:0:0:0:
320,192,71536,1,0,0:0:0:70:Snare.wav
64,192,71736,1,0,0:0:0:0:
448,192,71736,1,0,0:0:0:0:
192,192,71786,1,0,0:0:0:0:
320,192,71836,1,2,0:0:0:0:
448,192,71836,1,0,0:0:0:0:
192,192,72036,1,0,0:0:0:0:
64,192,72036,1,0,0:0:0:0:
448,192,72136,1,0,0:0:0:0:
64,192,72136,1,0,0:0:0:0:
192,192,72136,1,0,0:0:0:70:Snare.wav
320,192,72236,1,0,0:0:0:0:
192,192,72336,1,0,0:0:0:0:
64,192,72336,1,0,0:0:0:0:
64,192,72436,1,2,0:0:0:0:
448,192,72436,1,0,0:0:0:0:
192,192,72536,1,0,0:0:0:0:
320,192,72636,1,0,0:0:0:0:
448,192,72636,1,0,0:0:0:0:
64,192,72736,1,0,0:0:0:0:
192,192,72736,1,0,0:0:0:70:Snare.wav
448,192,72736,1,0,0:0:0:0:
192,192,72936,1,0,0:0:0:0:
64,192,72936,1,0,0:0:0:0:
64,192,73036,1,2,0:0:0:0:
448,192,73036,1,0,0:0:0:0:
320,192,73136,1,0,0:0:0:0:
192,192,73236,1,0,0:0:0:0:
64,192,73236,1,0,0:0:0:0:
64,192,73336,1,0,0:0:0:0:
448,192,73336,1,0,0:0:0:0:
320,192,73336,1,0,0:0:0:70:Snare.wav
192,192,73436,1,0,0:0:0:0:
448,192,73536,1,0,0:0:0:0:
320,192,73536,1,0,0:0:0:0:
64,192,73636,1,0,0:0:0:0:
448,192,73636,1,2,0:0:0:0:
192,192,73836,1,0,0:0:0:0:
448,192,73936,1,0,0:0:0:0:
64,192,73936,1,0,0:0:0:0:
192,192,73936,1,0,0:0:0:70:Snare.wav
64,192,74136,1,0,0:0:0:0:
320,192,74136,1,0,0:0:0:0:
320,192,74236,1,0,0:0:0:0:
64,192,74236,1,2,0:0:0:0:
64,192,74436,1,0,0:0:0:0:
192,192,74436,1,0,0:0:0:0:
64,192,74536,5,0,0:0:0:0:
448,192,74536,1,0,0:0:0:0:
320,192,74536,1,0,0:0:0:70:Snare.wav
192,192,74636,1,0,0:0:0:0:
320,192,74736,1,0,0:0:0:0:
448,192,74736,1,0,0:0:0:0:
64,192,74836,1,0,0:0:0:0:
192,192,74836,1,2,0:0:0:0:
320,192,75036,1,0,0:0:0:0:
448,192,75036,1,0,0:0:0:0:
64,192,75136,1,0,0:0:0:0:
448,192,75136,1,0,0:0:0:0:
192,192,75136,1,0,0:0:0:70:Snare.wav
320,192,75236,1,0,0:0:0:0:
192,192,75336,1,0,0:0:0:0:
64,192,75336,1,0,0:0:0:0:
64,192,75436,1,0,0:0:0:0:
448,192,75436,1,4,0:0:0:0:
320,192,75436,1,2,0:0:0:0:
320,192,75636,1,0,0:0:0:0:
448,192,75636,1,0,0:0:0:0:
448,192,75736,1,0,0:0:0:0:
64,192,75736,1,0,0:0:0:0:
320,192,75736,1,0,0:0:0:70:Snare.wav
448,192,75936,1,0,0:0:0:0:
192,192,75936,1,0,0:0:0:0:
192,192,76036,1,2,0:0:0:0:
448,192,76036,1,0,0:0:0:0:
320,192,76236,1,0,0:0:0:0:
64,192,76236,1,0,0:0:0:0:
448,192,76336,1,0,0:0:0:0:
192,192,76336,1,0,0:0:0:70:Snare.wav
64,192,76336,1,0,0:0:0:0:
448,192,76536,1,0,0:0:0:0:
64,192,76536,1,0,0:0:0:0:
320,192,76586,1,0,0:0:0:0:
192,192,76636,1,2,0:0:0:0:
64,192,76636,1,0,0:0:0:0:
320,192,76836,1,0,0:0:0:0:
448,192,76836,1,0,0:0:0:0:
64,192,76936,1,0,0:0:0:0:
448,192,76936,1,0,0:0:0:0:
192,192,76936,1,0,0:0:0:70:Snare.wav
192,192,77136,1,0,0:0:0:0:
64,192,77136,1,0,0:0:0:0:
64,192,77236,1,2,0:0:0:0:
448,192,77236,1,0,0:0:0:0:
192,192,77336,1,0,0:0:0:0:
448,192,77436,1,0,0:0:0:0:
320,192,77436,1,0,0:0:0:0:
448,192,77536,1,0,0:0:0:70:Snare.wav
64,192,77536,1,0,0:0:0:0:
192,192,77536,1,0,0:0:0:0:
320,192,77636,1,0,0:0:0:0:
192,192,77736,1,0,0:0:0:0:
64,192,77736,1,0,0:0:0:0:
448,192,77836,1,2,0:0:0:0:
64,192,77836,1,0,0:0:0:0:
192,192,77936,1,0,0:0:0:0:
320,192,78036,1,0,0:0:0:0:
448,192,78036,1,0,0:0:0:0:
64,192,78136,1,0,0:0:0:70:Snare.wav
448,192,78136,1,0,0:0:0:0:
192,192,78136,1,0,0:0:0:0:
320,192,78236,1,0,0:0:0:0:
192,192,78336,1,0,0:0:0:0:
64,192,78336,1,0,0:0:0:0:
448,192,78436,1,0,0:0:0:0:
320,192,78436,1,0,0:0:0:0:
192,192,78536,1,0,0:0:0:0:
320,192,78636,1,0,0:0:0:0:
448,192,78636,1,0,0:0:0:0:
448,192,78736,1,0,0:0:0:70:Snare.wav
192,192,78736,1,0,0:0:0:0:
64,192,78736,1,0,0:0:0:0:
448,192,78936,1,0,0:0:0:0:
64,192,78936,1,0,0:0:0:0:
320,192,78986,1,0,0:0:0:0:
192,192,79036,1,0,0:0:0:0:
64,192,79036,1,2,0:0:0:0:
192,192,79236,1,0,0:0:0:0:
448,192,79236,1,0,0:0:0:0:
448,192,79336,1,4,0:0:0:0:
64,192,79336,1,0,0:0:0:0:
192,192,79336,1,2,0:0:0:0:
320,192,79536,1,0,0:0:0:0:
64,192,79536,1,0,0:0:0:0:
64,192,79636,1,4,0:0:0:0:
448,192,79636,1,0,0:0:0:0:
320,192,79636,1,2,0:0:0:0:
192,192,79836,1,0,0:0:0:0:
64,192,79836,1,0,0:0:0:0:
64,192,79936,1,0,0:0:0:0:
448,192,79936,1,2,0:0:0:0:
192,192,79936,1,4,0:0:0:0:
192,192,80236,128,4,80536:0:0:0:0:
64,192,80236,128,0,80536:0:0:0:0:
448,192,80236,128,0,80536:0:0:0:0:
64,192,80686,128,0,80986:0:0:0:0:
192,192,80686,128,4,80986:0:0:0:0:
448,192,80686,128,0,80986:0:0:0:0:
64,192,81136,128,0,81436:0:0:0:0:
192,192,81136,128,4,81436:0:0:0:0:
448,192,81136,128,0,81436:0:0:0:0:
64,192,81586,128,0,81886:0:0:0:0:
192,192,81586,128,4,81886:0:0:0:0:
448,192,81586,128,0,81886:0:0:0:0:
320,192,82036,128,4,82486:0:0:0:0:
448,192,82036,128,0,82486:0:0:0:0:
64,192,82336,128,0,82486:0:0:0:0:
192,192,82336,128,4,82486:0:0:0:0:
64,192,82636,128,0,82936:0:0:0:0:
320,192,82636,128,4,82936:0:0:0:0:
448,192,82636,128,0,82936:0:0:0:0:
64,192,83086,128,0,83386:0:0:0:0:
320,192,83086,128,4,83386:0:0:0:0:
448,192,83086,128,0,83386:0:0:0:0:
64,192,83536,128,0,83836:0:0:0:0:
320,192,83536,128,4,83836:0:0:0:0:
448,192,83536,128,0,83836:0:0:0:0:
64,192,83986,128,0,84286:0:0:0:0:
320,192,83986,128,4,84286:0:0:0:0:
448,192,83986,128,0,84286:0:0:0:0:
64,192,84436,128,0,84886:0:0:0:0:
192,192,84436,128,4,84886:0:0:0:0:
320,192,84736,128,4,84886:0:0:0:0:
448,192,84736,128,0,84886:0:0:0:0:
448,192,85036,5,0,0:0:0:0:
320,192,85036,1,4,0:0:0:0:
64,192,85036,1,0,0:0:0:0:
448,192,85336,1,0,0:0:0:0:
320,192,85336,1,4,0:0:0:0:
64,192,85336,1,0,0:0:0:0:
64,192,85636,1,0,0:0:0:0:
448,192,85636,1,0,0:0:0:0:
192,192,85636,1,4,0:0:0:0:
64,192,85936,1,0,0:0:0:0:
192,192,85936,1,4,0:0:0:0:
448,192,85936,1,0,0:0:0:0:
448,192,86236,1,0,0:0:0:0:
320,192,86236,1,0,0:0:0:70:Kick.wav
64,192,86336,1,0,0:0:0:0:
192,192,86336,1,0,0:0:0:70:Kick.wav
320,192,86436,1,0,0:0:0:70:Kick.wav
448,192,86436,1,0,0:0:0:0:
64,192,86536,1,0,0:0:0:0:
192,192,86536,1,0,0:0:0:70:Kick.wav
448,192,86636,1,0,0:0:0:0:
320,192,86636,1,0,0:0:0:70:Kick.wav
192,192,86736,1,0,0:0:0:70:Kick.wav
64,192,86736,1,0,0:0:0:0:
320,192,86836,1,0,0:0:0:70:Kick.wav
448,192,86836,1,0,0:0:0:0:
64,192,86836,1,0,0:0:0:0:
320,192,86936,1,0,0:0:0:70:Kick.wav
448,192,86936,1,0,0:0:0:0:
320,192,87036,1,0,0:0:0:0:
448,192,87036,1,0,0:0:0:70:Kick.wav
448,192,87136,1,0,0:0:0:0:
192,192,87136,1,0,0:0:0:70:Kick.wav
64,192,87136,1,0,0:0:0:0:
64,192,87236,1,0,0:0:0:70:Kick.wav
192,192,87236,1,0,0:0:0:0:
192,192,87336,1,0,0:0:0:70:Kick.wav
64,192,87336,1,0,0:0:0:0:
320,192,87436,128,4,87736:0:0:0:0:
448,192,87436,128,0,87736:0:0:0:0:
64,192,87436,128,0,87736:0:0:0:0:
64,192,87886,128,0,88186:0:0:0:0:
320,192,87886,128,4,88186:0:0:0:0:
448,192,87886,128,0,88186:0:0:0:0:
64,192,88336,128,0,88936:0:0:0:0:
192,192,88336,128,4,88936:0:0:0:0:
320,192,88636,128,4,88936:0:0:0:0:
448,192,88636,128,0,88936:0:0:0:0:
64,192,89536,1,0,0:0:0:0:
448,192,89536,1,0,0:0:0:0:
64,192,89836,1,0,0:0:0:0:
320,192,89836,1,4,0:0:0:0:
448,192,89836,1,0,0:0:0:0:
192,192,89836,1,2,0:0:0:0:
192,192,90136,1,2,0:0:0:0:
64,192,90136,1,0,0:0:0:0:
64,192,90436,1,0,0:0:0:0:
448,192,90436,1,0,0:0:0:0:
320,192,90436,1,8,0:0:0:0:
320,192,90586,1,2,0:0:0:0:
448,192,90586,1,0,0:0:0:0:
64,192,90736,1,0,0:0:0:0:
448,192,90886,1,0,0:0:0:0:
192,192,90886,1,0,0:0:0:0:
320,192,91036,1,0,0:0:0:0:
192,192,91186,1,0,0:0:0:0:
64,192,91186,1,0,0:0:0:0:
448,192,91336,1,2,0:0:0:0:
64,192,91336,1,0,0:0:0:0:
192,192,91486,1,0,0:0:0:0:
320,192,91486,1,2,0:0:0:0:
448,192,91636,1,2,0:0:0:0:
320,192,91636,1,8,0:0:0:0:
64,192,91636,1,0,0:0:0:0:
64,192,91786,1,0,0:0:0:0:
192,192,91786,1,2,0:0:0:0:
320,192,91936,1,0,0:0:0:0:
448,192,91936,128,0,92236:0:0:0:0:
192,192,92236,1,2,0:0:0:0:
64,192,92236,1,4,0:0:0:0:
320,192,92236,1,0,0:0:0:0:
64,192,92386,1,0,0:0:0:0:
320,192,92536,1,2,0:0:0:0:
192,192,92536,1,0,0:0:0:0:
448,192,92686,1,0,0:0:0:0:
448,192,92836,1,2,0:0:0:0:
320,192,92836,1,8,0:0:0:0:
64,192,92836,1,0,0:0:0:0:
64,192,92986,1,0,0:0:0:0:
192,192,92986,1,2,0:0:0:0:
320,192,93136,1,0,0:0:0:0:
64,192,93286,1,0,0:0:0:0:
448,192,93286,1,0,0:0:0:0:
192,192,93436,1,0,0:0:0:0:
448,192,93586,1,0,0:0:0:0:
320,192,93586,1,2,0:0:0:0:
192,192,93736,1,2,0:0:0:0:
64,192,93736,1,0,0:0:0:0:
448,192,93886,1,0,0:0:0:0:
320,192,93886,1,2,0:0:0:0:
64,192,94036,1,8,0:0:0:0:
448,192,94036,128,0,94336:0:0:0:0:
192,192,94036,1,0,0:0:0:0:
192,192,94186,1,2,0:0:0:0:
64,192,94186,1,0,0:0:0:0:
64,192,94336,128,0,94636:0:0:0:0:
320,192,94336,1,0,0:0:0:0:
320,192,94636,1,2,0:0:0:0:
448,192,94636,1,0,0:0:0:0:
192,192,94636,1,4,0:0:0:0:
448,192,94786,1,0,0:0:0:0:
192,192,94936,1,0,0:0:0:0:
64,192,94936,1,2,0:0:0:0:
448,192,95086,1,0,0:0:0:70:Kick.wav
320,192,95086,1,0,0:0:0:0:
192,192,95236,1,0,0:0:0:70:Kick.wav
64,192,95236,1,0,0:0:0:0:
448,192,95236,1,0,0:0:0:0:
320,192,95386,1,2,0:0:0:0:
192,192,95386,1,0,0:0:0:0:
320,192,95536,1,0,0:0:0:70:Kick.wav
448,192,95536,1,0,0:0:0:0:
192,192,95686,1,0,0:0:0:0:
64,192,95686,1,0,0:0:0:0:
320,192,95836,1,0,0:0:0:0:
64,192,95836,1,0,0:0:0:0:
192,192,95986,1,0,0:0:0:70:Kick.wav
448,192,95986,1,0,0:0:0:0:
320,192,96136,1,0,0:0:0:70:Kick.wav
448,192,96136,1,2,0:0:0:0:
64,192,96286,1,0,0:0:0:0:
192,192,96286,1,0,0:0:0:0:
320,192,96436,1,0,0:0:0:70:Kick.wav
448,192,96436,1,0,0:0:0:0:
64,192,96436,1,0,0:0:0:0:
320,192,96586,1,0,0:0:0:0:
192,192,96586,1,2,0:0:0:0:
192,192,96736,1,0,0:0:0:0:
64,192,96736,128,0,97036:0:0:0:0:
192,192,97036,1,2,0:0:0:0:
448,192,97036,1,0,0:0:0:0:
320,192,97036,1,4,0:0:0:0:
448,192,97186,1,0,0:0:0:0:
64,192,97186,1,0,0:0:0:70:Kick.wav
320,192,97261,1,0,0:0:0:0:
192,192,97336,1,2,0:0:0:0:
64,192,97336,1,0,0:0:0:70:Kick.wav
64,192,97486,1,0,0:0:0:70:Kick.wav
192,192,97486,1,0,0:0:0:0:
64,192,97636,1,0,0:0:0:70:Kick.wav
192,192,97636,1,0,0:0:0:0:
64,192,97786,1,0,0:0:0:70:Kick.wav
448,192,97786,1,2,0:0:0:0:
192,192,97861,1,0,0:0:0:0:
320,192,97936,1,0,0:0:0:0:
448,192,97936,1,0,0:0:0:70:Kick.wav
320,192,98086,1,0,0:0:0:0:
448,192,98086,1,0,0:0:0:70:Kick.wav
320,192,98236,1,0,0:0:0:0:
448,192,98236,1,0,0:0:0:70:Kick.wav
64,192,98386,5,0,0:0:0:0:
448,192,98386,1,0,0:0:0:70:Kick.wav
320,192,98461,1,0,0:0:0:0:
192,192,98536,1,0,0:0:0:70:Kick.wav
64,192,98536,1,2,0:0:0:0:
320,192,98686,1,0,0:0:0:70:Kick.wav
448,192,98686,1,2,0:0:0:0:
192,192,98836,128,0,99286:0:0:0:0:
64,192,98836,128,0,99286:0:0:0:0:
64,192,99436,128,0,99736:0:0:0:0:
448,192,99436,128,0,99736:0:0:0:0:
320,192,99436,128,4,99736:0:0:0:0:
64,192,99886,128,0,100186:0:0:0:0:
192,192,99886,128,4,100186:0:0:0:0:
448,192,99886,128,0,100186:0:0:0:0:
320,192,100336,128,4,101236:0:0:0:0:
448,192,100336,128,0,101236:0:0:0:0:
64,192,100636,128,0,101236:0:0:0:0:
192,192,100636,128,4,101236:0:0:0:0:
