osu file format v14

[General]
AudioFilename: C-Show - On the FM.mp3
AudioLeadIn: 0
PreviewTime: 60736
Countdown: 0
SampleSet: Soft
StackLeniency: 0.7
Mode: 3
LetterboxInBreaks: 0
SpecialStyle: 0
WidescreenStoryboard: 0

[Editor]
Bookmarks: 33811,104011
DistanceSpacing: 1
BeatDivisor: 4
GridSize: 4
TimelineZoom: 2.000001

[Metadata]
Title:On the FM
TitleUnicode:On the FM
Artist:C-Show
ArtistUnicode:C-Show
Creator:YaHao
Version:7K Normal
Source:beatmania IIDX 23 copula
Tags:Kawawa Feerum Raymond Kuo Kyoka KONAMI BEMANI Kaitsuu! Tokotoko line
BeatmapID:1128087
BeatmapSetID:531090

[Difficulty]
HPDrainRate:7
CircleSize:7
OverallDifficulty:7
ApproachRate:5
SliderMultiplier:1.4
SliderTickRate:1

[Events]
//Background and Video events
0,0,"59711343.png",0,0
//Break Periods
//Storyboard Layer 0 (Background)
//Storyboard Layer 1 (Fail)
//Storyboard Layer 2 (Pass)
//Storyboard Layer 3 (Foreground)
//Storyboard Sound Samples
Sample,736,0,"1stLaser.wav",70
Sample,4711,0,"Kick.wav",70
Sample,4786,0,"Kick.wav",70
Sample,4861,0,"Kick.wav",70
Sample,4936,0,"Kick.wav",70
Sample,5011,0,"Kick.wav",70
Sample,5086,0,"Kick.wav",70
Sample,5161,0,"Kick.wav",70
Sample,17986,0,"Kick.wav",70
Sample,18286,0,"Kick.wav",70
Sample,18586,0,"Kick.wav",70
Sample,18886,0,"Kick.wav",70
Sample,19486,0,"Kick.wav",70
Sample,19786,0,"Kick.wav",70
Sample,46786,0,"Kick.wav",70
Sample,49186,0,"Kick.wav",70
Sample,50686,0,"Kick.wav",70
Sample,70336,0,"Snare.wav",70
Sample,78736,0,"Snare.wav",70
Sample,97186,0,"Kick.wav",70
Sample,97336,0,"Kick.wav",70
Sample,98686,0,"Kick.wav",70

[TimingPoints]
1036,300,4,2,1,40,1,0
41836,-100,4,2,1,40,0,1
50836,-100,4,2,1,40,0,0
61036,-100,4,2,1,40,0,1
79936,-100,4,2,1,40,0,0
89836,-100,4,2,1,40,0,1
98836,-100,4,2,1,40,0,0

[HitObjects]
109,192,1036,5,0,0:0:0:0:
475,192,1036,1,0,0:0:0:0:
182,192,1336,1,0,0:0:0:0:
109,192,1336,1,0,0:0:0:0:
329,192,1786,1,0,0:0:0:0:
256,192,1936,1,0,0:0:0:0:
182,192,2086,1,0,0:0:0:0:
475,192,2236,1,0,0:0:0:0:
402,192,2236,1,0,0:0:0:0:
402,192,2536,1,0,0:0:0:0:
36,192,2536,1,0,0:0:0:0:
182,192,2986,1,0,0:0:0:0:
329,192,3136,1,0,0:0:0:0:
109,192,3436,1,0,0:0:0:70:Kick.wav
109,192,3586,1,0,0:0:0:70:Kick.wav
402,192,3736,1,0,0:0:0:70:Kick.wav
402,192,3886,1,0,0:0:0:70:Kick.wav
182,192,4036,1,0,0:0:0:70:Kick.wav
182,192,4186,1,0,0:0:0:70:Kick.wav
329,192,4336,1,0,0:0:0:70:Kick.wav
329,192,4486,1,0,0:0:0:70:Kick.wav
36,192,4636,128,0,5236:0:0:0:70:Kick.wav
475,192,5236,1,0,0:0:0:70:Kick.wav
182,192,5386,1,0,0:0:0:70:Kick.wav
329,192,5536,1,0,0:0:0:70:Kick.wav
475,192,5686,1,0,0:0:0:70:Kick.wav
109,192,5836,1,0,0:0:0:70:Kick.wav
36,192,5836,1,0,0:0:0:0:
329,192,6136,1,0,0:0:0:0:
109,192,6436,1,0,0:0:0:0:
256,192,6736,1,0,0:0:0:0:
402,192,7036,128,0,7936:0:0:0:70:2ndLaser.wav
109,192,7936,1,0,0:0:0:0:
402,192,8236,1,0,0:0:0:0:
256,192,8236,128,0,8836:0:0:0:0:
36,192,8836,1,8,0:0:0:0:
475,192,9136,1,0,0:0:0:0:
36,192,9436,1,0,0:0:0:0:
402,192,9736,1,2,0:0:0:0:
329,192,9886,1,0,0:0:0:0:
256,192,10036,1,8,0:0:0:0:
475,192,10336,128,2,10636:0:0:0:0:
36,192,10636,1,2,0:0:0:0:
329,192,10636,1,0,0:0:0:0:
109,192,10936,1,0,0:0:0:0:
182,192,11236,1,8,0:0:0:0:
475,192,11536,1,0,0:0:0:0:
36,192,11836,1,0,0:0:0:0:
329,192,12136,1,2,0:0:0:0:
256,192,12286,1,2,0:0:0:0:
182,192,12436,1,2,0:0:0:0:
475,192,12736,1,0,0:0:0:0:
36,192,13036,1,0,0:0:0:70:NEXT1.wav
256,192,13036,1,0,0:0:0:0:
109,192,13486,1,0,0:0:0:70:NEXT2.wav
329,192,13486,1,0,0:0:0:0:
182,192,13936,1,0,0:0:0:70:NEXT3.wav
402,192,13936,1,0,0:0:0:0:
256,192,14386,1,0,0:0:0:70:NEXT4.wav
475,192,14386,1,0,0:0:0:0:
182,192,14836,1,0,0:0:0:70:NEXT5.wav
109,192,14836,1,0,0:0:0:0:
329,192,15136,1,0,0:0:0:70:NEXT6.wav
402,192,15136,1,0,0:0:0:0:
182,192,15436,1,0,0:0:0:70:3rdLaser.wav
36,192,15436,128,0,17536:0:0:0:0:
475,192,17836,1,0,0:0:0:70:Kick.wav
402,192,18136,1,0,0:0:0:70:Kick.wav
109,192,18136,1,0,0:0:0:0:
182,192,18436,1,0,0:0:0:70:Kick.wav
36,192,18736,1,0,0:0:0:70:Kick.wav
475,192,18736,1,0,0:0:0:0:
402,192,19036,1,0,0:0:0:70:Kick.wav
109,192,19336,1,0,0:0:0:0:
329,192,19486,1,0,0:0:0:70:Kick.wav
182,192,19636,1,0,0:0:0:70:Kick.wav
402,192,19786,1,0,0:0:0:0:
256,192,19936,1,0,0:0:0:70:Kick.wav
36,192,20236,1,4,0:0:0:0:
475,192,20236,1,2,0:0:0:0:
329,192,20536,1,2,0:0:0:0:
182,192,20836,1,2,0:0:0:0:
109,192,20836,1,0,0:0:0:0:
329,192,21136,1,2,0:0:0:0:
36,192,21436,1,2,0:0:0:0:
109,192,21436,1,0,0:0:0:0:
329,192,21586,1,0,0:0:0:0:
256,192,21736,1,2,0:0:0:0:
182,192,21886,1,0,0:0:0:0:
475,192,22036,1,2,0:0:0:0:
402,192,22036,1,0,0:0:0:0:
109,192,22336,128,2,22636:0:0:0:0:
329,192,22336,1,0,0:0:0:0:
402,192,22636,1,2,0:0:0:0:
182,192,22636,1,0,0:0:0:0:
256,192,22936,1,2,0:0:0:0:
329,192,23236,1,2,0:0:0:0:
475,192,23236,1,0,0:0:0:0:
36,192,23536,1,2,0:0:0:0:
475,192,23836,1,2,0:0:0:0:
182,192,23836,1,0,0:0:0:0:
329,192,24136,1,2,0:0:0:0:
475,192,24436,1,2,0:0:0:0:
402,192,24436,1,0,0:0:0:0:
36,192,24586,1,0,0:0:0:0:
182,192,24736,1,2,0:0:0:0:
329,192,24886,1,2,0:0:0:0:
36,192,25036,1,2,0:0:0:0:
109,192,25036,1,4,0:0:0:0:
475,192,25336,1,0,0:0:0:0:
402,192,25336,1,0,0:0:0:0:
329,192,25636,1,2,0:0:0:0:
256,192,25936,1,2,0:0:0:0:
36,192,25936,1,0,0:0:0:0:
402,192,26236,1,2,0:0:0:0:
475,192,26236,1,0,0:0:0:0:
182,192,26386,1,0,0:0:0:0:
256,192,26536,1,2,0:0:0:0:
329,192,26686,1,0,0:0:0:0:
109,192,26836,1,2,0:0:0:0:
36,192,26836,1,0,0:0:0:0:
475,192,27136,128,2,27436:0:0:0:0:
182,192,27136,1,0,0:0:0:0:
329,192,27436,1,4,0:0:0:0:
36,192,27436,1,2,0:0:0:0:
182,192,27736,1,2,0:0:0:0:
329,192,28036,1,2,0:0:0:0:
402,192,28036,1,0,0:0:0:0:
36,192,28336,1,2,0:0:0:0:
182,192,28336,1,0,0:0:0:0:
329,192,28486,1,2,0:0:0:0:
475,192,28486,1,4,0:0:0:0:
36,192,28936,1,2,0:0:0:0:
256,192,28936,1,0,0:0:0:0:
329,192,29236,1,2,0:0:0:0:
109,192,29236,1,0,0:0:0:0:
182,192,29536,1,2,0:0:0:0:
402,192,29536,1,0,0:0:0:0:
256,192,29836,1,4,0:0:0:0:
36,192,29836,1,2,0:0:0:0:
475,192,29836,1,0,0:0:0:0:
329,192,30136,1,2,0:0:0:0:
402,192,30136,1,0,0:0:0:0:
182,192,30436,1,2,0:0:0:0:
109,192,30436,1,0,0:0:0:0:
475,192,30736,1,2,0:0:0:0:
329,192,30736,1,0,0:0:0:0:
402,192,31036,1,2,0:0:0:0:
256,192,31036,1,0,0:0:0:0:
182,192,31336,1,2,0:0:0:0:
36,192,31336,1,0,0:0:0:0:
329,192,31636,1,2,0:0:0:0:
475,192,31636,1,0,0:0:0:0:
256,192,31936,1,2,0:0:0:0:
36,192,31936,128,0,32236:0:0:0:0:
182,192,32236,1,2,0:0:0:0:
402,192,32236,1,4,0:0:0:0:
109,192,32536,1,2,0:0:0:0:
36,192,32536,1,0,0:0:0:0:
329,192,32836,1,2,0:0:0:0:
402,192,32836,1,0,0:0:0:0:
256,192,33136,1,2,0:0:0:0:
109,192,33136,1,0,0:0:0:0:
402,192,33436,1,2,0:0:0:0:
475,192,33436,1,0,0:0:0:0:
109,192,33736,1,2,0:0:0:0:
36,192,33736,1,0,0:0:0:0:
182,192,34036,1,2,0:0:0:0:
402,192,34036,1,0,0:0:0:0:
256,192,34336,1,2,0:0:0:0:
36,192,34336,1,0,0:0:0:0:
329,192,34636,1,2,0:0:0:0:
475,192,34636,1,4,0:0:0:0:
402,192,34936,1,2,0:0:0:0:
109,192,34936,1,0,0:0:0:0:
182,192,35236,1,2,0:0:0:0:
329,192,35236,1,0,0:0:0:0:
256,192,35536,1,2,0:0:0:0:
475,192,35536,1,0,0:0:0:0:
36,192,35836,1,2,0:0:0:0:
182,192,35836,1,4,0:0:0:0:
329,192,36136,1,2,0:0:0:0:
402,192,36136,1,0,0:0:0:0:
256,192,36436,1,2,0:0:0:0:
109,192,36436,1,0,0:0:0:0:
182,192,36736,128,2,37036:0:0:0:0:
329,192,36736,1,0,0:0:0:0:
402,192,37036,1,2,0:0:0:0:
475,192,37036,1,4,0:0:0:0:
36,192,37336,1,2,0:0:0:0:
109,192,37486,1,2,0:0:0:0:
182,192,37636,1,2,0:0:0:0:
402,192,37636,1,4,0:0:0:0:
329,192,37936,1,2,0:0:0:0:
475,192,37936,1,0,0:0:0:0:
182,192,38086,1,4,0:0:0:0:
36,192,38086,1,2,0:0:0:0:
475,192,38536,1,2,0:0:0:0:
256,192,38536,1,0,0:0:0:0:
402,192,38836,1,2,0:0:0:0:
182,192,38836,1,0,0:0:0:0:
109,192,39136,1,2,0:0:0:0:
329,192,39136,1,0,0:0:0:0:
256,192,39436,1,4,0:0:0:0:
475,192,39436,1,2,0:0:0:0:
36,192,39436,1,0,0:0:0:0:
256,192,40936,128,0,41536:0:0:0:0:
256,192,41836,1,2,0:0:0:0:
475,192,41836,1,4,0:0:0:0:
36,192,41836,1,0,0:0:0:0:
329,192,42136,1,2,0:0:0:0:
402,192,42136,1,0,0:0:0:0:
182,192,42586,1,2,0:0:0:0:
109,192,42586,1,0,0:0:0:0:
475,192,43036,1,0,0:0:0:0:
256,192,43036,1,0,0:0:0:0:
402,192,43336,1,2,0:0:0:0:
182,192,43336,1,0,0:0:0:0:
109,192,43636,1,8,0:0:0:0:
329,192,43636,1,0,0:0:0:0:
36,192,43936,1,0,0:0:0:0:
256,192,43936,128,0,44236:0:0:0:0:
402,192,44236,1,2,0:0:0:0:
475,192,44236,1,4,0:0:0:0:
109,192,44536,1,2,0:0:0:0:
182,192,44536,1,0,0:0:0:0:
329,192,44986,1,2,0:0:0:0:
402,192,44986,1,0,0:0:0:0:
36,192,45436,1,0,0:0:0:0:
256,192,45436,1,0,0:0:0:0:
109,192,45736,1,2,0:0:0:0:
329,192,45736,1,0,0:0:0:0:
182,192,46036,1,8,0:0:0:0:
402,192,46036,1,0,0:0:0:0:
256,192,46336,128,0,46636:0:0:0:0:
475,192,46336,1,0,0:0:0:0:
109,192,46636,1,4,0:0:0:0:
36,192,46636,1,2,0:0:0:0:
182,192,46936,1,2,0:0:0:0:
475,192,46936,1,0,0:0:0:0:
402,192,47086,1,0,0:0:0:70:Kick.wav
329,192,47236,1,0,0:0:0:70:Kick.wav
36,192,47236,1,0,0:0:0:0:
402,192,47536,1,0,0:0:0:70:Kick.wav
475,192,47536,1,0,0:0:0:0:
36,192,47836,1,0,0:0:0:0:
329,192,47836,1,0,0:0:0:0:
109,192,47986,1,0,0:0:0:70:Kick.wav
182,192,48136,1,2,0:0:0:0:
475,192,48136,1,0,0:0:0:70:Kick.wav
109,192,48436,1,0,0:0:0:70:Kick.wav
36,192,48436,1,0,0:0:0:0:
475,192,48736,1,2,0:0:0:0:
329,192,48736,128,0,49036:0:0:0:0:
256,192,49036,1,4,0:0:0:0:
402,192,49036,1,2,0:0:0:0:
109,192,49036,1,0,0:0:0:0:
182,192,49336,1,0,0:0:0:70:Kick.wav
182,192,49486,1,0,0:0:0:70:Kick.wav
329,192,49636,1,0,0:0:0:70:Kick.wav
329,192,49786,1,0,0:0:0:70:Kick.wav
109,192,49936,1,0,0:0:0:70:Kick.wav
109,192,50086,1,0,0:0:0:70:Kick.wav
475,192,50236,1,0,0:0:0:70:Kick.wav
256,192,50386,1,0,0:0:0:70:Kick.wav
36,192,50536,1,0,0:0:0:70:Kick.wav
475,192,50836,128,0,51436:0:0:0:70:Kick.wav
256,192,51436,1,0,0:0:0:70:Girls.wav
36,192,51436,1,4,0:0:0:0:
256,192,51886,1,0,0:0:0:70:Girls.wav
36,192,51886,1,4,0:0:0:0:
36,192,52336,1,4,0:0:0:0:
256,192,52336,1,0,0:0:0:70:Girls.wav
36,192,52786,1,0,0:0:0:70:Girls.wav
256,192,52786,1,4,0:0:0:0:
109,192,53236,1,4,0:0:0:0:
182,192,53236,1,0,0:0:0:0:
329,192,53536,1,4,0:0:0:0:
402,192,53536,1,0,0:0:0:0:
256,192,53836,1,4,0:0:0:0:
475,192,53836,1,0,0:0:0:70:Girls.wav
256,192,54286,1,4,0:0:0:0:
475,192,54286,1,0,0:0:0:70:Girls.wav
256,192,54736,1,4,0:0:0:0:
475,192,54736,1,0,0:0:0:70:Girls.wav
256,192,55186,1,4,0:0:0:0:
475,192,55186,1,0,0:0:0:70:Girls.wav
329,192,55636,1,4,0:0:0:0:
402,192,55636,1,0,0:0:0:0:
182,192,55936,1,4,0:0:0:0:
109,192,55936,1,0,0:0:0:0:
475,192,56236,1,4,0:0:0:0:
329,192,56236,1,0,0:0:0:0:
182,192,56536,1,4,0:0:0:0:
36,192,56536,1,0,0:0:0:0:
329,192,56836,1,4,0:0:0:0:
402,192,56836,1,0,0:0:0:0:
182,192,57136,1,4,0:0:0:0:
109,192,57136,1,0,0:0:0:0:
475,192,57436,128,0,58036:0:0:0:70:Kick.wav
329,192,57436,1,0,0:0:0:0:
36,192,58036,128,0,58636:0:0:0:70:Kick.wav
182,192,58336,128,0,58636:0:0:0:70:Kick.wav
402,192,58636,1,4,0:0:0:0:
475,192,58636,1,0,0:0:0:0:
256,192,59086,1,4,0:0:0:0:
329,192,59086,1,0,0:0:0:0:
36,192,59536,1,4,0:0:0:0:
182,192,59536,1,0,0:0:0:0:
329,192,59836,1,0,0:0:0:0:
475,192,59836,1,0,0:0:0:0:
329,192,60736,1,0,0:0:0:70:Snare.wav
475,192,60736,1,0,0:0:0:0:
109,192,61036,1,0,0:0:0:70:Snare.wav
256,192,61036,1,0,0:0:0:0:
402,192,61036,1,0,0:0:0:0:
182,192,61336,1,0,0:0:0:70:Snare.wav
36,192,61336,1,0,0:0:0:0:
402,192,61636,1,2,0:0:0:0:
329,192,61936,1,0,0:0:0:70:Snare.wav
256,192,62236,1,2,0:0:0:0:
475,192,62236,1,0,0:0:0:0:
182,192,62536,1,0,0:0:0:70:Snare.wav
36,192,62536,1,0,0:0:0:0:
329,192,62836,1,2,0:0:0:0:
182,192,63136,1,0,0:0:0:70:Snare.wav
475,192,63436,1,2,0:0:0:0:
36,192,63436,1,0,0:0:0:0:
402,192,63736,1,0,0:0:0:70:Snare.wav
256,192,63736,1,0,0:0:0:0:
182,192,64036,1,2,0:0:0:0:
36,192,64036,1,0,0:0:0:0:
329,192,64336,1,0,0:0:0:70:Snare.wav
36,192,64636,1,2,0:0:0:0:
475,192,64636,1,0,0:0:0:0:
109,192,64936,1,0,0:0:0:70:Snare.wav
182,192,65236,1,2,0:0:0:0:
329,192,65236,1,0,0:0:0:0:
402,192,65536,1,0,0:0:0:70:Snare.wav
182,192,65836,1,2,0:0:0:0:
109,192,65836,1,0,0:0:0:0:
329,192,66136,1,0,0:0:0:70:Snare.wav
475,192,66136,1,0,0:0:0:0:
182,192,66436,1,2,0:0:0:0:
256,192,66736,1,0,0:0:0:70:Snare.wav
329,192,67036,1,2,0:0:0:0:
402,192,67036,1,0,0:0:0:0:
182,192,67336,1,0,0:0:0:70:Snare.wav
36,192,67336,1,0,0:0:0:0:
402,192,67636,1,2,0:0:0:0:
329,192,67936,1,0,0:0:0:70:Snare.wav
256,192,68236,1,2,0:0:0:0:
36,192,68236,1,0,0:0:0:0:
109,192,68536,1,0,0:0:0:70:Snare.wav
182,192,68836,1,2,0:0:0:0:
475,192,68836,1,0,0:0:0:0:
402,192,69136,1,0,0:0:0:70:Snare.wav
329,192,69436,1,2,0:0:0:0:
182,192,69436,1,0,0:0:0:0:
109,192,69736,1,0,0:0:0:70:Snare.wav
475,192,70036,1,2,0:0:0:0:
36,192,70036,1,0,0:0:0:0:
329,192,70336,1,0,0:0:0:0:
256,192,70636,1,2,0:0:0:0:
402,192,70636,1,4,0:0:0:0:
109,192,70636,1,0,0:0:0:0:
329,192,70936,1,0,0:0:0:70:Snare.wav
182,192,70936,1,0,0:0:0:0:
36,192,71236,1,2,0:0:0:0:
109,192,71536,1,0,0:0:0:70:Snare.wav
475,192,71836,1,2,0:0:0:0:
182,192,71836,1,0,0:0:0:0:
256,192,72136,1,0,0:0:0:70:Snare.wav
402,192,72136,1,0,0:0:0:0:
109,192,72436,1,2,0:0:0:0:
329,192,72736,1,0,0:0:0:70:Snare.wav
109,192,73036,1,2,0:0:0:0:
36,192,73036,1,0,0:0:0:0:
182,192,73336,1,0,0:0:0:70:Snare.wav
329,192,73336,1,0,0:0:0:0:
402,192,73636,1,2,0:0:0:0:
475,192,73636,1,0,0:0:0:0:
256,192,73936,1,0,0:0:0:70:Snare.wav
109,192,74236,1,2,0:0:0:0:
36,192,74236,1,0,0:0:0:0:
475,192,74536,1,0,0:0:0:70:Snare.wav
329,192,74836,1,2,0:0:0:0:
182,192,74836,1,0,0:0:0:0:
36,192,75136,1,0,0:0:0:70:Snare.wav
256,192,75436,1,4,0:0:0:0:
475,192,75436,1,2,0:0:0:0:
402,192,75736,1,0,0:0:0:70:Snare.wav
182,192,75736,1,0,0:0:0:0:
109,192,76036,1,2,0:0:0:0:
329,192,76336,1,0,0:0:0:70:Snare.wav
256,192,76636,1,2,0:0:0:0:
36,192,76636,1,0,0:0:0:0:
182,192,76936,1,0,0:0:0:70:Snare.wav
475,192,76936,1,0,0:0:0:0:
329,192,77236,1,2,0:0:0:0:
182,192,77536,1,0,0:0:0:70:Snare.wav
329,192,77836,1,2,0:0:0:0:
475,192,77836,1,0,0:0:0:0:
36,192,78136,1,0,0:0:0:70:Snare.wav
182,192,78436,1,2,0:0:0:0:
329,192,78436,1,0,0:0:0:0:
256,192,78936,1,0,0:0:0:0:
402,192,78936,1,0,0:0:0:0:
109,192,78936,1,0,0:0:0:0:
329,192,79336,1,4,0:0:0:0:
475,192,79336,1,2,0:0:0:0:
182,192,79636,1,4,0:0:0:0:
36,192,79636,1,2,0:0:0:0:
329,192,79936,1,2,0:0:0:0:
475,192,79936,1,4,0:0:0:0:
36,192,80236,1,4,0:0:0:0:
256,192,80236,1,0,0:0:0:0:
36,192,80686,1,4,0:0:0:0:
256,192,80686,1,0,0:0:0:0:
36,192,81136,1,4,0:0:0:0:
256,192,81136,1,0,0:0:0:0:
36,192,81586,1,4,0:0:0:0:
256,192,81586,1,0,0:0:0:0:
329,192,82036,1,4,0:0:0:0:
402,192,82036,1,0,0:0:0:0:
182,192,82336,1,4,0:0:0:0:
109,192,82336,1,0,0:0:0:0:
256,192,82636,1,4,0:0:0:0:
475,192,82636,1,0,0:0:0:0:
256,192,83086,1,4,0:0:0:0:
475,192,83086,1,0,0:0:0:0:
256,192,83536,1,4,0:0:0:0:
475,192,83536,1,0,0:0:0:0:
256,192,83986,1,4,0:0:0:0:
475,192,83986,1,0,0:0:0:0:
182,192,84436,1,4,0:0:0:0:
109,192,84436,1,0,0:0:0:0:
329,192,84736,1,4,0:0:0:0:
402,192,84736,1,0,0:0:0:0:
36,192,85036,1,4,0:0:0:0:
182,192,85036,1,0,0:0:0:0:
329,192,85336,1,4,0:0:0:0:
475,192,85336,1,0,0:0:0:0:
182,192,85636,1,4,0:0:0:0:
109,192,85636,1,0,0:0:0:0:
329,192,85936,1,4,0:0:0:0:
402,192,85936,1,0,0:0:0:0:
182,192,86236,1,0,0:0:0:70:Kick.wav
36,192,86236,128,0,86836:0:0:0:0:
475,192,86836,128,0,87436:0:0:0:70:Kick.wav
329,192,87136,128,0,87436:0:0:0:70:Kick.wav
109,192,87436,1,4,0:0:0:0:
36,192,87436,1,0,0:0:0:0:
182,192,87886,1,4,0:0:0:0:
256,192,87886,1,0,0:0:0:0:
329,192,88336,1,4,0:0:0:0:
475,192,88336,1,0,0:0:0:0:
182,192,88636,1,4,0:0:0:0:
36,192,88636,1,0,0:0:0:0:
256,192,89536,1,0,0:0:0:0:
256,192,89836,1,4,0:0:0:0:
36,192,89836,1,2,0:0:0:0:
475,192,89836,1,0,0:0:0:0:
182,192,90136,1,2,0:0:0:0:
109,192,90136,1,0,0:0:0:0:
329,192,90586,1,2,0:0:0:0:
402,192,90586,1,0,0:0:0:0:
256,192,91036,1,0,0:0:0:0:
36,192,91036,1,0,0:0:0:0:
109,192,91336,1,2,0:0:0:0:
329,192,91336,1,0,0:0:0:0:
182,192,91636,1,2,0:0:0:0:
402,192,91636,1,8,0:0:0:0:
256,192,91936,128,0,92236:0:0:0:0:
475,192,91936,1,0,0:0:0:0:
109,192,92236,1,2,0:0:0:0:
36,192,92236,1,4,0:0:0:0:
329,192,92536,1,2,0:0:0:0:
402,192,92536,1,0,0:0:0:0:
182,192,92986,1,2,0:0:0:0:
109,192,92986,1,0,0:0:0:0:
256,192,93436,1,0,0:0:0:0:
475,192,93436,1,0,0:0:0:0:
402,192,93736,1,2,0:0:0:0:
182,192,93736,1,0,0:0:0:0:
329,192,94036,1,8,0:0:0:0:
109,192,94036,1,0,0:0:0:0:
36,192,94336,1,0,0:0:0:0:
256,192,94336,128,0,94636:0:0:0:0:
402,192,94636,1,2,0:0:0:0:
475,192,94636,1,4,0:0:0:0:
329,192,94936,1,2,0:0:0:0:
36,192,94936,1,0,0:0:0:0:
109,192,95086,1,0,0:0:0:70:Kick.wav
182,192,95236,1,0,0:0:0:70:Kick.wav
475,192,95236,1,0,0:0:0:0:
109,192,95536,1,0,0:0:0:70:Kick.wav
36,192,95536,1,0,0:0:0:0:
182,192,95836,1,0,0:0:0:0:
475,192,95836,1,0,0:0:0:0:
402,192,95986,1,0,0:0:0:0:
329,192,96136,1,2,0:0:0:0:
36,192,96136,1,0,0:0:0:0:
402,192,96436,1,0,0:0:0:70:Kick.wav
475,192,96436,1,0,0:0:0:0:
36,192,96736,1,0,0:0:0:0:
182,192,96736,128,0,97036:0:0:0:0:
256,192,97036,1,2,0:0:0:0:
109,192,97036,1,4,0:0:0:0:
402,192,97036,1,0,0:0:0:0:
329,192,97336,1,2,0:0:0:0:
329,192,97486,1,0,0:0:0:70:Kick.wav
182,192,97636,1,0,0:0:0:70:Kick.wav
182,192,97786,1,0,0:0:0:70:Kick.wav
402,192,97936,1,0,0:0:0:70:Kick.wav
402,192,98086,1,0,0:0:0:70:Kick.wav
36,192,98236,1,0,0:0:0:70:Kick.wav
256,192,98386,1,0,0:0:0:70:Kick.wav
475,192,98536,1,0,0:0:0:70:Kick.wav
36,192,98836,128,0,99436:0:0:0:0:
329,192,99436,1,4,0:0:0:0:
402,192,99436,1,0,0:0:0:0:
109,192,99886,1,4,0:0:0:0:
182,192,99886,1,0,0:0:0:0:
329,192,100336,1,4,0:0:0:0:
475,192,100336,1,0,0:0:0:0:
182,192,100636,1,4,0:0:0:0:
36,192,100636,1,0,0:0:0:0:
