osu file format v14

[General]
AudioFilename: audio.mp3
AudioLeadIn: 0
PreviewTime: 60750
Countdown: 0
SampleSet: Soft
StackLeniency: 0.7
Mode: 0
LetterboxInBreaks: 0
WidescreenStoryboard: 0

[Editor]
DistanceSpacing: 0.2
BeatDivisor: 3
GridSize: 4
TimelineZoom: 2.3

[Metadata]
Title:On the FM
TitleUnicode:On the FM
Artist:C-Show
ArtistUnicode:C-Show
Creator:REUSE-ABLE
Version:LIVE
Source:beatmania IIDX 23 copula
Tags:
BeatmapID:1529870
BeatmapSetID:724513

[Difficulty]
HPDrainRate:5
CircleSize:4
OverallDifficulty:7
ApproachRate:9.7
SliderMultiplier:2.2
SliderTickRate:1

[Events]
//Background and Video events
0,0,"610023-1366x768-[DesktopNexus.com].jpg",0,0
//Break Periods
//Storyboard Layer 0 (Background)
//Storyboard Layer 1 (Fail)
//Storyboard Layer 2 (Pass)
//Storyboard Layer 3 (Foreground)
//Storyboard Sound Samples

[TimingPoints]
1041,300,4,2,1,80,1,0
1041,-142.857142857143,4,2,1,80,0,0
5841,-100,4,2,1,80,0,0
7341,-133.333333333333,4,2,1,80,0,0
7641,-200,4,2,1,80,0,0
7941,-50,4,2,1,80,0,0
8241,-83.3333333333333,4,2,1,80,0,0
8841,-100,4,2,1,80,0,0
13041,-71.4285714285714,4,2,1,80,0,0
15141,-66.6666666666667,4,2,1,80,0,0
15441,-133.333333333333,4,2,1,80,0,0
17841,-133.333333333333,4,2,1,80,0,0
20241,-83.3333333333333,4,2,1,80,0,0
21591,-71.4285714285714,4,2,1,80,0,0
22641,-83.3333333333333,4,2,1,80,0,0
26391,-71.4285714285714,4,2,1,80,0,0
27441,-100,4,2,1,80,0,0
28491,-66.6666666666667,4,2,1,80,0,0
29841,-76.9230769230769,4,2,1,80,0,0
39141,-200,4,2,1,80,0,0
39441,-100,4,2,1,80,0,0
41541,-66.6666666666667,4,2,1,80,0,0
41841,-66.6666666666667,4,2,1,80,0,0
42141,-76.9230769230769,4,2,1,80,0,0
51441,-100,4,2,1,80,0,0
53541,-76.9230769230769,4,2,1,80,0,0
53841,-100,4,2,1,80,0,0
60741,-76.9230769230769,4,2,1,80,0,0

[Colours]
Combo1 : 117,117,255
Combo2 : 255,255,255
Combo3 : 255,255,0
Combo4 : 91,202,255

[HitObjects]
104,200,1041,6,0,L|184:200,1,76.9999976501466
181,200,1341,1,0,0:0:0:0:
264,244,1791,5,0,0:0:0:0:
272,252,1866,1,0,0:0:0:0:
280,260,1941,1,0,0:0:0:0:
288,160,2091,1,0,0:0:0:0:
428,248,2241,6,0,L|344:200,1,76.9999976501466
368,211,2541,1,0,0:0:0:0:
240,124,2991,5,0,0:0:0:0:
232,136,3066,1,0,0:0:0:0:
224,148,3141,2,0,B|208:176|208:176|240:228,1,76.9999976501466
424,16,3441,5,0,0:0:0:0:
464,168,3591,1,0,0:0:0:0:
312,176,3741,1,0,0:0:0:0:
296,32,3891,1,0,0:0:0:0:
436,24,4041,1,0,0:0:0:0:
464,208,4191,1,0,0:0:0:0:
320,224,4341,1,0,0:0:0:0:
300,76,4491,1,0,0:0:0:0:
228,160,4641,5,0,0:0:0:0:
237,165,4716,1,0,0:0:0:0:
247,171,4791,1,0,0:0:0:0:
253,178,4866,1,0,0:0:0:0:
260,188,4941,2,0,L|288:256,1,38.4999988250733
124,144,5091,6,0,P|99:129|48:152,1,76.9999976501466
160,280,5391,1,0,0:0:0:0:
320,200,5541,1,0,0:0:0:0:
224,88,5691,1,0,0:0:0:0:
200,192,5841,6,0,B|212:272|212:272|256:324,1,110
356,192,6141,1,0,0:0:0:0:
316,92,6291,2,0,B|276:44|276:44|216:80,1,110
272,196,6591,1,0,0:0:0:0:
356,256,6741,2,0,B|368:332|368:332|336:360,1,110
152,312,7041,6,0,P|88:256|112:212,1,110
136,208,7341,2,0,P|140:176|192:156,1,82.5000031471254
236,192,7641,2,0,P|272:188|292:216,1,55
276,288,7941,6,0,P|344:264|344:116,1,220
256,76,8241,6,0,L|256:156,1,65.9999979858399
200,80,8391,2,0,L|200:168,1,65.9999979858399
216,328,8541,2,0,P|328:332|420:276,1,197.99999395752
432,240,8841,5,0,0:0:0:0:
336,168,8991,5,0,0:0:0:0:
392,76,9141,2,0,L|272:72,1,110
160,80,9441,1,0,0:0:0:0:
244,272,9591,2,0,L|128:268,1,110
48,228,9891,1,0,0:0:0:0:
52,112,10041,2,0,L|152:32,1,110
188,88,10341,2,0,B|192:128|192:128|184:156|184:156|184:232,1,110
216,288,10641,5,0,0:0:0:0:
288,228,10791,2,0,B|288:172|288:172|316:100,1,110
384,48,11091,1,0,0:0:0:0:
424,132,11241,2,0,P|392:188|320:192,1,110
300,272,11541,6,0,P|252:356|232:360,1,110
220,192,11841,1,0,0:0:0:0:
80,100,11991,2,0,P|104:48|168:44,1,110
220,192,12291,5,0,0:0:0:0:
336,212,12441,2,0,P|412:180|388:132,1,110
360,40,12741,2,0,B|340:72|340:72|308:92|308:92|280:140|280:140|232:184,1,165
72,268,13041,6,0,L|208:360,1,153.999995300293
300,328,13341,1,0,0:0:0:0:
288,240,13491,6,0,L|168:144,1,153.999995300293
160,56,13791,1,0,0:0:0:0:
244,28,13941,6,0,L|416:108,1,153.999995300293
412,172,14241,1,0,0:0:0:0:
376,264,14391,6,0,L|236:176,1,153.999995300293
232,80,14691,1,0,0:0:0:0:
140,120,14841,6,0,P|68:172|136:228,1,153.999995300293
164,264,15141,6,0,P|244:232|216:228,1,330.000012588501
256,192,15741,12,0,17541,0:0:0:0:
136,232,17841,6,0,P|152:260|180:264,1,41.2500015735627,12|0,0:0|0:0,0:0:0:0:
184,268,17991,1,0,0:0:0:0:
224,260,18066,1,0,0:0:0:0:
232,168,18141,5,10,0:0:0:0:
268,148,18216,1,0,0:0:0:0:
304,160,18291,1,0,0:0:0:0:
332,200,18366,1,0,0:0:0:0:
328,276,18441,6,0,L|268:280,1,41.2500015735627
254,278,18591,1,0,0:0:0:0:
217,275,18666,1,0,0:0:0:0:
176,264,18741,1,0,0:0:0:0:
144,228,18816,1,0,0:0:0:0:
116,180,18891,1,0,0:0:0:0:
112,128,18966,1,0,0:0:0:0:
132,76,19041,6,0,L|184:108,1,41.2500015735627,10|0,0:0|0:0,0:0:0:0:
368,264,19191,2,0,L|320:224,1,41.2500015735627
212,264,19341,2,0,L|224:184,1,41.2500015735627,10|0,0:0|0:0,0:0:0:0:
388,60,19491,2,0,L|320:60,1,41.2500015735627
320,84,19641,5,10,0:0:0:0:
296,112,19716,1,0,0:0:0:0:
300,144,19791,1,0,0:0:0:0:
316,240,19941,5,10,0:0:0:0:
124,112,20241,5,0,0:0:0:0:
232,328,20391,1,0,0:0:0:0:
316,240,20541,1,0,0:0:0:0:
316,208,20616,1,0,0:0:0:0:
316,180,20691,1,0,0:0:0:0:
400,56,20841,6,0,P|444:112|424:184,1,131.99999597168
328,304,21141,2,0,P|268:222|313:158,1,131.99999597168
184,288,21441,5,0,0:0:0:0:
224,208,21591,2,0,B|252:152|252:152|288:116|288:116|304:68,1,153.999995300293
216,80,21891,2,0,P|184:112|144:116,2,76.9999976501466
292,24,22191,5,0,0:0:0:0:
264,280,22341,1,0,0:0:0:0:
408,136,22491,1,0,0:0:0:0:
256,72,22641,6,0,L|208:144,2,65.9999979858399
356,68,22941,1,0,0:0:0:0:
448,232,23091,1,0,0:0:0:0:
284,104,23241,5,0,0:0:0:0:
136,172,23391,1,0,0:0:0:0:
352,112,23541,5,0,0:0:0:0:
424,256,23691,1,0,0:0:0:0:
288,136,23841,5,0,0:0:0:0:
196,252,23991,1,0,0:0:0:0:
356,152,24141,1,0,0:0:0:0:
364,280,24291,6,0,P|344:320|312:344,1,65.9999979858399
316,264,24441,2,0,P|304:296|260:316,1,65.9999979858399
128,228,24591,6,0,P|176:224|208:192,1,65.9999979858399
120,208,24741,2,0,P|152:152|224:132,1,131.99999597168
292,64,25041,5,0,0:0:0:0:
340,80,25116,1,0,0:0:0:0:
356,116,25191,1,0,0:0:0:0:
376,216,25341,5,0,0:0:0:0:
364,264,25416,1,0,0:0:0:0:
328,296,25491,1,0,0:0:0:0:
288,352,25641,5,0,0:0:0:0:
128,352,25791,1,0,0:0:0:0:
200,280,25941,5,0,0:0:0:0:
340,228,26091,1,0,0:0:0:0:
232,124,26241,1,0,0:0:0:0:
304,232,26391,5,0,0:0:0:0:
416,348,26541,2,0,B|356:348|356:348|312:360|312:360|248:360,1,153.999995300293
176,352,26841,6,0,P|240:356|340:324,1,153.999995300293
368,264,27141,5,0,0:0:0:0:
364,240,27216,1,0,0:0:0:0:
304,232,27291,5,0,0:0:0:0:
300,204,27366,1,0,0:0:0:0:
296,168,27441,1,0,0:0:0:0:
228,32,27591,1,0,0:0:0:0:
132,240,27741,5,0,0:0:0:0:
228,56,27891,1,0,0:0:0:0:
256,200,28041,6,0,P|320:252|368:220,1,110
404,140,28341,1,0,0:0:0:0:
436,244,28491,2,0,P|400:336|216:256,1,330.000012588501
144,140,28866,1,0,0:0:0:0:
180,164,28941,6,0,L|336:248,1,165.000006294251
396,308,29241,1,0,0:0:0:0:
452,216,29391,6,0,L|344:48,1,165.000006294251
280,64,29691,2,0,P|184:48|144:136,1,165.000006294251
144,196,29991,5,0,0:0:0:0:
204,340,30141,5,0,0:0:0:0:
304,64,30291,1,0,0:0:0:0:
188,116,30441,5,0,0:0:0:0:
336,288,30591,1,0,0:0:0:0:
464,88,30741,5,0,0:0:0:0:
236,32,30891,1,0,0:0:0:0:
284,96,31041,6,0,L|400:208,1,142.99999345398
272,128,31341,2,0,P|296:224|232:264,1,142.99999345398
244,188,31641,2,0,P|220:216|208:148,1,142.99999345398
216,80,31941,5,0,0:0:0:0:
360,84,32091,1,0,0:0:0:0:
412,196,32241,5,0,0:0:0:0:
380,216,32316,1,0,0:0:0:0:
340,224,32391,1,0,0:0:0:0:
140,200,32541,5,0,0:0:0:0:
268,116,32691,2,0,P|272:144|256:196,1,71.4999967269899
200,256,32841,5,0,0:0:0:0:
380,104,32991,1,0,0:0:0:0:
404,328,33141,5,0,0:0:0:0:
224,72,33291,1,0,0:0:0:0:
388,224,33441,5,0,0:0:0:0:
104,292,33591,1,0,0:0:0:0:
124,368,33741,6,0,P|228:388|292:348,1,142.99999345398
432,56,34041,2,0,P|352:96|276:48,1,142.99999345398
216,244,34341,5,0,0:0:0:0:
436,80,34491,1,0,0:0:0:0:
436,272,34641,1,0,0:0:0:0:
328,380,34791,2,0,P|220:368|144:196,1,285.99998690796
244,256,35241,5,0,0:0:0:0:
384,132,35391,1,0,0:0:0:0:
404,276,35541,5,0,0:0:0:0:
196,104,35691,1,0,0:0:0:0:
244,200,35841,5,0,0:0:0:0:
428,60,35991,1,0,0:0:0:0:
384,188,36141,5,0,0:0:0:0:
180,28,36291,1,0,0:0:0:0:
252,92,36441,6,0,B|304:148|304:148|264:248,1,142.99999345398
208,316,36741,1,0,0:0:0:0:
88,164,36891,1,0,0:0:0:0:
200,48,37041,5,0,0:0:0:0:
232,68,37116,1,0,0:0:0:0:
256,92,37191,1,0,0:0:0:0:
240,172,37341,6,0,P|216:256|280:284,1,142.99999345398
408,120,37641,5,0,0:0:0:0:
416,276,37791,1,0,0:0:0:0:
344,132,37941,5,0,0:0:0:0:
252,228,38091,2,0,B|240:296|140:304|140:304|48:264|56:132,1,285.99998690796
56,156,38466,1,0,0:0:0:0:
84,116,38541,1,0,0:0:0:0:
176,56,38691,5,0,0:0:0:0:
212,64,38766,1,0,0:0:0:0:
248,88,38841,2,0,P|292:136|300:232,1,142.99999345398
300,304,39066,1,0,0:0:0:0:
308,328,39141,2,0,P|344:356|384:340,1,82.5
392,200,39441,5,0,0:0:0:0:
360,200,39516,1,0,0:0:0:0:
324,200,39591,1,0,0:0:0:0:
264,268,39741,5,0,0:0:0:0:
296,268,39816,1,0,0:0:0:0:
328,268,39891,1,0,0:0:0:0:
408,232,40041,2,0,L|276:236,1,110
192,184,40341,2,0,L|328:208,1,110
372,220,40641,5,0,0:0:0:0:
176,216,40791,1,0,0:0:0:0:
72,216,40941,5,0,0:0:0:0:
280,220,41091,1,0,0:0:0:0:
436,224,41241,2,0,B|440:244|440:244|416:288|416:288|388:240,1,110
380,160,41541,6,0,P|376:56|280:76,1,165.000006294251
260,100,41841,2,0,B|244:208|184:248|184:248|192:112,1,247.500009441376
184,104,42141,6,0,P|244:24|312:72,1,142.99999345398
388,128,42441,1,0,0:0:0:0:
420,244,42591,2,0,P|328:320|256:288,1,142.99999345398
312,208,42891,5,0,0:0:0:0:
336,96,43041,2,0,P|248:96|220:196,1,142.99999345398
156,236,43341,5,0,0:0:0:0:
192,316,43491,2,0,P|296:340|344:296,1,142.99999345398
312,252,43941,6,0,P|264:192|260:200,1,142.99999345398
48,268,44241,2,0,L|196:268,1,142.99999345398
164,344,44541,5,0,0:0:0:0:
160,176,44691,2,0,L|356:172,1,142.99999345398
260,264,44991,5,0,0:0:0:0:
268,96,45141,2,0,L|428:96,1,142.99999345398
372,176,45441,5,0,0:0:0:0:
428,280,45591,1,0,0:0:0:0:
316,348,45741,1,0,0:0:0:0:
212,316,45891,2,0,P|132:224|168:196,1,142.99999345398
156,88,46191,5,0,0:0:0:0:
156,88,46341,2,0,P|184:96|128:112,1,142.99999345398
96,172,46641,6,0,B|76:240|76:240|120:312,1,142.99999345398
244,240,46941,1,0,0:0:0:0:
336,192,47091,5,0,0:0:0:0:
336,192,47241,2,0,P|376:272|304:320,1,142.99999345398
232,168,47541,1,0,0:0:0:0:
152,236,47691,2,0,P|204:308|264:272,1,142.99999345398
352,112,47991,6,0,L|196:88,1,142.99999345398
148,92,48291,2,0,L|336:160,1,142.99999345398
356,192,48591,5,0,0:0:0:0:
288,260,48741,2,0,P|204:240|132:164,1,142.99999345398
160,88,49041,5,0,0:0:0:0:
268,152,49191,1,0,0:0:0:0:
300,168,49266,1,0,0:0:0:0:
328,196,49341,1,0,0:0:0:0:
196,196,49491,5,0,0:0:0:0:
220,344,49641,1,0,0:0:0:0:
48,284,49791,1,0,0:0:0:0:
108,208,49941,5,0,0:0:0:0:
132,84,50091,1,0,0:0:0:0:
172,236,50241,1,0,0:0:0:0:
272,172,50391,1,0,0:0:0:0:
304,304,50541,6,0,B|388:344|388:344|436:288,1,142.99999345398
440,96,50841,2,0,P|384:36|300:128,1,214.49999018097
320,128,51141,6,0,P|336:212|212:196,1,214.49999018097
200,196,51441,6,0,B|156:144|156:144|224:132|224:132|208:64|292:64,1,220
424,136,51816,5,0,0:0:0:0:
428,176,51891,2,0,B|408:260|408:260|376:196|376:196|344:232|284:216,1,220
200,280,52266,5,0,0:0:0:0:
168,268,52341,2,0,B|96:220|108:144|108:144|188:160,1,220
368,236,52741,5,0,0:0:0:0:
380,200,52791,2,0,B|376:140|376:140|296:160|344:72|344:72|304:104,1,220
200,196,53166,5,0,0:0:0:0:
200,248,53241,2,0,P|224:324|240:272,1,165
276,144,53541,2,0,P|272:64|352:112,1,214.49999018097
400,168,53841,6,0,B|392:300|392:300|340:224,1,220
192,72,54216,5,0,0:0:0:0:
184,96,54291,2,0,B|152:200|160:216|160:216|244:332,1,220
404,144,54666,5,0,0:0:0:0:
396,120,54741,2,0,B|372:60|372:60|356:176|356:176|304:184,1,220
220,236,55116,5,0,0:0:0:0:
196,232,55191,2,0,B|104:228|80:220|80:220|220:176,1,220
296,96,55641,2,0,P|352:132|324:72,1,165
320,72,55941,6,0,P|360:124|296:116,1,165
240,192,56241,2,0,L|368:312,1,165
416,304,56541,2,0,L|268:200,1,165
224,252,56841,2,0,L|420:256,1,165
432,240,57141,2,0,L|236:308,1,165
220,320,57441,5,0,0:0:0:0:
144,308,57541,1,0,0:0:0:0:
80,268,57641,1,0,0:0:0:0:
48,208,57741,5,0,0:0:0:0:
44,136,57841,1,0,0:0:0:0:
72,68,57941,1,0,0:0:0:0:
132,60,58041,5,0,0:0:0:0:
192,192,58141,1,0,0:0:0:0:
212,52,58241,1,0,0:0:0:0:
280,96,58341,5,0,0:0:0:0:
328,204,58441,1,0,0:0:0:0:
388,112,58541,1,0,0:0:0:0:
404,308,58641,2,0,B|320:304|320:304|296:292|296:292|176:296,1,220
120,232,59091,2,0,P|84:152|176:52,1,220
220,112,59541,2,0,P|192:172|256:148,1,165
255,154,59841,2,0,P|244:224|368:216,1,220
361,231,60441,6,0,P|395:234|403:310,1,110
112,116,60741,5,0,0:0:0:0:
136,160,60841,1,0,0:0:0:0:
176,188,60941,1,0,0:0:0:0:
240,100,61041,2,0,P|320:88|412:212,1,190.66665793864
364,224,61341,2,0,B|292:244|292:244|256:272|256:272|168:296,1,190.66665793864
61,165,61641,2,0,L|257:93,1,190.66665793864
364,224,61941,2,0,P|400:324|324:312,1,190.66665793864
120,68,62241,6,0,B|200:92|200:92|320:168,1,190.66665793864
335,138,62541,1,0,0:0:0:0:
416,105,62641,1,0,0:0:0:0:
470,163,62741,1,0,0:0:0:0:
405,219,62841,5,0,0:0:0:0:
345,269,62941,1,0,0:0:0:0:
400,334,63041,1,0,0:0:0:0:
468,292,63141,6,0,P|408:200|300:192,1,190.66665793864
256,236,63441,1,0,0:0:0:0:
192,276,63541,1,0,0:0:0:0:
144,224,63641,1,0,0:0:0:0:
104,160,63741,1,0,0:0:0:0:
184,160,63841,5,0,0:0:0:0:
144,224,63941,1,0,0:0:0:0:
84,272,64041,2,0,B|176:328|176:328|264:320,1,190.66665793864
412,124,64341,6,0,L|216:84,1,190.66665793864
316,280,64641,2,0,P|396:173|412:89,1,190.66665793864
208,48,64941,2,0,L|136:144,2,95.3333289693199
184,340,65241,2,0,B|208:316|224:288|224:288|248:156,1,190.66665793864
336,280,65541,5,0,0:0:0:0:
420,252,65641,1,0,0:0:0:0:
456,172,65741,1,0,0:0:0:0:
384,68,65841,2,0,P|312:172|204:200,1,190.66665793864
64,160,66141,2,0,B|140:96|140:96|240:24,1,190.66665793864
256,172,66441,2,0,L|112:312,1,190.66665793864
188,328,66741,2,0,L|404:272,1,190.66665793864
264,144,67041,6,0,L|156:356,1,190.66665793864
344,300,67341,2,0,B|352:224|352:224|368:192|368:192|372:96,1,190.66665793864
344,40,67641,5,0,0:0:0:0:
260,56,67741,1,0,0:0:0:0:
304,128,67841,1,0,0:0:0:0:
292,212,67941,5,0,0:0:0:0:
216,240,68041,1,0,0:0:0:0:
216,160,68141,1,0,0:0:0:0:
376,96,68241,2,0,L|472:148,2,95.3333289693199
356,252,68541,2,0,L|232:180,2,95.3333289693199
112,216,68841,2,0,L|184:292,2,95.3333289693199
132,112,69141,2,0,P|216:44|328:56,1,190.66665793864
292,152,69441,6,0,P|200:148|240:200,1,190.66665793864
312,228,69741,2,0,L|432:200,1,95.3333289693199
480,132,69941,5,0,0:0:0:0:
408,64,70041,2,0,L|200:132,1,190.66665793864
