osu file format v14

[General]
AudioFilename: audio.mp3
AudioLeadIn: 0
PreviewTime: 19936
Countdown: 0
SampleSet: Normal
StackLeniency: 0.7
Mode: 1
LetterboxInBreaks: 0
WidescreenStoryboard: 0

[Editor]
DistanceSpacing: 1
BeatDivisor: 4
GridSize: 4
TimelineZoom: 2.2

[Metadata]
Title:On the FM
TitleUnicode:On the FM
Artist:C-Show
ArtistUnicode:C-Show
Creator:Nofool
Version:Muzukashii
Source:beatmania IIDX 23 copula
Tags:KONAMI BEMANI
BeatmapID:1205384
BeatmapSetID:568544

[Difficulty]
HPDrainRate:7
CircleSize:6
OverallDifficulty:5
ApproachRate:8
SliderMultiplier:1.4
SliderTickRate:1

[Events]
//Background and Video events
0,0,"BG9.jpg",0,0
//Break Periods
//Storyboard Layer 0 (Background)
//Storyboard Layer 1 (Fail)
//Storyboard Layer 2 (Pass)
//Storyboard Layer 3 (Foreground)
//Storyboard Sound Samples

[TimingPoints]
1036,300,4,1,0,100,1,0
1036,-125,4,1,0,100,0,0
3511,-121.951219512195,4,1,0,100,0,0
3661,-119.047619047619,4,1,0,100,0,0
3811,-116.279069767442,4,1,0,100,0,0
3961,-113.636363636364,4,1,0,100,0,0
4111,-111.111111111111,4,1,0,100,0,0
4261,-108.695652173913,4,1,0,100,0,0
4411,-106.382978723404,4,1,0,100,0,0
4561,-104.166666666667,4,1,0,100,0,0
4711,-102.040816326531,4,1,0,100,0,0
4861,-100,4,1,0,100,0,0
5761,-71.4285714285714,4,1,0,100,0,0
7861,-100,4,1,0,100,0,0
8161,-111.111111111111,4,1,0,100,0,0
8761,-125,4,1,0,100,0,0
12961,-111.111111111111,4,1,0,100,0,0
13411,-100,4,1,0,100,0,0
13861,-86.9565217391304,4,1,0,100,0,0
14311,-76.9230769230769,4,1,0,100,0,0
14761,-71.4285714285714,4,1,0,100,0,0
15061,-64.5161290322581,4,1,0,100,0,0
15361,-58.8235294117647,4,1,0,100,0,0
16561,-80,4,1,0,100,0,0
17761,-125,4,1,0,100,0,0
18361,-119.047619047619,4,1,0,100,0,0
18961,-113.636363636364,4,1,0,100,0,0
20161,-100,4,1,0,100,0,0
28411,-66.6666666666667,4,1,0,100,0,0
28598,-71.4285714285714,4,1,0,100,0,0
28861,-80,4,1,0,100,0,0
29161,-86.9565217391304,4,1,0,100,0,0
29461,-95.2380952380952,4,1,0,100,0,0
29761,-100,4,1,0,100,0,0
38011,-66.6666666666667,4,1,0,100,0,0
38198,-71.4285714285714,4,1,0,100,0,0
38461,-80,4,1,0,100,0,0
38761,-86.9565217391304,4,1,0,100,0,0
39061,-95.2380952380952,4,1,0,100,0,0
39361,-100,4,1,0,100,0,0
41836,-100,4,1,0,100,0,1
50836,-100,4,1,0,100,0,0
51361,-83.3333333333333,4,1,0,100,0,0
60661,-100,4,1,0,100,0,0
61036,-100,4,1,0,100,0,1
79936,-100,4,1,0,100,0,0
80161,-83.3333333333333,4,1,0,100,0,0
89461,-100,4,1,0,100,0,0
89836,-100,4,1,0,100,0,1
98836,-100,4,1,0,100,0,0
99361,-83.3333333333333,4,1,0,100,0,0

[HitObjects]
256,192,1036,5,8,0:0:0:0:
256,192,1336,1,8,0:0:0:0:
256,192,1786,1,8,0:0:0:0:
256,192,2086,1,8,0:0:0:0:
256,192,2236,1,8,0:0:0:0:
256,192,2536,1,8,0:0:0:0:
256,192,2986,1,8,0:0:0:0:
256,192,3136,1,0,0:0:0:0:
256,192,3436,1,8,0:0:0:0:
256,192,3736,1,0,0:0:0:0:
256,192,3886,1,0,0:0:0:0:
256,192,4036,1,8,0:0:0:0:
256,192,4336,1,0,0:0:0:0:
256,192,4486,1,0,0:0:0:0:
256,192,4636,1,8,0:0:0:0:
256,192,4786,1,0,0:0:0:0:
256,192,4936,1,8,0:0:0:0:
256,192,5086,1,0,0:0:0:0:
256,192,5161,1,0,0:0:0:0:
256,192,5236,1,0,0:0:0:0:
256,192,5386,1,0,0:0:0:0:
256,192,5536,1,0,0:0:0:0:
256,192,5836,1,12,0:0:0:0:
256,192,6136,1,4,0:0:0:0:
256,192,6286,1,12,0:0:0:0:
256,192,6586,1,12,0:0:0:0:
256,192,6886,1,12,0:0:0:0:
256,192,7036,12,0,7786,0:0:0:0:
256,192,7936,5,8,0:0:0:0:
256,192,8236,1,0,0:0:0:0:
256,192,8336,1,0,0:0:0:0:
256,192,8436,1,0,0:0:0:0:
256,192,8536,1,0,0:0:0:0:
256,192,8836,1,8,0:0:0:0:
256,192,8986,1,0,0:0:0:0:
256,192,9136,1,8,0:0:0:0:
256,192,9286,1,0,0:0:0:0:
256,192,9586,1,0,0:0:0:0:
256,192,9736,1,8,0:0:0:0:
256,192,9886,1,0,0:0:0:0:
256,192,10336,1,0,0:0:0:0:
256,192,10636,1,8,0:0:0:0:
256,192,10936,1,0,0:0:0:0:
256,192,11086,1,0,0:0:0:0:
256,192,11386,1,0,0:0:0:0:
256,192,11536,1,8,0:0:0:0:
256,192,11686,1,0,0:0:0:0:
256,192,11986,1,0,0:0:0:0:
256,192,12136,1,8,0:0:0:0:
256,192,12286,1,0,0:0:0:0:
256,192,12736,1,4,0:0:0:0:
256,192,13036,1,12,0:0:0:0:
256,192,13486,1,12,0:0:0:0:
256,192,13936,1,12,0:0:0:0:
256,192,14386,1,12,0:0:0:0:
256,192,14836,1,12,0:0:0:0:
256,192,15136,1,12,0:0:0:0:
256,192,15436,1,4,0:0:0:0:
256,192,15511,12,0,17686,0:0:0:0:
256,192,17836,6,0,L|288:192,4,28
256,192,18436,2,0,L|288:192,4,29.3999991027832
256,192,19036,2,0,L|288:192,4,30.8000009399414
256,192,19486,1,8,0:0:0:0:
256,192,19636,1,0,0:0:0:0:
256,192,19786,1,0,0:0:0:0:
256,192,19936,1,8,0:0:0:0:
256,192,20236,1,4,0:0:0:0:
256,192,20386,1,8,0:0:0:0:
256,192,20536,1,0,0:0:0:0:
256,192,20611,1,0,0:0:0:0:
256,192,20686,1,0,0:0:0:0:
256,192,20836,1,0,0:0:0:0:
256,192,20986,1,8,0:0:0:0:
256,192,21136,1,0,0:0:0:0:
256,192,21286,1,8,0:0:0:0:
256,192,21586,1,8,0:0:0:0:
256,192,21736,1,0,0:0:0:0:
256,192,21886,1,8,0:0:0:0:
256,192,22036,1,8,0:0:0:0:
256,192,22336,1,0,0:0:0:0:
256,192,22636,1,0,0:0:0:0:
256,192,22786,1,8,0:0:0:0:
256,192,22936,1,0,0:0:0:0:
256,192,23011,1,0,0:0:0:0:
256,192,23086,1,0,0:0:0:0:
256,192,23236,1,0,0:0:0:0:
256,192,23386,1,8,0:0:0:0:
256,192,23536,1,0,0:0:0:0:
256,192,23686,1,8,0:0:0:0:
256,192,23986,1,8,0:0:0:0:
256,192,24286,1,8,0:0:0:0:
256,192,24436,1,8,0:0:0:0:
256,192,24586,1,0,0:0:0:0:
256,192,24736,1,8,0:0:0:0:
256,192,25036,1,0,0:0:0:0:
256,192,25186,1,8,0:0:0:0:
256,192,25336,1,0,0:0:0:0:
256,192,25411,1,0,0:0:0:0:
256,192,25486,1,0,0:0:0:0:
256,192,25636,1,0,0:0:0:0:
256,192,25786,1,8,0:0:0:0:
256,192,25936,1,0,0:0:0:0:
256,192,26086,1,8,0:0:0:0:
256,192,26386,1,8,0:0:0:0:
256,192,26536,1,0,0:0:0:0:
256,192,26686,1,8,0:0:0:0:
256,192,26836,1,8,0:0:0:0:
256,192,27136,1,0,0:0:0:0:
256,192,27436,1,0,0:0:0:0:
256,192,27586,1,8,0:0:0:0:
256,192,27736,1,0,0:0:0:0:
256,192,27811,1,0,0:0:0:0:
256,192,27886,1,0,0:0:0:0:
256,192,28036,1,0,0:0:0:0:
256,192,28186,1,8,0:0:0:0:
256,192,28336,1,0,0:0:0:0:
256,192,28486,1,12,0:0:0:0:
256,192,28936,1,0,0:0:0:0:
256,192,29236,1,0,0:0:0:0:
256,192,29536,1,8,0:0:0:0:
256,192,29836,1,4,0:0:0:0:
256,192,29986,1,8,0:0:0:0:
256,192,30136,1,0,0:0:0:0:
256,192,30286,1,8,0:0:0:0:
256,192,30361,1,8,0:0:0:0:
256,192,30436,1,8,0:0:0:0:
256,192,30586,1,8,0:0:0:0:
256,192,30736,1,0,0:0:0:0:
256,192,30886,1,8,0:0:0:0:
256,192,31186,1,8,0:0:0:0:
256,192,31336,1,0,0:0:0:0:
256,192,31486,1,8,0:0:0:0:
256,192,31636,1,8,0:0:0:0:
256,192,31936,1,8,0:0:0:0:
256,192,32236,1,0,0:0:0:0:
256,192,32386,1,8,0:0:0:0:
256,192,32536,1,0,0:0:0:0:
256,192,32686,1,8,0:0:0:0:
256,192,32761,1,8,0:0:0:0:
256,192,32836,1,8,0:0:0:0:
256,192,32986,1,8,0:0:0:0:
256,192,33136,1,0,0:0:0:0:
256,192,33286,1,8,0:0:0:0:
256,192,33586,1,8,0:0:0:0:
256,192,33886,1,8,0:0:0:0:
256,192,34036,1,8,0:0:0:0:
256,192,34186,1,0,0:0:0:0:
256,192,34336,1,0,0:0:0:0:
256,192,34636,1,0,0:0:0:0:
256,192,34786,1,8,0:0:0:0:
256,192,34936,1,0,0:0:0:0:
256,192,35086,1,8,0:0:0:0:
256,192,35161,1,8,0:0:0:0:
256,192,35236,1,8,0:0:0:0:
256,192,35386,1,8,0:0:0:0:
256,192,35536,1,0,0:0:0:0:
256,192,35686,1,8,0:0:0:0:
256,192,35986,1,8,0:0:0:0:
256,192,36136,1,0,0:0:0:0:
256,192,36286,1,8,0:0:0:0:
256,192,36436,1,8,0:0:0:0:
256,192,36736,1,8,0:0:0:0:
256,192,37036,1,0,0:0:0:0:
256,192,37186,1,8,0:0:0:0:
256,192,37336,1,0,0:0:0:0:
256,192,37486,1,8,0:0:0:0:
256,192,37561,1,8,0:0:0:0:
256,192,37636,1,8,0:0:0:0:
256,192,37786,1,8,0:0:0:0:
256,192,37936,1,0,0:0:0:0:
256,192,38086,1,12,0:0:0:0:
256,192,38536,1,0,0:0:0:0:
256,192,38836,1,0,0:0:0:0:
256,192,39136,1,8,0:0:0:0:
256,192,39436,12,0,40486,0:0:0:0:
256,192,40636,5,0,0:0:0:0:
256,192,40936,5,8,0:0:0:0:
256,192,41236,1,8,0:0:0:0:
256,192,41536,1,0,0:0:0:0:
256,192,41686,1,8,0:0:0:0:
256,192,41836,1,4,0:0:0:0:
256,192,42136,1,8,0:0:0:0:
256,192,42436,1,0,0:0:0:0:
256,192,42586,1,8,0:0:0:0:
256,192,42736,1,0,0:0:0:0:
256,192,42886,1,0,0:0:0:0:
256,192,43036,1,8,0:0:0:0:
256,192,43336,1,0,0:0:0:0:
256,192,43486,1,8,0:0:0:0:
256,192,43636,1,0,0:0:0:0:
256,192,43786,1,0,0:0:0:0:
256,192,43936,1,8,0:0:0:0:
256,192,44236,1,4,0:0:0:0:
256,192,44536,1,8,0:0:0:0:
256,192,44836,1,0,0:0:0:0:
256,192,44986,1,8,0:0:0:0:
256,192,45136,1,0,0:0:0:0:
256,192,45286,1,0,0:0:0:0:
256,192,45436,1,8,0:0:0:0:
256,192,45736,1,0,0:0:0:0:
256,192,45886,1,8,0:0:0:0:
256,192,46036,1,8,0:0:0:0:
256,192,46186,1,0,0:0:0:0:
256,192,46336,1,0,0:0:0:0:
256,192,46636,1,4,0:0:0:0:
256,192,46936,1,8,0:0:0:0:
256,192,47086,1,0,0:0:0:0:
256,192,47236,1,0,0:0:0:0:
256,192,47386,1,8,0:0:0:0:
256,192,47536,1,0,0:0:0:0:
256,192,47686,1,0,0:0:0:0:
256,192,47836,1,8,0:0:0:0:
256,192,48136,1,0,0:0:0:0:
256,192,48286,1,8,0:0:0:0:
256,192,48436,1,0,0:0:0:0:
256,192,48586,1,0,0:0:0:0:
256,192,48736,1,8,0:0:0:0:
256,192,49036,1,4,0:0:0:0:
256,192,49336,1,0,0:0:0:0:
256,192,49486,1,8,0:0:0:0:
256,192,49636,1,8,0:0:0:0:
256,192,49786,1,0,0:0:0:0:
256,192,49936,1,8,0:0:0:0:
256,192,50086,1,8,0:0:0:0:
256,192,50236,1,0,0:0:0:0:
256,192,50386,1,8,0:0:0:0:
256,192,50461,1,8,0:0:0:0:
256,192,50536,1,8,0:0:0:0:
256,192,50686,1,0,0:0:0:0:
256,192,50836,12,0,51286,0:0:0:0:
256,192,51436,5,4,0:0:0:0:
256,192,51886,1,4,0:0:0:0:
256,192,52336,1,4,0:0:0:0:
256,192,52786,1,4,0:0:0:0:
256,192,53236,1,12,0:0:0:0:
256,192,53836,1,4,0:0:0:0:
256,192,54286,1,4,0:0:0:0:
256,192,54736,1,4,0:0:0:0:
256,192,55186,1,4,0:0:0:0:
256,192,55636,1,12,0:0:0:0:
256,192,56236,1,4,0:0:0:0:
256,192,56536,1,4,0:0:0:0:
256,192,56836,1,4,0:0:0:0:
256,192,57136,1,4,0:0:0:0:
256,192,57436,1,0,0:0:0:0:
256,192,57536,1,0,0:0:0:0:
256,192,57636,1,0,0:0:0:0:
256,192,57736,1,0,0:0:0:0:
256,192,58036,1,8,0:0:0:0:
256,192,58136,1,8,0:0:0:0:
256,192,58236,1,8,0:0:0:0:
256,192,58336,1,8,0:0:0:0:
256,192,58636,1,4,0:0:0:0:
256,192,59086,1,4,0:0:0:0:
256,192,59536,1,4,0:0:0:0:
256,192,59836,1,4,0:0:0:0:
256,192,59911,12,0,60436,0:0:0:0:
256,192,60736,5,0,0:0:0:0:
256,192,61036,1,8,0:0:0:0:
256,192,61236,1,0,0:0:0:0:
256,192,61336,1,0,0:0:0:0:
256,192,61536,1,0,0:0:0:0:
256,192,61636,1,8,0:0:0:0:
256,192,62236,1,8,0:0:0:0:
256,192,62436,1,0,0:0:0:0:
256,192,62536,1,0,0:0:0:0:
256,192,62736,1,0,0:0:0:0:
256,192,62836,1,8,0:0:0:0:
256,192,63136,1,8,0:0:0:0:
256,192,63436,1,0,0:0:0:0:
256,192,64036,1,8,0:0:0:0:
256,192,64636,1,8,0:0:0:0:
256,192,64836,1,8,0:0:0:0:
256,192,64936,1,0,0:0:0:0:
256,192,65136,1,0,0:0:0:0:
256,192,65236,1,8,0:0:0:0:
256,192,65536,1,0,0:0:0:0:
256,192,65836,1,8,0:0:0:0:
256,192,66036,1,0,0:0:0:0:
256,192,66136,1,0,0:0:0:0:
256,192,66336,1,0,0:0:0:0:
256,192,66436,1,8,0:0:0:0:
256,192,67036,1,8,0:0:0:0:
256,192,67336,1,0,0:0:0:0:
256,192,67636,1,8,0:0:0:0:
256,192,67736,1,8,0:0:0:0:
256,192,67836,1,8,0:0:0:0:
256,192,67936,1,8,0:0:0:0:
256,192,68136,1,0,0:0:0:0:
256,192,68236,1,0,0:0:0:0:
256,192,68536,1,0,0:0:0:0:
256,192,68836,1,0,0:0:0:0:
256,192,69436,1,8,0:0:0:0:
256,192,69636,1,8,0:0:0:0:
256,192,69736,1,0,0:0:0:0:
256,192,69936,1,0,0:0:0:0:
256,192,70036,1,8,0:0:0:0:
256,192,70336,1,0,0:0:0:0:
256,192,70636,1,8,0:0:0:0:
256,192,70836,1,0,0:0:0:0:
256,192,70936,1,0,0:0:0:0:
256,192,71136,1,0,0:0:0:0:
256,192,71236,1,8,0:0:0:0:
256,192,71836,1,8,0:0:0:0:
256,192,72036,1,0,0:0:0:0:
256,192,72136,1,0,0:0:0:0:
256,192,72336,1,0,0:0:0:0:
256,192,72436,1,8,0:0:0:0:
256,192,72736,1,8,0:0:0:0:
256,192,73036,1,0,0:0:0:0:
256,192,73636,1,8,0:0:0:0:
256,192,74236,1,8,0:0:0:0:
256,192,74436,1,8,0:0:0:0:
256,192,74536,1,0,0:0:0:0:
256,192,74736,1,0,0:0:0:0:
256,192,74836,1,8,0:0:0:0:
256,192,75136,1,0,0:0:0:0:
256,192,75436,1,8,0:0:0:0:
256,192,75636,1,0,0:0:0:0:
256,192,75736,1,0,0:0:0:0:
256,192,75936,1,0,0:0:0:0:
256,192,76036,1,8,0:0:0:0:
256,192,76636,1,8,0:0:0:0:
256,192,76936,1,0,0:0:0:0:
256,192,77236,1,8,0:0:0:0:
256,192,77336,1,8,0:0:0:0:
256,192,77436,1,8,0:0:0:0:
256,192,77536,1,8,0:0:0:0:
256,192,77736,1,0,0:0:0:0:
256,192,77836,1,0,0:0:0:0:
256,192,78136,1,0,0:0:0:0:
256,192,78436,1,0,0:0:0:0:
256,192,79036,1,8,0:0:0:0:
256,192,79236,5,8,0:0:0:0:
256,192,79336,1,0,0:0:0:0:
256,192,79536,1,0,0:0:0:0:
256,192,79636,1,8,0:0:0:0:
256,192,79936,5,8,0:0:0:0:
256,192,80236,5,4,0:0:0:0:
256,192,80686,1,4,0:0:0:0:
256,192,81136,1,4,0:0:0:0:
256,192,81586,1,4,0:0:0:0:
256,192,82036,1,12,0:0:0:0:
256,192,82336,1,12,0:0:0:0:
256,192,82636,1,4,0:0:0:0:
256,192,83086,1,4,0:0:0:0:
256,192,83536,1,4,0:0:0:0:
256,192,83986,1,4,0:0:0:0:
256,192,84436,1,12,0:0:0:0:
256,192,84736,1,12,0:0:0:0:
256,192,85036,1,4,0:0:0:0:
256,192,85336,1,4,0:0:0:0:
256,192,85636,1,4,0:0:0:0:
256,192,85936,1,4,0:0:0:0:
256,192,86236,1,0,0:0:0:0:
256,192,86336,1,0,0:0:0:0:
256,192,86436,1,0,0:0:0:0:
256,192,86536,1,0,0:0:0:0:
256,192,86836,1,8,0:0:0:0:
256,192,86936,1,8,0:0:0:0:
256,192,87036,1,8,0:0:0:0:
256,192,87136,1,8,0:0:0:0:
256,192,87436,1,4,0:0:0:0:
256,192,87886,1,4,0:0:0:0:
256,192,88336,1,4,0:0:0:0:
256,192,88636,1,4,0:0:0:0:
256,192,88936,12,0,89386,0:0:0:0:
256,192,89536,5,0,0:0:0:0:
256,192,89686,1,8,0:0:0:0:
256,192,89836,1,4,0:0:0:0:
256,192,90136,1,8,0:0:0:0:
256,192,90436,1,0,0:0:0:0:
256,192,90586,1,8,0:0:0:0:
256,192,90736,1,0,0:0:0:0:
256,192,90886,1,0,0:0:0:0:
256,192,91036,1,8,0:0:0:0:
256,192,91336,1,0,0:0:0:0:
256,192,91486,1,8,0:0:0:0:
256,192,91636,1,0,0:0:0:0:
256,192,91786,1,0,0:0:0:0:
256,192,91936,1,8,0:0:0:0:
256,192,92236,1,4,0:0:0:0:
256,192,92536,1,8,0:0:0:0:
256,192,92836,1,0,0:0:0:0:
256,192,92986,1,8,0:0:0:0:
256,192,93136,1,0,0:0:0:0:
256,192,93286,1,0,0:0:0:0:
256,192,93436,1,8,0:0:0:0:
256,192,93736,1,0,0:0:0:0:
256,192,93886,1,8,0:0:0:0:
256,192,94036,1,8,0:0:0:0:
256,192,94186,1,0,0:0:0:0:
256,192,94336,1,0,0:0:0:0:
256,192,94636,1,4,0:0:0:0:
256,192,94936,1,8,0:0:0:0:
256,192,95086,1,0,0:0:0:0:
256,192,95236,1,0,0:0:0:0:
256,192,95386,1,8,0:0:0:0:
256,192,95536,1,0,0:0:0:0:
256,192,95686,1,0,0:0:0:0:
256,192,95836,1,8,0:0:0:0:
256,192,96136,1,0,0:0:0:0:
256,192,96286,1,8,0:0:0:0:
256,192,96436,1,0,0:0:0:0:
256,192,96586,1,0,0:0:0:0:
256,192,96736,1,8,0:0:0:0:
256,192,97036,1,4,0:0:0:0:
256,192,97336,1,0,0:0:0:0:
256,192,97486,1,8,0:0:0:0:
256,192,97636,1,8,0:0:0:0:
256,192,97786,1,0,0:0:0:0:
256,192,97936,1,8,0:0:0:0:
256,192,98086,1,8,0:0:0:0:
256,192,98236,1,0,0:0:0:0:
256,192,98386,1,8,0:0:0:0:
256,192,98461,1,8,0:0:0:0:
256,192,98536,1,8,0:0:0:0:
256,192,98686,1,0,0:0:0:0:
256,192,98836,12,0,99286,0:0:0:0:
256,192,99436,5,4,0:0:0:0:
256,192,99886,1,4,0:0:0:0:
256,192,100336,1,4,0:0:0:0:
256,192,100636,1,4,0:0:0:0:
