osu file format v14

[General]
AudioFilename: audio.mp3
AudioLeadIn: 0
PreviewTime: 19936
Countdown: 0
SampleSet: Normal
StackLeniency: 0.7
Mode: 1
LetterboxInBreaks: 0
WidescreenStoryboard: 0

[Editor]
DistanceSpacing: 1
BeatDivisor: 4
GridSize: 4
TimelineZoom: 2.2

[Metadata]
Title:On the FM
TitleUnicode:On the FM
Artist:C-Show
ArtistUnicode:C-Show
Creator:Nofool
Version:Inner Oni
Source:beatmania IIDX 23 copula
Tags:KONAMI BEMANI
BeatmapID:1205382
BeatmapSetID:568544

[Difficulty]
HPDrainRate:6
CircleSize:6
OverallDifficulty:6
ApproachRate:8
SliderMultiplier:1.4
SliderTickRate:1

[Events]
//Background and Video events
0,0,"BG9.jpg",0,0
//Break Periods
//Storyboard Layer 0 (Background)
//Storyboard Layer 1 (Fail)
//Storyboard Layer 2 (Pass)
//Storyboard Layer 3 (Foreground)
//Storyboard Sound Samples

[TimingPoints]
1036,300,4,1,0,100,1,0
1036,-125,4,1,0,100,0,0
3511,-119.047619047619,4,1,0,100,0,0
3661,-113.636363636364,4,1,0,100,0,0
3811,-108.695652173913,4,1,0,100,0,0
3961,-104.166666666667,4,1,0,100,0,0
4111,-100,4,1,0,100,0,0
4261,-96.1538461538461,4,1,0,100,0,0
4411,-92.5925925925926,4,1,0,100,0,0
4561,-89.2857142857143,4,1,0,100,0,0
4673,-86.2068965517241,4,1,0,100,0,0
4748,-83.3333333333333,4,1,0,100,0,0
4823,-80.6451612903226,4,1,0,100,0,0
4898,-78.125,4,1,0,100,0,0
4973,-75.7575757575758,4,1,0,100,0,0
5048,-73.5294117647059,4,1,0,100,0,0
5123,-71.4285714285714,4,1,0,100,0,0
5198,-69.4444444444444,4,1,0,100,0,0
5761,-66.6666666666667,4,1,0,100,0,0
7861,-100,4,1,0,100,0,0
8186,-104.166666666667,4,1,0,100,0,0
8286,-107.52688172043,4,1,0,100,0,0
8386,-111.111111111111,4,1,0,100,0,0
8486,-114.942528735632,4,1,0,100,0,0
8586,-119.047619047619,4,1,0,100,0,0
8686,-121.951219512195,4,1,0,100,0,0
8786,-125,4,1,0,100,0,0
12961,-111.111111111111,4,1,0,100,0,0
13411,-100,4,1,0,100,0,0
13861,-86.9565217391304,4,1,0,100,0,0
14311,-76.9230769230769,4,1,0,100,0,0
14761,-71.4285714285714,4,1,0,100,0,0
15061,-64.5161290322581,4,1,0,100,0,0
15361,-58.8235294117647,4,1,0,100,0,0
16561,-80,4,1,0,100,0,0
17761,-125,4,1,0,100,0,0
17948,-123.456790123457,4,1,0,100,0,0
18098,-121.951219512195,4,1,0,100,0,0
18248,-120.481927710843,4,1,0,100,0,0
18398,-119.047619047619,4,1,0,100,0,0
18548,-117.647058823529,4,1,0,100,0,0
18698,-116.279069767442,4,1,0,100,0,0
18848,-114.942528735632,4,1,0,100,0,0
18998,-113.636363636364,4,1,0,100,0,0
19148,-112.359550561798,4,1,0,100,0,0
19298,-111.111111111111,4,1,0,100,0,0
19448,-109.89010989011,4,1,0,100,0,0
19598,-108.695652173913,4,1,0,100,0,0
19748,-107.52688172043,4,1,0,100,0,0
19898,-106.382978723404,4,1,0,100,0,0
20161,-100,4,1,0,100,0,0
28411,-66.6666666666667,4,1,0,100,0,0
28598,-71.4285714285714,4,1,0,100,0,0
28748,-76.9230769230769,4,1,0,100,0,0
28823,-78.125,4,1,0,100,0,0
28898,-79.3650793650794,4,1,0,100,0,0
29048,-83.3333333333333,4,1,0,100,0,0
29123,-84.7457627118644,4,1,0,100,0,0
29198,-86.2068965517241,4,1,0,100,0,0
29348,-90.9090909090909,4,1,0,100,0,0
29423,-92.5925925925926,4,1,0,100,0,0
29498,-94.3396226415094,4,1,0,100,0,0
29761,-100,4,1,0,100,0,0
38011,-66.6666666666667,4,1,0,100,0,0
38198,-71.4285714285714,4,1,0,100,0,0
38348,-76.9230769230769,4,1,0,100,0,0
38423,-78.125,4,1,0,100,0,0
38498,-79.3650793650794,4,1,0,100,0,0
38648,-83.3333333333333,4,1,0,100,0,0
38723,-84.7457627118644,4,1,0,100,0,0
38798,-86.2068965517241,4,1,0,100,0,0
38948,-90.9090909090909,4,1,0,100,0,0
39023,-92.5925925925926,4,1,0,100,0,0
39098,-94.3396226415094,4,1,0,100,0,0
39361,-100,4,1,0,100,0,0
41611,-96.1538461538461,4,1,0,100,0,0
41761,-90.9090909090909,4,1,0,100,0,0
41836,-90.9090909090909,4,1,0,100,0,1
50836,-90.9090909090909,4,1,0,100,0,0
51361,-76.9230769230769,4,1,0,100,0,0
60586,-98.0392156862745,4,1,0,100,0,0
60686,-96.1538461538461,4,1,0,100,0,0
60786,-94.3396226415094,4,1,0,100,0,0
60886,-92.5925925925926,4,1,0,100,0,0
60986,-90.9090909090909,4,1,0,100,0,0
61036,-90.9090909090909,4,1,0,100,0,1
79936,-90.9090909090909,4,1,0,100,0,0
80161,-76.9230769230769,4,1,0,100,0,0
89461,-100,4,1,0,100,0,0
89611,-96.1538461538461,4,1,0,100,0,0
89761,-90.9090909090909,4,1,0,100,0,0
89836,-90.9090909090909,4,1,0,100,0,1
98836,-90.9090909090909,4,1,0,100,0,0
99361,-76.9230769230769,4,1,0,100,0,0

[HitObjects]
256,192,1036,5,8,0:0:0:0:
256,192,1336,1,8,0:0:0:0:
256,192,1786,1,8,0:0:0:0:
256,192,1861,1,8,0:0:0:0:
256,192,1936,1,8,0:0:0:0:
256,192,2086,1,8,0:0:0:0:
256,192,2236,1,8,0:0:0:0:
256,192,2536,1,8,0:0:0:0:
256,192,2986,1,8,0:0:0:0:
256,192,3061,1,8,0:0:0:0:
256,192,3136,1,0,0:0:0:0:
256,192,3436,1,8,0:0:0:0:
256,192,3586,1,0,0:0:0:0:
256,192,3736,1,0,0:0:0:0:
256,192,3886,1,0,0:0:0:0:
256,192,4036,1,8,0:0:0:0:
256,192,4186,1,0,0:0:0:0:
256,192,4336,1,0,0:0:0:0:
256,192,4486,1,0,0:0:0:0:
256,192,4636,1,8,0:0:0:0:
256,192,4711,1,8,0:0:0:0:
256,192,4786,1,0,0:0:0:0:
256,192,4861,1,0,0:0:0:0:
256,192,4936,1,8,0:0:0:0:
256,192,5011,1,8,0:0:0:0:
256,192,5086,1,0,0:0:0:0:
256,192,5161,1,0,0:0:0:0:
256,192,5236,1,0,0:0:0:0:
256,192,5386,1,8,0:0:0:0:
256,192,5536,1,0,0:0:0:0:
256,192,5686,1,0,0:0:0:0:
256,192,5836,1,12,0:0:0:0:
256,192,6136,1,4,0:0:0:0:
256,192,6286,1,12,0:0:0:0:
256,192,6586,1,12,0:0:0:0:
256,192,6886,1,12,0:0:0:0:
256,192,7036,12,0,7786,0:0:0:0:
256,192,7936,5,8,0:0:0:0:
256,192,8236,1,0,0:0:0:0:
256,192,8336,1,0,0:0:0:0:
256,192,8436,1,0,0:0:0:0:
256,192,8536,1,0,0:0:0:0:
256,192,8636,1,0,0:0:0:0:
256,192,8736,1,0,0:0:0:0:
256,192,8836,1,8,0:0:0:0:
256,192,8986,1,0,0:0:0:0:
256,192,9136,1,8,0:0:0:0:
256,192,9286,1,0,0:0:0:0:
256,192,9361,1,0,0:0:0:0:
256,192,9436,1,0,0:0:0:0:
256,192,9586,1,0,0:0:0:0:
256,192,9736,1,8,0:0:0:0:
256,192,9886,1,0,0:0:0:0:
256,192,10036,1,8,0:0:0:0:
256,192,10186,1,0,0:0:0:0:
256,192,10336,1,0,0:0:0:0:
256,192,10411,1,0,0:0:0:0:
256,192,10486,1,0,0:0:0:0:
256,192,10636,1,8,0:0:0:0:
256,192,10936,1,0,0:0:0:0:
256,192,11086,1,0,0:0:0:0:
256,192,11236,1,8,0:0:0:0:
256,192,11386,1,0,0:0:0:0:
256,192,11461,1,0,0:0:0:0:
256,192,11536,1,8,0:0:0:0:
256,192,11686,1,0,0:0:0:0:
256,192,11836,1,8,0:0:0:0:
256,192,11986,1,0,0:0:0:0:
256,192,12061,1,0,0:0:0:0:
256,192,12136,1,8,0:0:0:0:
256,192,12286,1,0,0:0:0:0:
256,192,12436,1,8,0:0:0:0:
256,192,12586,1,0,0:0:0:0:
256,192,12736,1,4,0:0:0:0:
256,192,13036,1,12,0:0:0:0:
256,192,13486,1,12,0:0:0:0:
256,192,13936,1,12,0:0:0:0:
256,192,14386,1,12,0:0:0:0:
256,192,14836,1,12,0:0:0:0:
256,192,15136,1,12,0:0:0:0:
256,192,15436,1,4,0:0:0:0:
256,192,15511,12,0,17686,0:0:0:0:
256,192,17836,5,8,0:0:0:0:
256,192,17911,1,8,0:0:0:0:
256,192,17986,1,8,0:0:0:0:
256,192,18061,1,8,0:0:0:0:
256,192,18136,1,0,0:0:0:0:
256,192,18211,1,8,0:0:0:0:
256,192,18286,1,0,0:0:0:0:
256,192,18361,1,0,0:0:0:0:
256,192,18436,1,8,0:0:0:0:
256,192,18511,1,8,0:0:0:0:
256,192,18586,1,8,0:0:0:0:
256,192,18661,1,8,0:0:0:0:
256,192,18736,1,0,0:0:0:0:
256,192,18811,1,8,0:0:0:0:
256,192,18886,1,0,0:0:0:0:
256,192,18961,1,0,0:0:0:0:
256,192,19036,1,8,0:0:0:0:
256,192,19111,1,8,0:0:0:0:
256,192,19186,1,8,0:0:0:0:
256,192,19261,1,8,0:0:0:0:
256,192,19336,1,0,0:0:0:0:
256,192,19411,1,0,0:0:0:0:
256,192,19486,1,8,0:0:0:0:
256,192,19561,1,8,0:0:0:0:
256,192,19636,1,8,0:0:0:0:
256,192,19711,1,8,0:0:0:0:
256,192,19786,1,0,0:0:0:0:
256,192,19861,1,0,0:0:0:0:
256,192,19936,1,8,0:0:0:0:
256,192,20236,1,4,0:0:0:0:
256,192,20386,1,8,0:0:0:0:
256,192,20461,1,8,0:0:0:0:
256,192,20536,1,0,0:0:0:0:
256,192,20611,1,0,0:0:0:0:
256,192,20686,1,8,0:0:0:0:
256,192,20836,1,0,0:0:0:0:
256,192,20986,1,8,0:0:0:0:
256,192,21061,1,8,0:0:0:0:
256,192,21136,1,0,0:0:0:0:
256,192,21286,1,8,0:0:0:0:
256,192,21361,1,8,0:0:0:0:
256,192,21436,1,0,0:0:0:0:
256,192,21586,1,8,0:0:0:0:
256,192,21736,1,0,0:0:0:0:
256,192,21811,1,0,0:0:0:0:
256,192,21886,1,8,0:0:0:0:
256,192,22036,1,8,0:0:0:0:
256,192,22186,1,0,0:0:0:0:
256,192,22336,1,0,0:0:0:0:
256,192,22411,1,8,0:0:0:0:
256,192,22486,1,0,0:0:0:0:
256,192,22561,1,8,0:0:0:0:
256,192,22636,1,0,0:0:0:0:
256,192,22786,1,8,0:0:0:0:
256,192,22861,1,8,0:0:0:0:
256,192,22936,1,0,0:0:0:0:
256,192,23011,1,0,0:0:0:0:
256,192,23086,1,8,0:0:0:0:
256,192,23236,1,0,0:0:0:0:
256,192,23386,1,8,0:0:0:0:
256,192,23461,1,8,0:0:0:0:
256,192,23536,1,0,0:0:0:0:
256,192,23686,1,8,0:0:0:0:
256,192,23761,1,8,0:0:0:0:
256,192,23836,1,0,0:0:0:0:
256,192,23986,1,8,0:0:0:0:
256,192,24061,1,0,0:0:0:0:
256,192,24136,1,8,0:0:0:0:
256,192,24286,1,8,0:0:0:0:
256,192,24361,1,0,0:0:0:0:
256,192,24436,1,8,0:0:0:0:
256,192,24586,1,0,0:0:0:0:
256,192,24736,1,8,0:0:0:0:
256,192,24811,1,0,0:0:0:0:
256,192,24886,1,8,0:0:0:0:
256,192,24961,1,8,0:0:0:0:
256,192,25036,1,0,0:0:0:0:
256,192,25186,1,8,0:0:0:0:
256,192,25261,1,8,0:0:0:0:
256,192,25336,1,0,0:0:0:0:
256,192,25411,1,0,0:0:0:0:
256,192,25486,1,8,0:0:0:0:
256,192,25636,1,0,0:0:0:0:
256,192,25786,1,8,0:0:0:0:
256,192,25861,1,8,0:0:0:0:
256,192,25936,1,0,0:0:0:0:
256,192,26086,1,8,0:0:0:0:
256,192,26161,1,8,0:0:0:0:
256,192,26236,1,0,0:0:0:0:
256,192,26386,1,8,0:0:0:0:
256,192,26536,1,0,0:0:0:0:
256,192,26611,1,0,0:0:0:0:
256,192,26686,1,8,0:0:0:0:
256,192,26836,1,8,0:0:0:0:
256,192,26986,1,0,0:0:0:0:
256,192,27136,1,0,0:0:0:0:
256,192,27211,1,8,0:0:0:0:
256,192,27286,1,0,0:0:0:0:
256,192,27361,1,8,0:0:0:0:
256,192,27436,1,0,0:0:0:0:
256,192,27586,1,8,0:0:0:0:
256,192,27661,1,8,0:0:0:0:
256,192,27736,1,0,0:0:0:0:
256,192,27811,1,0,0:0:0:0:
256,192,27886,1,8,0:0:0:0:
256,192,28036,1,0,0:0:0:0:
256,192,28186,1,8,0:0:0:0:
256,192,28261,1,8,0:0:0:0:
256,192,28336,1,0,0:0:0:0:
256,192,28486,1,12,0:0:0:0:
256,192,28786,1,0,0:0:0:0:
256,192,28861,1,0,0:0:0:0:
256,192,28936,1,8,0:0:0:0:
256,192,29086,1,0,0:0:0:0:
256,192,29161,1,0,0:0:0:0:
256,192,29236,1,8,0:0:0:0:
256,192,29386,1,0,0:0:0:0:
256,192,29461,1,0,0:0:0:0:
256,192,29536,1,8,0:0:0:0:
256,192,29836,1,4,0:0:0:0:
256,192,29986,1,8,0:0:0:0:
256,192,30061,1,8,0:0:0:0:
256,192,30136,1,0,0:0:0:0:
256,192,30211,1,0,0:0:0:0:
256,192,30286,1,8,0:0:0:0:
256,192,30436,1,0,0:0:0:0:
256,192,30586,1,8,0:0:0:0:
256,192,30661,1,8,0:0:0:0:
256,192,30736,1,0,0:0:0:0:
256,192,30886,1,8,0:0:0:0:
256,192,30961,1,0,0:0:0:0:
256,192,31036,1,0,0:0:0:0:
256,192,31186,1,8,0:0:0:0:
256,192,31261,1,8,0:0:0:0:
256,192,31336,1,0,0:0:0:0:
256,192,31486,1,8,0:0:0:0:
256,192,31636,1,8,0:0:0:0:
256,192,31711,1,8,0:0:0:0:
256,192,31786,1,0,0:0:0:0:
256,192,31861,1,0,0:0:0:0:
256,192,31936,1,8,0:0:0:0:
256,192,32011,1,0,0:0:0:0:
256,192,32086,1,0,0:0:0:0:
256,192,32161,1,8,0:0:0:0:
256,192,32236,1,0,0:0:0:0:
256,192,32311,1,0,0:0:0:0:
256,192,32386,1,8,0:0:0:0:
256,192,32461,1,8,0:0:0:0:
256,192,32536,1,0,0:0:0:0:
256,192,32611,1,0,0:0:0:0:
256,192,32686,1,8,0:0:0:0:
256,192,32836,1,0,0:0:0:0:
256,192,32986,1,8,0:0:0:0:
256,192,33061,1,8,0:0:0:0:
256,192,33136,1,0,0:0:0:0:
256,192,33286,1,8,0:0:0:0:
256,192,33361,1,0,0:0:0:0:
256,192,33436,1,0,0:0:0:0:
256,192,33586,1,8,0:0:0:0:
256,192,33661,1,8,0:0:0:0:
256,192,33736,1,0,0:0:0:0:
256,192,33886,1,8,0:0:0:0:
256,192,33961,1,0,0:0:0:0:
256,192,34036,1,8,0:0:0:0:
256,192,34111,1,0,0:0:0:0:
256,192,34186,1,8,0:0:0:0:
256,192,34261,1,0,0:0:0:0:
256,192,34336,1,0,0:0:0:0:
256,192,34411,1,0,0:0:0:0:
256,192,34486,1,8,0:0:0:0:
256,192,34636,1,0,0:0:0:0:
256,192,34711,1,0,0:0:0:0:
256,192,34786,1,8,0:0:0:0:
256,192,34861,1,8,0:0:0:0:
256,192,34936,1,0,0:0:0:0:
256,192,35011,1,0,0:0:0:0:
256,192,35086,1,8,0:0:0:0:
256,192,35236,1,0,0:0:0:0:
256,192,35386,1,8,0:0:0:0:
256,192,35461,1,8,0:0:0:0:
256,192,35536,1,0,0:0:0:0:
256,192,35686,1,8,0:0:0:0:
256,192,35761,1,0,0:0:0:0:
256,192,35836,1,0,0:0:0:0:
256,192,35986,1,8,0:0:0:0:
256,192,36061,1,8,0:0:0:0:
256,192,36136,1,0,0:0:0:0:
256,192,36286,1,8,0:0:0:0:
256,192,36436,1,8,0:0:0:0:
256,192,36511,1,8,0:0:0:0:
256,192,36586,1,0,0:0:0:0:
256,192,36661,1,0,0:0:0:0:
256,192,36736,1,8,0:0:0:0:
256,192,36811,1,0,0:0:0:0:
256,192,36886,1,0,0:0:0:0:
256,192,36961,1,8,0:0:0:0:
256,192,37036,1,0,0:0:0:0:
256,192,37111,1,0,0:0:0:0:
256,192,37186,1,8,0:0:0:0:
256,192,37261,1,8,0:0:0:0:
256,192,37336,1,0,0:0:0:0:
256,192,37411,1,0,0:0:0:0:
256,192,37486,1,8,0:0:0:0:
256,192,37561,1,0,0:0:0:0:
256,192,37636,1,0,0:0:0:0:
256,192,37711,1,0,0:0:0:0:
256,192,37786,1,8,0:0:0:0:
256,192,37861,1,8,0:0:0:0:
256,192,37936,1,0,0:0:0:0:
256,192,38086,1,12,0:0:0:0:
256,192,38386,1,0,0:0:0:0:
256,192,38461,1,0,0:0:0:0:
256,192,38536,1,8,0:0:0:0:
256,192,38686,1,0,0:0:0:0:
256,192,38761,1,0,0:0:0:0:
256,192,38836,1,8,0:0:0:0:
256,192,38986,1,0,0:0:0:0:
256,192,39061,1,0,0:0:0:0:
256,192,39136,1,8,0:0:0:0:
256,192,39436,1,0,0:0:0:0:
256,192,39511,1,0,0:0:0:0:
256,192,39586,1,0,0:0:0:0:
256,192,39736,1,0,0:0:0:0:
256,192,39811,1,0,0:0:0:0:
256,192,39886,1,0,0:0:0:0:
256,192,40036,1,0,0:0:0:0:
256,192,40186,1,0,0:0:0:0:
256,192,40336,1,0,0:0:0:0:
256,192,40486,1,0,0:0:0:0:
256,192,40636,1,0,0:0:0:0:
256,192,40786,1,0,0:0:0:0:
256,192,40936,1,8,0:0:0:0:
256,192,41086,1,0,0:0:0:0:
256,192,41236,1,8,0:0:0:0:
256,192,41536,1,0,0:0:0:0:
256,192,41686,1,8,0:0:0:0:
256,192,41836,1,4,0:0:0:0:
256,192,42136,1,8,0:0:0:0:
256,192,42436,1,0,0:0:0:0:
256,192,42586,1,8,0:0:0:0:
256,192,42736,1,0,0:0:0:0:
256,192,42886,1,0,0:0:0:0:
256,192,43036,1,8,0:0:0:0:
256,192,43186,1,8,0:0:0:0:
256,192,43261,1,8,0:0:0:0:
256,192,43336,1,0,0:0:0:0:
256,192,43486,1,8,0:0:0:0:
256,192,43636,1,0,0:0:0:0:
256,192,43786,1,0,0:0:0:0:
256,192,43936,1,8,0:0:0:0:
256,192,44236,1,4,0:0:0:0:
256,192,44536,1,8,0:0:0:0:
256,192,44686,1,0,0:0:0:0:
256,192,44761,1,8,0:0:0:0:
256,192,44836,1,0,0:0:0:0:
256,192,44986,1,8,0:0:0:0:
256,192,45136,1,0,0:0:0:0:
256,192,45286,1,0,0:0:0:0:
256,192,45436,1,8,0:0:0:0:
256,192,45586,1,8,0:0:0:0:
256,192,45661,1,8,0:0:0:0:
256,192,45736,1,0,0:0:0:0:
256,192,45886,1,8,0:0:0:0:
256,192,46036,1,8,0:0:0:0:
256,192,46186,1,0,0:0:0:0:
256,192,46336,1,0,0:0:0:0:
256,192,46636,1,4,0:0:0:0:
256,192,46936,1,8,0:0:0:0:
256,192,47086,1,0,0:0:0:0:
256,192,47236,1,0,0:0:0:0:
256,192,47386,1,8,0:0:0:0:
256,192,47536,1,0,0:0:0:0:
256,192,47686,1,8,0:0:0:0:
256,192,47836,1,8,0:0:0:0:
256,192,47986,1,0,0:0:0:0:
256,192,48061,1,8,0:0:0:0:
256,192,48136,1,0,0:0:0:0:
256,192,48286,1,8,0:0:0:0:
256,192,48436,1,0,0:0:0:0:
256,192,48586,1,0,0:0:0:0:
256,192,48736,1,8,0:0:0:0:
256,192,49036,1,4,0:0:0:0:
256,192,49186,1,8,0:0:0:0:
256,192,49261,1,8,0:0:0:0:
256,192,49336,1,0,0:0:0:0:
256,192,49486,1,8,0:0:0:0:
256,192,49636,1,8,0:0:0:0:
256,192,49786,1,0,0:0:0:0:
256,192,49936,1,8,0:0:0:0:
256,192,50086,1,8,0:0:0:0:
256,192,50236,1,0,0:0:0:0:
256,192,50386,1,8,0:0:0:0:
256,192,50461,1,8,0:0:0:0:
256,192,50536,1,8,0:0:0:0:
256,192,50686,1,0,0:0:0:0:
256,192,50836,12,0,51286,0:0:0:0:
256,192,51436,5,4,0:0:0:0:
256,192,51886,1,4,0:0:0:0:
256,192,52336,1,4,0:0:0:0:
256,192,52786,1,4,0:0:0:0:
256,192,53236,1,12,0:0:0:0:
256,192,53536,1,12,0:0:0:0:
256,192,53836,1,4,0:0:0:0:
256,192,54286,1,4,0:0:0:0:
256,192,54736,1,4,0:0:0:0:
256,192,55186,1,4,0:0:0:0:
256,192,55636,1,12,0:0:0:0:
256,192,55936,1,12,0:0:0:0:
256,192,56236,1,4,0:0:0:0:
256,192,56536,1,4,0:0:0:0:
256,192,56836,1,4,0:0:0:0:
256,192,57136,1,4,0:0:0:0:
256,192,57436,1,0,0:0:0:0:
256,192,57536,1,0,0:0:0:0:
256,192,57636,1,0,0:0:0:0:
256,192,57736,1,0,0:0:0:0:
256,192,57836,1,0,0:0:0:0:
256,192,57936,1,0,0:0:0:0:
256,192,58036,1,8,0:0:0:0:
256,192,58136,1,8,0:0:0:0:
256,192,58236,1,0,0:0:0:0:
256,192,58336,1,8,0:0:0:0:
256,192,58436,1,8,0:0:0:0:
256,192,58536,1,8,0:0:0:0:
256,192,58636,1,4,0:0:0:0:
256,192,59086,1,4,0:0:0:0:
256,192,59536,1,4,0:0:0:0:
256,192,59836,1,4,0:0:0:0:
256,192,59911,12,0,60436,0:0:0:0:
256,192,60636,5,0,0:0:0:0:
256,192,60736,1,8,0:0:0:0:
256,192,60836,1,0,0:0:0:0:
256,192,60936,1,0,0:0:0:0:
256,192,61036,1,8,0:0:0:0:
256,192,61236,1,8,0:0:0:0:
256,192,61336,1,0,0:0:0:0:
256,192,61536,1,0,0:0:0:0:
256,192,61636,1,8,0:0:0:0:
256,192,61836,1,0,0:0:0:0:
256,192,61936,1,0,0:0:0:0:
256,192,62136,1,8,0:0:0:0:
256,192,62236,1,8,0:0:0:0:
256,192,62436,1,8,0:0:0:0:
256,192,62536,1,0,0:0:0:0:
256,192,62636,1,0,0:0:0:0:
256,192,62736,1,0,0:0:0:0:
256,192,62836,1,8,0:0:0:0:
256,192,62936,1,8,0:0:0:0:
256,192,63036,1,8,0:0:0:0:
256,192,63136,1,8,0:0:0:0:
256,192,63336,1,8,0:0:0:0:
256,192,63436,1,0,0:0:0:0:
256,192,63536,1,8,0:0:0:0:
256,192,63636,1,8,0:0:0:0:
256,192,63736,1,8,0:0:0:0:
256,192,63836,1,0,0:0:0:0:
256,192,63936,1,0,0:0:0:0:
256,192,64036,1,8,0:0:0:0:
256,192,64236,1,0,0:0:0:0:
256,192,64336,1,0,0:0:0:0:
256,192,64536,1,8,0:0:0:0:
256,192,64636,1,8,0:0:0:0:
256,192,64836,1,8,0:0:0:0:
256,192,64936,1,0,0:0:0:0:
256,192,65136,1,0,0:0:0:0:
256,192,65236,1,8,0:0:0:0:
256,192,65436,1,8,0:0:0:0:
256,192,65536,1,0,0:0:0:0:
256,192,65636,1,0,0:0:0:0:
256,192,65736,1,0,0:0:0:0:
256,192,65836,1,8,0:0:0:0:
256,192,66036,1,8,0:0:0:0:
256,192,66136,1,0,0:0:0:0:
256,192,66336,1,0,0:0:0:0:
256,192,66436,1,8,0:0:0:0:
256,192,66636,1,0,0:0:0:0:
256,192,66736,1,0,0:0:0:0:
256,192,66936,1,8,0:0:0:0:
256,192,67036,1,8,0:0:0:0:
256,192,67236,1,8,0:0:0:0:
256,192,67336,1,0,0:0:0:0:
256,192,67536,1,0,0:0:0:0:
256,192,67636,1,8,0:0:0:0:
256,192,67736,1,8,0:0:0:0:
256,192,67836,1,0,0:0:0:0:
256,192,67936,1,8,0:0:0:0:
256,192,68036,1,0,0:0:0:0:
256,192,68136,1,0,0:0:0:0:
256,192,68236,1,8,0:0:0:0:
256,192,68436,1,8,0:0:0:0:
256,192,68536,1,0,0:0:0:0:
256,192,68636,1,0,0:0:0:0:
256,192,68736,1,8,0:0:0:0:
256,192,68836,1,0,0:0:0:0:
256,192,69036,1,0,0:0:0:0:
256,192,69136,1,8,0:0:0:0:
256,192,69336,1,8,0:0:0:0:
256,192,69436,1,8,0:0:0:0:
256,192,69636,1,8,0:0:0:0:
256,192,69736,1,0,0:0:0:0:
256,192,69936,1,0,0:0:0:0:
256,192,70036,1,8,0:0:0:0:
256,192,70236,1,0,0:0:0:0:
256,192,70336,1,0,0:0:0:0:
256,192,70536,1,0,0:0:0:0:
256,192,70636,1,8,0:0:0:0:
256,192,70836,1,8,0:0:0:0:
256,192,70936,1,0,0:0:0:0:
256,192,71136,1,0,0:0:0:0:
256,192,71236,1,8,0:0:0:0:
256,192,71436,1,0,0:0:0:0:
256,192,71536,1,0,0:0:0:0:
256,192,71736,1,8,0:0:0:0:
256,192,71836,1,8,0:0:0:0:
256,192,72036,1,8,0:0:0:0:
256,192,72136,1,0,0:0:0:0:
256,192,72236,1,0,0:0:0:0:
256,192,72336,1,0,0:0:0:0:
256,192,72436,1,8,0:0:0:0:
256,192,72536,1,8,0:0:0:0:
256,192,72636,1,8,0:0:0:0:
256,192,72736,1,8,0:0:0:0:
256,192,72936,1,8,0:0:0:0:
256,192,73036,1,0,0:0:0:0:
256,192,73136,1,8,0:0:0:0:
256,192,73236,1,8,0:0:0:0:
256,192,73336,1,8,0:0:0:0:
256,192,73436,1,0,0:0:0:0:
256,192,73536,1,0,0:0:0:0:
256,192,73636,1,8,0:0:0:0:
256,192,73836,1,0,0:0:0:0:
256,192,73936,1,0,0:0:0:0:
256,192,74136,1,8,0:0:0:0:
256,192,74236,1,8,0:0:0:0:
256,192,74436,1,8,0:0:0:0:
256,192,74536,1,0,0:0:0:0:
256,192,74736,1,0,0:0:0:0:
256,192,74836,1,8,0:0:0:0:
256,192,75036,1,8,0:0:0:0:
256,192,75136,1,0,0:0:0:0:
256,192,75236,1,0,0:0:0:0:
256,192,75336,1,0,0:0:0:0:
256,192,75436,1,8,0:0:0:0:
256,192,75636,1,8,0:0:0:0:
256,192,75736,1,0,0:0:0:0:
256,192,75936,1,0,0:0:0:0:
256,192,76036,1,8,0:0:0:0:
256,192,76236,1,0,0:0:0:0:
256,192,76336,1,0,0:0:0:0:
256,192,76536,1,8,0:0:0:0:
256,192,76636,1,8,0:0:0:0:
256,192,76836,1,8,0:0:0:0:
256,192,76936,1,0,0:0:0:0:
256,192,77136,1,0,0:0:0:0:
256,192,77236,1,8,0:0:0:0:
256,192,77336,1,8,0:0:0:0:
256,192,77436,1,0,0:0:0:0:
256,192,77536,1,8,0:0:0:0:
256,192,77636,1,0,0:0:0:0:
256,192,77736,1,0,0:0:0:0:
256,192,77836,1,8,0:0:0:0:
256,192,78036,1,8,0:0:0:0:
256,192,78136,1,0,0:0:0:0:
256,192,78236,1,0,0:0:0:0:
256,192,78336,1,8,0:0:0:0:
256,192,78436,1,0,0:0:0:0:
256,192,78636,1,0,0:0:0:0:
256,192,78736,1,8,0:0:0:0:
256,192,78936,1,8,0:0:0:0:
256,192,79036,1,8,0:0:0:0:
256,192,79236,1,8,0:0:0:0:
256,192,79336,1,0,0:0:0:0:
256,192,79536,1,0,0:0:0:0:
256,192,79636,1,8,0:0:0:0:
256,192,79836,1,0,0:0:0:0:
256,192,79936,1,0,0:0:0:0:
256,192,80236,5,4,0:0:0:0:
256,192,80686,1,4,0:0:0:0:
256,192,81136,1,4,0:0:0:0:
256,192,81586,1,4,0:0:0:0:
256,192,82036,1,12,0:0:0:0:
256,192,82336,1,12,0:0:0:0:
256,192,82636,1,4,0:0:0:0:
256,192,83086,1,4,0:0:0:0:
256,192,83536,1,4,0:0:0:0:
256,192,83986,1,4,0:0:0:0:
256,192,84436,1,12,0:0:0:0:
256,192,84736,1,12,0:0:0:0:
256,192,85036,1,4,0:0:0:0:
256,192,85336,1,4,0:0:0:0:
256,192,85636,1,4,0:0:0:0:
256,192,85936,1,4,0:0:0:0:
256,192,86236,1,0,0:0:0:0:
256,192,86336,1,0,0:0:0:0:
256,192,86436,1,0,0:0:0:0:
256,192,86536,1,0,0:0:0:0:
256,192,86636,1,0,0:0:0:0:
256,192,86736,1,0,0:0:0:0:
256,192,86836,1,8,0:0:0:0:
256,192,86936,1,8,0:0:0:0:
256,192,87036,1,0,0:0:0:0:
256,192,87136,1,8,0:0:0:0:
256,192,87236,1,8,0:0:0:0:
256,192,87336,1,8,0:0:0:0:
256,192,87436,1,4,0:0:0:0:
256,192,87886,1,4,0:0:0:0:
256,192,88336,1,4,0:0:0:0:
256,192,88636,1,4,0:0:0:0:
256,192,88936,12,0,89386,0:0:0:0:
256,192,89536,5,0,0:0:0:0:
256,192,89686,1,8,0:0:0:0:
256,192,89836,1,4,0:0:0:0:
256,192,90136,1,8,0:0:0:0:
256,192,90436,1,0,0:0:0:0:
256,192,90586,1,8,0:0:0:0:
256,192,90736,1,0,0:0:0:0:
256,192,90886,1,0,0:0:0:0:
256,192,91036,1,8,0:0:0:0:
256,192,91186,1,8,0:0:0:0:
256,192,91261,1,8,0:0:0:0:
256,192,91336,1,0,0:0:0:0:
256,192,91486,1,8,0:0:0:0:
256,192,91636,1,0,0:0:0:0:
256,192,91786,1,0,0:0:0:0:
256,192,91936,1,8,0:0:0:0:
256,192,92236,1,4,0:0:0:0:
256,192,92536,1,8,0:0:0:0:
256,192,92686,1,0,0:0:0:0:
256,192,92761,1,8,0:0:0:0:
256,192,92836,1,0,0:0:0:0:
256,192,92986,1,8,0:0:0:0:
256,192,93136,1,0,0:0:0:0:
256,192,93286,1,0,0:0:0:0:
256,192,93436,1,8,0:0:0:0:
256,192,93586,1,8,0:0:0:0:
256,192,93661,1,8,0:0:0:0:
256,192,93736,1,0,0:0:0:0:
256,192,93886,1,8,0:0:0:0:
256,192,94036,1,8,0:0:0:0:
256,192,94186,1,0,0:0:0:0:
256,192,94336,1,0,0:0:0:0:
256,192,94636,1,4,0:0:0:0:
256,192,94936,1,8,0:0:0:0:
256,192,95086,1,0,0:0:0:0:
256,192,95236,1,0,0:0:0:0:
256,192,95386,1,8,0:0:0:0:
256,192,95536,1,0,0:0:0:0:
256,192,95686,1,8,0:0:0:0:
256,192,95836,1,8,0:0:0:0:
256,192,95986,1,0,0:0:0:0:
256,192,96061,1,8,0:0:0:0:
256,192,96136,1,0,0:0:0:0:
256,192,96286,1,8,0:0:0:0:
256,192,96436,1,0,0:0:0:0:
256,192,96586,1,0,0:0:0:0:
256,192,96736,1,8,0:0:0:0:
256,192,97036,1,4,0:0:0:0:
256,192,97186,1,8,0:0:0:0:
256,192,97261,1,8,0:0:0:0:
256,192,97336,1,0,0:0:0:0:
256,192,97486,1,8,0:0:0:0:
256,192,97636,1,8,0:0:0:0:
256,192,97786,1,0,0:0:0:0:
256,192,97936,1,8,0:0:0:0:
256,192,98086,1,8,0:0:0:0:
256,192,98236,1,0,0:0:0:0:
256,192,98386,1,8,0:0:0:0:
256,192,98461,1,8,0:0:0:0:
256,192,98536,1,8,0:0:0:0:
256,192,98686,1,0,0:0:0:0:
256,192,98836,12,0,99286,0:0:0:0:
256,192,99436,5,4,0:0:0:0:
256,192,99886,1,4,0:0:0:0:
256,192,100336,1,4,0:0:0:0:
256,192,100636,1,4,0:0:0:0:
