osu file format v14

[General]
AudioFilename: audio.mp3
AudioLeadIn: 0
PreviewTime: 19936
Countdown: 0
SampleSet: Drum
StackLeniency: 0.2
Mode: 0
LetterboxInBreaks: 0
WidescreenStoryboard: 0

[Editor]
Bookmarks: 1036,5836,20236,29836,39436,41836,51436,61036,70636,80236,89836,99436,101836
DistanceSpacing: 0.9
BeatDivisor: 4
GridSize: 32
TimelineZoom: 5.099997

[Metadata]
Title:On the FM
TitleUnicode:On the FM
Artist:C-Show
ArtistUnicode:C-Show
Creator:Kawashiro
Version:Shake It!!!
Source:beatmania IIDX 23 copula
Tags:KONAMI BEMANI Kaitsuu! Tokotoko line vol.2 24 SINOBUZ PANIC HOLIC CShow RADIO SHOWCASE 開通!とことこライン Electronic Instrumental Dashyy- -Unlimit- toybot Ayyri eiri- Foxy Grandpa Foxy_Grandpa
BeatmapID:2796778
BeatmapSetID:1348425

[Difficulty]
HPDrainRate:7
CircleSize:4.3
OverallDifficulty:9
ApproachRate:9.7
SliderMultiplier:2.4
SliderTickRate:0.5

[Events]
//Background and Video events
0,0,"bgg.png",0,0
//Break Periods
//Storyboard Layer 0 (Background)
//Storyboard Layer 1 (Fail)
//Storyboard Layer 2 (Pass)
//Storyboard Layer 3 (Foreground)
//Storyboard Layer 4 (Overlay)
//Storyboard Sound Samples

[TimingPoints]
1036,300,4,2,1,40,1,0
1036,-200,4,2,1,40,0,0
3136,-83.3333333333333,4,2,4,40,0,0
3436,-133.333333333333,4,2,1,40,0,0
5836,-100,4,3,2,50,0,0
7036,-66.6666666666667,4,3,2,50,0,0
7411,-100,4,2,1,35,0,0
7486,-100,4,2,1,5,0,0
7561,-133.333333333333,4,2,1,35,0,0
7636,-133.333333333333,4,2,1,5,0,0
7711,-200,4,2,1,35,0,0
7786,-200,4,2,1,5,0,0
7861,-200,4,2,1,35,0,0
7936,-83.3333333333333,4,2,1,50,0,0
8236,-133.333333333333,4,2,6,50,0,0
8536,-133.333333333333,4,2,5,50,0,0
8836,-200,4,2,3,50,0,0
8986,-200,4,3,3,60,0,0
9736,-200,4,3,2,60,0,0
10036,-200,4,3,3,60,0,0
12436,-133.333333333333,4,3,3,60,0,0
12736,-133.333333333333,4,2,4,60,0,0
12773,-133.333333333333,4,2,4,5,0,0
13036,-200,4,2,1,70,0,0
13486,-166.666666666667,4,2,1,70,0,0
13936,-142.857142857143,4,2,1,70,0,0
14386,-125,4,2,1,70,0,0
14836,-111.111111111111,4,2,1,70,0,0
15136,-100,4,2,1,70,0,0
15436,-1000,4,2,1,70,0,0
17836,-100,4,2,1,70,0,0
19036,-100,4,3,15,70,0,0
19111,-100,4,2,1,70,0,0
20236,-76.9230769230769,4,3,4,75,0,1
20273,-76.9230769230769,4,3,2,75,0,1
22336,-133.333333333333,4,3,2,75,0,1
22636,-76.9230769230769,4,3,2,75,0,1
24436,-76.9230769230769,4,3,6,75,0,1
25036,-76.9230769230769,4,3,2,75,0,1
27136,-133.333333333333,4,3,7,75,0,1
27436,-76.9230769230769,4,3,2,75,0,1
29836,-76.9230769230769,4,3,8,75,0,1
31936,-133.333333333333,4,3,7,75,0,1
32236,-76.9230769230769,4,3,8,75,0,1
33736,-76.9230769230769,4,3,6,75,0,1
34636,-76.9230769230769,4,3,2,75,0,1
36736,-133.333333333333,4,3,7,75,0,1
37036,-76.9230769230769,4,3,8,75,0,1
39436,-200,4,3,8,75,0,0
40636,-100,4,3,8,75,0,0
41536,-100,4,3,7,75,0,0
41836,-200,4,3,9,70,0,0
44236,-200,4,3,8,70,0,0
44311,-200,4,3,9,70,0,0
45736,-200,4,3,8,70,0,0
45811,-200,4,3,9,70,0,0
46636,-133.333333333333,4,3,9,70,0,0
46936,-133.333333333333,4,3,10,70,0,0
50836,-133.333333333333,4,2,1,40,0,0
51436,-100,4,3,11,70,0,0
57436,-100,4,3,2,70,0,0
58636,-100,4,3,11,70,0,0
60136,-100,4,3,8,70,0,0
60586,-100,4,3,3,70,0,0
61036,-76.9230769230769,4,3,4,80,0,1
61111,-76.9230769230769,4,3,3,80,0,1
70636,-76.9230769230769,4,3,4,80,0,1
70711,-76.9230769230769,4,3,16,80,0,1
78936,-76.9230769230769,4,3,2,80,0,1
79936,-76.9230769230769,4,3,1,80,0,1
80236,-76.9230769230769,4,3,11,80,0,0
86236,-76.9230769230769,4,3,12,80,0,0
87436,-76.9230769230769,4,3,11,80,0,0
88936,-100,4,3,11,80,0,0
89536,-100,4,3,7,80,0,0
89836,-200,4,3,6,70,0,0
89911,-200,4,3,9,70,0,0
92236,-200,4,3,8,70,0,0
92311,-200,4,3,9,70,0,0
94636,-133.333333333333,4,3,6,70,0,0
94936,-133.333333333333,4,3,10,70,0,0
98836,-133.333333333333,4,3,2,60,0,0
99436,-100,4,3,11,80,0,0
100936,-400,4,3,1,80,0,0

[Colours]
Combo1 : 187,187,187
Combo2 : 46,254,249
Combo3 : 173,206,136
Combo4 : 254,84,143

[HitObjects]
363,106,1036,5,2,0:0:0:0:
363,106,1336,1,2,0:0:0:0:
448,78,1786,1,2,0:0:0:0:
446,107,1861,1,2,0:0:0:0:
444,136,1936,1,2,0:0:0:0:
380,193,2086,1,2,0:0:0:0:
275,73,2236,6,0,P|276:37|297:6,1,60,2|0,0:0|0:0,0:0:0:0:
227,155,2536,2,0,P|197:136|179:102,1,60,2|0,0:0|0:0,0:0:0:0:
363,106,2836,1,0,0:0:0:0:
181,305,2986,5,2,0:0:0:0:
155,289,3061,1,0,0:0:0:0:
129,274,3136,2,0,B|91:244|91:244|259:261,1,215.999993408203,4|0,0:0|0:0,0:0:0:0:
424,259,3436,6,0,B|430:281|430:281|420:300,1,45.0000017166138,8|0,0:3|0:0,0:0:0:0:
352,358,3586,1,8,0:3:0:0:
301,188,3736,1,8,0:3:0:0:
509,279,3886,1,8,0:3:0:0:
264,374,4036,2,0,P|250:355|231:344,1,45.0000017166138,8|0,0:3|0:0,0:0:0:0:
150,344,4186,1,8,0:3:0:0:
347,281,4336,1,8,0:3:0:0:
207,138,4486,1,8,0:3:0:0:
431,44,4636,5,8,0:3:0:0:
430,56,4711,1,8,0:3:0:0:
429,69,4786,1,8,0:3:0:0:
428,82,4861,1,8,0:3:0:0:
444,114,4936,1,8,0:3:0:0:
443,126,5011,1,8,0:3:0:0:
442,139,5086,1,8,0:3:0:0:
441,152,5161,1,8,0:3:0:0:
455,185,5236,2,0,P|442:209|407:226,1,45.0000017166138,12|0,0:0|0:0,0:0:0:0:
349,237,5386,1,8,0:0:0:0:
506,271,5536,1,10,0:0:0:0:
395,384,5686,1,0,0:0:0:0:
210,282,5836,6,0,P|195:258|144:242,1,60,12|0,0:0|0:0,0:0:0:0:
81,229,5986,1,0,0:0:0:0:
230,373,6136,1,8,0:0:0:0:
141,153,6286,2,0,B|133:76|133:76|167:36,1,120,2|8,0:0|0:0,0:0:0:0:
352,226,6586,2,0,B|345:303|345:303|304:335,1,120,2|8,0:0|0:0,0:0:0:0:
1,250,6886,1,2,0:0:0:0:
403,128,7036,6,0,B|471:114|505:185|505:185|455:154|392:177|392:177|333:200|283:167,1,360.000013732911,0|0,0:0|0:0,0:0:0:0:
219,209,7411,2,0,P|198:188|191:159,1,60,0|0,0:0|0:0,0:0:0:0:
116,153,7561,2,0,P|114:127|129:99,1,45.0000017166138,0|0,0:0|0:0,0:0:0:0:
66,56,7711,2,0,P|80:42|104:38,1,30,0|0,0:0|0:0,0:0:0:0:
166,12,7861,1,0,0:0:0:0:
210,87,7936,6,0,B|216:164|216:164|188:213|188:213|195:294,1,215.999993408203
161,362,8236,2,0,P|193:367|224:401,2,60.0000022888184,2|0|0,0:0|0:0|0:0,0:0:0:0:
273,250,8536,2,0,B|311:251|333:225|333:225|355:195|391:196,1,135.000005149841,2|0,0:0|0:0,0:0:0:0:
464,213,8836,5,4,0:0:0:0:
424,328,8986,2,0,B|407:305|407:305|411:273,1,60,6|0,0:0|0:0,0:0:0:0:
500,95,9286,2,0,B|517:118|517:118|512:149,1,60,2|0,0:0|0:0,0:0:0:0:
328,257,9586,2,0,L|247:261,1,60,2|8,0:0|0:0,0:0:0:0:
489,375,9886,1,2,0:0:0:0:
376,127,10036,5,8,0:0:0:0:
376,127,10186,1,2,0:0:0:0:
431,184,10336,2,0,P|426:220|402:247,1,60,2|0,0:0|0:0,0:0:0:0:
250,118,10636,2,0,P|278:140|290:174,1,60,2|0,0:0|0:0,0:0:0:0:
296,320,10936,1,2,0:0:0:0:
109,222,11086,2,0,L|184:210,1,60,4|0,0:0|0:0,0:0:0:0:
438,56,11386,5,2,0:0:0:0:
423,53,11461,1,2,0:0:0:0:
408,50,11536,2,0,L|333:38,1,60,2|2,0:0|0:0,0:0:0:0:
150,35,11836,2,0,P|173:69|204:81,1,60,0|2,0:0|0:0,0:0:0:0:
283,248,12136,2,0,P|300:211|295:178,1,60,4|2,0:0|0:0,0:0:0:0:
36,254,12436,6,0,L|102:262,1,45.0000017166138,8|0,0:0|0:0,0:0:0:0:
161,269,12586,1,2,0:0:0:0:
463,299,12736,2,0,B|426:297|402:323|402:323|378:353|344:351,1,135.000005149841,6|0,0:0|0:0,0:0:0:0:
270,384,13036,6,0,L|268:354,1,30,10|0,0:3|0:0,0:0:0:0:
260,374,13486,6,0,L|258:338,1,35.9999989013672,10|0,0:3|0:0,0:0:0:0:
250,364,13936,6,0,L|247:322,1,41.9999987182618,10|0,0:3|0:0,0:0:0:0:
240,354,14386,6,0,L|236:276,1,48,10|0,0:3|0:0,0:0:0:0:
230,344,14836,6,0,L|227:290,1,53.9999983520508,14|0,0:3|0:0,0:0:0:0:
346,85,15136,6,0,L|349:25,1,60,14|0,0:3|0:0,0:0:0:0:
2,161,15436,6,0,B|45:148|84:183|84:183|121:221|166:207,1,180,6|0,0:0|0:0,0:0:0:0:
224,262,17836,5,8,0:3:0:0:
247,227,17911,1,8,0:3:0:0:
285,210,17986,1,8,0:3:0:0:
326,208,18061,1,8,0:3:0:0:
407,210,18136,5,8,0:3:0:0:
424,213,18211,1,8,0:3:0:0:
421,230,18286,1,8,0:3:0:0:
404,227,18361,1,8,0:3:0:0:
326,208,18436,5,8,0:3:0:0:
298,176,18511,1,8,0:3:0:0:
296,134,18586,1,8,0:3:0:0:
314,96,18661,1,8,0:3:0:0:
381,52,18736,5,8,0:3:0:0:
395,43,18811,1,0,0:0:0:0:
404,57,18886,1,8,0:3:0:0:
389,66,18961,1,8,0:3:0:0:
314,96,19036,5,10,0:3:0:0:
272,103,19111,1,10,0:3:0:0:
230,110,19186,1,8,0:3:0:0:
188,116,19261,1,8,0:3:0:0:
146,123,19336,2,0,L|86:131,1,60,8|8,0:3|0:3,0:0:0:0:
346,232,19486,1,8,0:3:0:0:
388,238,19561,1,8,0:3:0:0:
430,245,19636,2,0,P|458:250|485:282,1,60,8|8,0:3|0:3,0:0:0:0:
320,352,19786,2,0,P|298:372|269:378,1,60,8|8,0:3|0:3,0:0:0:0:
328,143,19936,6,0,B|332:106|332:106|346:88|346:88|334:72|334:72|336:32,1,120,6|0,0:0|0:0,0:0:0:0:
0,268,20236,5,4,0:0:0:0:
19,301,20311,1,0,0:0:0:0:
53,319,20386,2,0,P|91:319|127:304,1,77.9999964294435,0|0,0:0|0:0,0:0:0:0:
224,181,20536,2,0,L|218:276,1,77.9999964294435,8|0,0:0|0:0,0:0:0:0:
215,363,20686,1,2,0:0:0:0:
80,91,20836,1,8,0:0:0:0:
374,254,20986,2,0,P|422:254|456:233,1,77.9999964294435,2|0,0:0|0:0,0:0:0:0:
511,174,21136,1,8,0:0:0:0:
320,176,21286,2,0,P|344:134|342:94,1,77.9999964294435,2|0,0:0|0:0,0:0:0:0:
319,17,21436,1,8,0:0:0:0:
214,144,21586,2,0,P|190:102|154:83,1,77.9999964294435,2|0,0:0|0:0,0:0:0:0:
28,203,21736,6,0,L|123:194,1,77.9999964294435,8|0,0:0|0:0,0:0:0:0:
411,349,21886,2,0,L|316:340,1,77.9999964294435,2|0,0:0|0:0,0:0:0:0:
111,309,22036,2,0,B|171:315|212:265|212:265|251:214|316:222,1,233.999989288331,8|0,0:0|0:0,0:0:0:0:
384,265,22336,6,0,P|405:261|422:246,2,45.0000017166138,10|0|10,0:0|0:0|0:0,0:0:0:0:
117,187,22636,5,12,0:0:0:0:
80,173,22711,1,0,0:0:0:0:
51,145,22786,2,0,P|37:108|43:70,1,77.9999964294435,2|0,0:0|0:0,0:0:0:0:
201,230,22936,2,0,P|206:268|192:304,1,77.9999964294435,8|0,0:0|0:0,0:0:0:0:
123,359,23086,1,2,0:0:0:0:
422,245,23236,1,8,0:0:0:0:
186,133,23386,2,0,L|189:43,1,77.9999964294435,2|0,0:0|0:0,0:0:0:0:
125,3,23536,1,8,0:0:0:0:
324,242,23686,2,0,L|321:152,1,77.9999964294435,2|0,0:0|0:0,0:0:0:0:
389,117,23836,1,8,0:0:0:0:
192,304,23986,6,0,P|163:278|125:267,1,77.9999964294435,2|0,0:0|0:0,0:0:0:0:
34,288,24136,1,8,0:0:0:0:
390,384,24286,2,0,P|418:358|456:347,1,77.9999964294435,2|0,0:0|0:0,0:0:0:0:
324,242,24436,2,0,L|321:152,1,77.9999964294435,10|0,0:0|0:0,0:0:0:0:
320,71,24586,1,2,0:0:0:0:
198,309,24736,1,10,0:0:0:0:
500,203,24886,1,0,0:0:0:0:
170,138,25036,5,4,0:0:0:0:
131,142,25111,1,0,0:0:0:0:
92,147,25186,2,0,L|14:158,1,77.9999964294435,0|0,0:0|0:0,0:0:0:0:
234,219,25336,2,0,P|277:252|288:299,1,77.9999964294435,8|0,0:0|0:0,0:0:0:0:
273,364,25486,1,2,0:0:0:0:
393,155,25636,1,8,0:0:0:0:
91,350,25786,2,0,P|50:335|22:296,1,77.9999964294435,2|0,0:0|0:0,0:0:0:0:
0,237,25936,1,8,0:0:0:0:
151,248,26086,2,0,P|143:204|163:161,1,77.9999964294435,2|0,0:0|0:0,0:0:0:0:
203,112,26236,1,8,0:0:0:0:
278,253,26386,2,0,P|311:224|359:220,1,77.9999964294435,2|0,0:0|0:0,0:0:0:0:
466,185,26536,6,0,L|461:276,1,77.9999964294435,10|0,0:0|0:0,0:0:0:0:
306,110,26686,2,0,L|301:32,1,77.9999964294435,2|0,0:0|0:0,0:0:0:0:
134,245,26836,2,0,B|194:248|227:304|227:304|257:360|323:363,1,233.999989288331,2|0,0:0|0:0,0:0:0:0:
392,329,27136,6,0,P|417:330|446:349,2,45.0000017166138,2|0|2,0:0|0:0|0:0,0:0:0:0:
155,384,27436,5,12,0:0:0:0:
116,379,27511,1,0,0:0:0:0:
77,373,27586,2,0,L|-11:363,1,77.9999964294435,2|0,0:0|0:0,0:0:0:0:
233,313,27736,2,0,P|268:298|298:244,1,77.9999964294435,8|0,0:0|0:0,0:0:0:0:
309,186,27886,1,2,0:0:0:0:
106,9,28036,1,8,0:0:0:0:
0,283,28186,2,0,L|77:274,1,77.9999964294435,2|0,0:0|0:0,0:0:0:0:
160,263,28336,1,8,0:0:0:0:
486,319,28486,6,0,B|442:338|441:381|441:381|414:230,1,233.999989288331,2|0,0:0|0:0,0:0:0:0:
404,156,28786,1,2,0:0:0:0:
398,117,28861,1,2,0:0:0:0:
392,78,28936,2,0,L|381:0,1,77.9999964294435,10|0,0:0|0:0,0:0:0:0:
502,219,29086,2,0,L|513:141,1,77.9999964294435,0|2,0:0|0:0,0:0:0:0:
307,321,29236,1,8,0:0:0:0:
112,109,29386,1,0,0:0:0:0:
129,143,29461,1,0,0:0:0:0:
158,168,29536,2,0,P|202:181|247:174,1,77.9999964294435,2|0,0:0|0:0,0:0:0:0:
301,129,29686,2,0,P|309:103|296:125,1,77.9999964294435,0|0,0:0|0:0,0:0:0:0:
74,230,29836,5,12,0:0:0:0:
78,268,29911,1,0,0:0:0:0:
81,306,29986,2,0,L|89:390,1,77.9999964294435,0|0,0:0|0:0,0:0:0:0:
195,261,30136,2,0,L|187:345,1,77.9999964294435,8|0,0:0|0:0,0:0:0:0:
0,168,30286,1,2,0:0:0:0:
289,280,30436,2,0,P|320:272|356:233,1,77.9999964294435,8|0,0:0|0:0,0:0:0:0:
0,168,30586,1,0,0:0:0:0:
316,164,30736,2,0,P|334:137|337:84,1,77.9999964294435,8|0,0:0|0:0,0:0:0:0:
0,168,30886,1,2,0:0:0:0:
260,69,31036,2,0,P|257:37|225:-5,1,77.9999964294435,8|0,0:0|0:0,0:0:0:0:
0,168,31186,1,2,0:0:0:0:
375,239,31336,6,0,L|452:232,1,77.9999964294435,10|0,0:0|0:0,0:0:0:0:
119,335,31486,2,0,L|41:328,1,77.9999964294435,2|0,0:0|0:0,0:0:0:0:
329,376,31636,2,0,B|314:312|253:292|253:292|192:271|177:213,1,233.999989288331,10|0,0:0|0:0,0:0:0:0:
245,159,31936,6,0,L|248:112,2,45.0000017166138,2|0|2,0:0|0:0|0:0,0:0:0:0:
424,348,32236,5,6,0:0:0:0:
428,309,32311,1,0,0:0:0:0:
433,270,32386,2,0,L|440:183,1,77.9999964294435,2|0,0:0|0:0,0:0:0:0:
324,19,32536,2,0,P|328:66|356:94,1,77.9999964294435,8|0,0:0|0:0,0:0:0:0:
506,120,32686,1,2,0:0:0:0:
230,127,32836,2,0,P|263:160|303:164,1,77.9999964294435,8|0,0:0|0:0,0:0:0:0:
506,120,32986,1,2,0:0:0:0:
221,263,33136,2,0,P|268:267|300:244,1,77.9999964294435,8|0,0:0|0:0,0:0:0:0:
506,120,33286,1,2,0:0:0:0:
296,381,33436,2,0,P|335:353|345:315,1,77.9999964294435,8|0,0:0|0:0,0:0:0:0:
506,120,33586,1,2,0:0:0:0:
129,262,33736,6,0,L|47:255,1,77.9999964294435,2|0,0:0|0:0,0:0:0:0:
281,383,33886,1,0,0:0:0:0:
412,143,34036,2,0,P|397:97|357:72,1,77.9999964294435,2|0,0:0|0:0,0:0:0:0:
278,34,34186,1,2,0:0:0:0:
428,318,34336,1,2,0:0:0:0:
92,178,34486,1,0,0:0:0:0:
489,36,34636,5,4,0:0:0:0:
491,74,34711,1,0,0:0:0:0:
493,112,34786,2,0,L|499:196,1,77.9999964294435,2|0,0:0|0:0,0:0:0:0:
318,264,34936,2,0,L|324:180,1,77.9999964294435,8|0,0:0|0:0,0:0:0:0:
512,384,35086,1,2,0:0:0:0:
181,293,35236,2,0,P|197:323|252:350,1,77.9999964294435,8|0,0:0|0:0,0:0:0:0:
512,384,35386,1,2,0:0:0:0:
236,134,35536,2,0,P|228:167|253:223,1,77.9999964294435,8|0,0:0|0:0,0:0:0:0:
512,384,35686,1,2,0:0:0:0:
377,53,35836,2,0,P|350:73|333:132,1,77.9999964294435,8|0,0:0|0:0,0:0:0:0:
512,384,35986,1,2,0:0:0:0:
102,260,36136,6,0,L|12:256,1,77.9999964294435,10|0,0:0|0:0,0:0:0:0:
434,112,36286,2,0,L|524:108,1,77.9999964294435,2|0,0:0|0:0,0:0:0:0:
216,342,36436,2,0,B|275:333|302:274|302:274|328:216|393:207,1,233.999989288331,2|0,0:0|0:0,0:0:0:0:
474,194,36736,6,0,L|470:238,2,45.0000017166138,2|0|2,0:0|0:0|0:0,0:0:0:0:
154,14,37036,5,12,0:0:0:0:
157,52,37111,1,0,0:0:0:0:
160,90,37186,2,0,L|169:218,1,77.9999964294435,2|0,0:0|0:0,0:0:0:0:
177,380,37336,2,0,P|203:361|224:307,1,77.9999964294435,8|0,0:0|0:0,0:0:0:0:
75,134,37486,1,2,0:0:0:0:
325,312,37636,2,0,P|332:280|314:225,1,77.9999964294435,8|0,0:0|0:0,0:0:0:0:
75,134,37786,1,2,0:0:0:0:
394,164,37936,2,0,P|379:135|330:105,1,77.9999964294435,8|0,0:0|0:0,0:0:0:0:
75,134,38086,6,0,B|54:165|16:166|16:166|194:183,1,233.999989288331,6|0,0:0|0:0,0:0:0:0:
224,243,38386,1,2,0:0:0:0:
256,222,38461,1,2,0:0:0:0:
294,221,38536,2,0,P|332:226|376:263,1,77.9999964294435,6|0,0:0|0:0,0:0:0:0:
433,190,38686,1,2,0:0:0:0:
467,207,38761,1,2,0:0:0:0:
487,239,38836,2,0,P|501:274|491:331,1,77.9999964294435,6|0,0:0|0:0,0:0:0:0:
412,344,38986,1,0,0:0:0:0:
412,344,39061,1,2,0:0:0:0:
412,344,39136,2,0,B|408:297|408:297|396:279|396:279|406:259|406:259|401:208|401:208|409:189|409:189|399:170|399:170|395:115,1,233.999989288331,6|0,0:0|0:0,0:0:0:0:
388,34,39436,6,0,L|385:-3,2,30,2|2|2,0:0|0:0|0:0,0:0:0:0:
395,120,39736,2,0,L|397:149,2,30,2|2|2,0:0|0:0|0:0,0:0:0:0:
388,34,40036,1,2,0:0:0:0:
395,120,40186,1,2,0:0:0:0:
388,34,40336,1,2,0:0:0:0:
395,120,40486,1,2,0:0:0:0:
314,83,40636,5,2,0:0:0:0:
472,70,40786,1,2,0:0:0:0:
314,83,40936,2,0,L|189:95,1,120,2|2,0:0|0:0,0:0:0:0:
433,229,41236,2,0,B|390:239|350:206|350:206|307:172|265:182,1,180,4|0,0:0|0:0,0:0:0:0:
191,216,41536,2,0,P|159:207|136:176,1,60,2|0,0:0|0:0,0:0:0:0:
116,113,41686,1,0,0:0:0:0:
38,346,41836,5,4,0:0:0:0:
37,345,42136,2,0,P|53:319|79:305,1,60,2|0,0:0|0:0,0:0:0:0:
163,303,42436,1,8,0:0:0:0:
53,95,42586,2,0,L|48:161,1,60,2|0,0:0|0:0,0:0:0:0:
253,323,42886,2,0,L|248:263,1,60,2|0,0:0|0:0,0:0:0:0:
43,234,43186,2,0,P|88:225|111:197,1,60,2|0,0:0|3:0,0:0:0:0:
216,37,43486,1,2,0:0:0:0:
168,106,43636,2,0,L|173:175,1,60,8|2,0:0|0:0,0:0:0:0:
332,348,43936,2,0,L|337:289,1,60,2|0,0:0|0:0,0:0:0:0:
216,37,44236,5,6,0:0:0:0:
216,37,44536,2,0,P|234:67|265:80,1,60,2|0,0:0|0:0,0:0:0:0:
338,89,44836,1,8,0:0:0:0:
172,165,44986,2,0,L|101:168,1,60,2|0,0:0|0:0,0:0:0:0:
366,260,45286,2,0,L|437:263,1,60,2|0,0:0|0:0,0:0:0:0:
213,351,45586,1,2,0:0:0:0:
274,149,45736,2,0,P|301:177|302:217,1,60,2|2,0:0|0:0,0:0:0:0:
104,302,46036,1,10,0:0:0:0:
104,302,46186,1,2,0:0:0:0:
170,241,46336,2,0,P|208:240|238:266,1,60,0|0,0:0|0:0,0:0:0:0:
439,58,46636,5,4,0:0:0:0:
439,57,46936,2,0,P|418:67|405:85,1,45.0000017166138,10|0,0:0|0:0,0:0:0:0:
381,163,47086,1,8,0:0:0:0:
381,163,47236,1,0,0:0:0:0:
206,105,47386,2,0,P|225:118|247:120,1,45.0000017166138,2|0,0:0|0:0,0:0:0:0:
326,102,47536,1,0,0:0:0:0:
454,256,47686,2,0,L|465:195,1,45.0000017166138,2|0,0:0|0:0,0:0:0:0:
477,137,47836,1,0,0:0:0:0:
354,256,47986,2,0,L|361:300,1,45.0000017166138,2|0,0:0|0:0,0:0:0:0:
381,384,48136,1,0,0:0:0:0:
398,154,48286,1,2,0:0:0:0:
198,263,48436,2,0,P|202:284|217:301,1,45.0000017166138,8|0,0:0|0:0,0:0:0:0:
294,329,48587,1,0,0:0:0:0:
398,154,48736,2,0,L|402:53,1,90.0000034332277,4|0,0:0|0:0,0:0:0:0:
441,283,49036,6,0,P|429:305|398:325,1,45.0000017166138,2|0,0:0|0:0,0:0:0:0:
287,191,49186,1,8,0:0:0:0:
287,191,49261,1,8,0:0:0:0:
287,191,49336,2,0,P|273:169|272:132,1,45.0000017166138,8|0,0:0|0:0,0:0:0:0:
327,16,49486,1,2,0:0:0:0:
503,203,49636,2,0,L|437:210,1,45.0000017166138,2|0,0:0|0:0,0:0:0:0:
209,305,49786,2,0,L|275:312,1,45.0000017166138,2|0,0:0|0:0,0:0:0:0:
508,209,49936,2,0,L|442:216,1,45.0000017166138,2|0,0:0|0:0,0:0:0:0:
214,311,50086,2,0,L|280:318,1,45.0000017166138,2|0,0:0|0:0,0:0:0:0:
512,382,50236,6,0,P|504:356|472:343,1,45.0000017166138,2|0,0:0|0:0,0:0:0:0:
389,164,50386,5,2,0:0:0:0:
389,164,50461,1,0,0:0:0:0:
388,164,50536,2,0,P|371:179|367:200,1,45.0000017166138,2|0,0:0|0:0,0:0:0:0:
401,292,50686,1,0,0:0:0:0:
485,81,50836,1,2,0:0:0:0:
484,81,51436,6,0,P|382:138|266:115,1,240,10|0,0:0|0:0,0:0:0:0:
266,115,51886,2,0,P|150:92|47:149,1,240,10|0,0:0|0:0,0:0:0:0:
47,148,52336,2,0,P|163:171|266:113,1,240,10|0,0:0|0:0,0:0:0:0:
265,114,52787,2,0,P|368:57|484:80,1,240,10|0,0:0|0:0,0:0:0:0:
483,79,53236,6,0,L|357:96,1,120,10|0,0:0|0:0,0:0:0:0:
165,131,53536,2,0,L|47:148,1,120,10|0,0:0|0:0,0:0:0:0:
11,284,53836,6,0,P|113:341|229:318,1,240,10|0,0:0|0:0,0:0:0:0:
228,318,54286,2,0,P|343:295|446:352,1,240,10|0,0:0|0:0,0:0:0:0:
446,352,54736,2,0,P|330:375|228:317,1,240,10|0,0:0|0:0,0:0:0:0:
228,317,55186,2,0,P|125:259|10:282,1,240,10|0,0:0|0:0,0:0:0:0:
9,281,55636,6,0,L|134:301,1,120,10|0,0:0|0:0,0:0:0:0:
327,335,55936,2,0,L|446:352,1,120,10|0,0:0|0:0,0:0:0:0:
393,215,56236,6,0,B|374:166|403:127|403:127|434:87|421:43,1,180,10|0,0:0|0:0,0:0:0:0:
335,32,56536,2,0,B|347:73|317:114|317:114|287:152|306:201,1,180,10|0,0:0|0:0,0:0:0:0:
219,184,56836,2,0,B|200:135|229:96|229:96|260:56|247:12,1,180,10|0,0:0|0:0,0:0:0:0:
162,1,57136,2,0,B|174:42|144:83|144:83|114:121|133:170,1,180,10|0,0:0|0:0,0:0:0:0:
57,232,57436,5,0,0:0:0:0:
87,269,57536,1,0,0:0:0:0:
133,281,57636,1,0,0:0:0:0:
210,336,57736,5,0,0:0:0:0:
240,299,57836,1,0,0:0:0:0:
286,287,57936,1,0,0:0:0:0:
388,261,58036,5,2,0:0:0:0:
385,308,58136,1,2,0:0:0:0:
383,355,58236,1,2,0:0:0:0:
469,328,58336,5,2,0:0:0:0:
471,281,58436,1,2,0:0:0:0:
474,234,58536,1,2,0:0:0:0:
481,140,58636,5,10,0:0:0:0:
481,140,59086,1,10,0:0:0:0:
481,140,59536,2,0,P|423:191|362:186,1,120,10|0,0:0|0:0,0:0:0:0:
124,261,59836,2,0,P|182:270|221:313,1,120,10|0,0:0|0:0,0:0:0:0:
329,52,60136,6,0,L|333:12,10,40,0|0|0|0|0|0|0|0|0|0|8,0:0|0:0|0:0|0:0|0:0|0:0|0:0|0:0|0:0|0:0|0:0,0:0:0:0:
303,125,60736,1,10,0:0:0:0:
350,121,60836,1,2,0:0:0:0:
397,117,60936,1,2,0:0:0:0:
471,163,61036,6,0,P|474:214|432:277,1,103.999995239258,6|0,0:0|0:0,0:0:0:0:
215,247,61236,1,0,0:0:0:0:
215,247,61336,2,0,P|257:218|333:223,1,103.999995239258,10|0,0:0|0:0,0:0:0:0:
481,358,61536,1,0,0:0:0:0:
481,358,61636,2,0,B|428:372|380:335|380:335|332:297|286:311,1,207.999990478516,4|0,0:0|0:0,0:0:0:0:
200,358,61936,1,8,0:0:0:0:
29,28,62136,5,0,0:0:0:0:
29,28,62236,2,0,P|73:61|84:133,1,103.999995239258,6|0,0:0|0:0,0:0:0:0:
48,320,62436,1,0,0:0:0:0:
79,222,62536,1,10,0:0:0:0:
107,178,62636,1,2,0:0:0:0:
158,165,62736,1,2,0:0:0:0:
264,117,62836,1,6,0:0:0:0:
308,145,62936,1,2,0:0:0:0:
321,196,63036,1,2,0:0:0:0:
428,260,63136,2,0,P|401:323|356:344,1,103.999995239258,10|0,0:0|0:0,0:0:0:0:
283,312,63336,1,0,0:0:0:0:
473,163,63436,5,6,0:0:0:0:
480,111,63536,1,2,0:0:0:0:
488,59,63636,1,2,0:0:0:0:
393,122,63736,1,10,0:0:0:0:
400,70,63836,1,2,0:0:0:0:
408,18,63936,1,2,0:0:0:0:
296,83,64036,2,0,P|275:45|214:18,1,103.999995239258,4|0,0:0|0:0,0:0:0:0:
198,236,64236,1,4,0:0:0:0:
198,236,64336,2,0,P|220:198|213:132,1,103.999995239258,8|0,0:0|0:0,0:0:0:0:
35,34,64536,6,0,B|95:29|95:29|129:54|129:54|159:24|159:24|222:18,1,207.999990478516,0|0,0:0|0:0,0:0:0:0:
454,151,64836,1,0,0:0:0:0:
454,151,64936,2,0,P|392:193|377:262,1,103.999995239258,10|2,0:0|0:0,0:0:0:0:
266,373,65136,1,2,0:0:0:0:
266,373,65236,2,0,P|224:311|155:296,1,103.999995239258,4|0,0:0|0:0,0:0:0:0:
36,235,65436,1,0,0:0:0:0:
225,182,65536,1,10,0:0:0:0:
216,130,65636,1,2,0:0:0:0:
210,78,65736,1,2,0:0:0:0:
361,333,65836,6,0,P|399:307|421:237,1,103.999995239258,6|0,0:0|0:0,0:0:0:0:
325,24,66036,1,0,0:0:0:0:
325,24,66136,2,0,B|336:132,1,103.999995239258,10|0,0:0|0:0,0:0:0:0:
512,306,66336,1,0,0:0:0:0:
511,305,66436,2,0,P|435:239|429:138,1,207.999990478516,6|0,0:0|0:0,0:0:0:0:
481,63,66736,1,8,0:0:0:0:
38,234,66936,5,2,0:0:0:0:
38,234,67036,2,0,P|88:265|144:260,1,103.999995239258,6|0,0:0|0:0,0:0:0:0:
352,312,67236,1,2,0:0:0:0:
352,312,67336,2,0,P|300:313|258:342,1,103.999995239258,10|0,0:0|0:0,0:0:0:0:
176,40,67536,1,2,0:0:0:0:
239,115,67636,1,6,0:0:0:0:
234,166,67736,1,2,0:0:0:0:
229,217,67836,1,2,0:0:0:0:
131,264,67936,1,10,0:0:0:0:
136,315,68036,1,2,0:0:0:0:
141,366,68136,1,2,0:0:0:0:
27,149,68236,5,6,0:0:0:0:
27,149,68336,2,0,P|65:183|122:183,1,103.999995239258,0|2,0:0|0:0,0:0:0:0:
305,260,68536,1,10,0:0:0:0:
305,260,68636,2,0,P|343:226|400:226,1,103.999995239258,0|2,0:0|0:0,0:0:0:0:
223,37,68836,2,0,L|232:152,1,103.999995239258,6|0,0:0|0:0,0:0:0:0:
482,279,69036,1,0,0:0:0:0:
482,279,69136,2,0,L|490:175,1,103.999995239258,8|0,0:0|0:0,0:0:0:0:
246,363,69336,6,0,B|189:368|153:321|153:321|121:275|68:272,1,207.999990478516,2|0,0:0|0:0,0:0:0:0:
231,123,69636,1,2,0:0:0:0:
231,123,69736,2,0,B|257:155|257:155|246:237,1,103.999995239258,10|0,0:0|0:0,0:0:0:0:
18,207,69936,1,2,0:0:0:0:
18,207,70036,2,0,B|-7:168|-7:168|241:185,1,207.999990478516,6|0,0:0|0:0,0:0:0:0:
342,190,70336,1,8,0:0:0:0:
169,20,70536,5,8,0:0:0:0:
169,20,70636,2,0,P|206:80|262:87,1,103.999995239258,4|0,0:0|0:0,0:0:0:0:
512,198,70836,1,2,0:0:0:0:
512,198,70936,2,0,P|441:200|407:245,1,103.999995239258,8|0,0:0|0:0,0:0:0:0:
208,373,71136,1,2,0:0:0:0:
208,373,71236,2,0,P|265:332|274:181,1,207.999990478516,4|2,0:0|0:0,0:0:0:0:
234,89,71536,1,8,0:0:0:0:
11,329,71736,5,2,0:0:0:0:
11,329,71836,2,0,P|62:323|102:292,1,103.999995239258,4|0,0:0|0:0,0:0:0:0:
234,89,72036,1,2,0:0:0:0:
171,157,72136,1,8,0:0:0:0:
171,209,72236,1,0,0:0:0:0:
201,250,72336,1,2,0:0:0:0:
211,344,72436,1,4,0:0:0:0:
256,370,72536,1,0,0:0:0:0:
306,364,72636,1,2,0:0:0:0:
388,290,72736,2,0,L|396:184,1,103.999995239258,8|0,0:0|0:0,0:0:0:0:
470,117,72936,1,2,0:0:0:0:
495,332,73036,5,4,0:0:0:0:
492,280,73136,1,0,0:0:0:0:
490,228,73236,1,2,0:0:0:0:
400,290,73336,1,8,0:0:0:0:
397,238,73436,1,0,0:0:0:0:
395,186,73536,1,2,0:0:0:0:
296,248,73636,2,0,P|271:212|194:195,1,103.999995239258,4|0,0:0|0:0,0:0:0:0:
447,102,73836,1,2,0:0:0:0:
447,102,73936,2,0,P|485:81|512:7,1,103.999995239258,8|0,0:0|0:0,0:0:0:0:
238,104,74136,6,0,B|211:106|211:106|193:117|193:117|173:108|173:108|108:110|108:110|90:101|90:101|73:112|73:112|39:113,1,207.999990478516,2|0,0:0|0:0,0:0:0:0:
96,357,74436,1,2,0:0:0:0:
96,357,74536,2,0,P|149:320|156:256,1,103.999995239258,8|0,0:0|0:0,0:0:0:0:
247,83,74736,1,2,0:0:0:0:
247,83,74836,2,0,P|300:120|307:184,1,103.999995239258,4|0,0:0|0:0,0:0:0:0:
400,341,75036,1,2,0:0:0:0:
512,170,75136,1,8,0:0:0:0:
468,198,75236,1,0,0:0:0:0:
454,248,75336,1,2,0:0:0:0:
216,187,75436,6,0,L|98:180,1,103.999995239258,4|0,0:0|0:0,0:0:0:0:
299,344,75636,1,2,0:0:0:0:
299,344,75736,2,0,P|262:302|197:286,1,103.999995239258,8|0,0:0|0:0,0:0:0:0:
385,102,75936,1,2,0:0:0:0:
385,102,76036,2,0,P|375:195|288:267,1,207.999990478516,4|2,0:0|0:0,0:0:0:0:
193,207,76336,1,8,0:0:0:0:
491,369,76536,5,2,0:0:0:0:
491,369,76636,2,0,L|501:228,1,103.999995239258,4|0,0:0|0:0,0:0:0:0:
294,132,76836,1,2,0:0:0:0:
294,132,76936,2,0,L|284:-9,1,103.999995239258,8|0,0:0|0:0,0:0:0:0:
69,254,77136,1,2,0:0:0:0:
152,312,77236,1,4,0:0:0:0:
203,304,77336,1,0,0:0:0:0:
254,296,77436,1,2,0:0:0:0:
326,210,77536,1,8,0:0:0:0:
377,218,77636,1,0,0:0:0:0:
428,226,77736,1,0,0:0:0:0:
215,162,77836,5,4,0:0:0:0:
215,162,77936,2,0,P|186:102|200:47,1,103.999995239258,0|2,0:0|0:0,0:0:0:0:
345,289,78136,1,12,0:0:0:0:
345,289,78236,2,0,P|346:340|320:384,1,103.999995239258,0|0,0:0|0:0,0:0:0:0:
476,119,78436,2,0,L|336:135,1,103.999995239258,4|0,0:0|0:0,0:0:0:0:
68,284,78636,1,4,0:0:0:0:
68,284,78736,2,0,L|172:296,1,103.999995239258,8|0,0:0|0:0,0:0:0:0:
466,339,78936,6,0,P|345:291|328:198,1,207.999990478516,6|0,0:0|0:0,0:0:0:0:
252,0,79236,1,0,0:0:0:0:
252,0,79336,2,0,P|236:48|195:79,1,103.999995239258,2|0,0:0|0:0,0:0:0:0:
31,290,79536,1,2,0:0:0:0:
31,290,79636,2,0,B|88:295|124:248|124:248|156:202|209:199,1,207.999990478516,2|2,0:0|0:0,0:0:0:0:
460,367,79936,2,0,L|356:353,1,103.999995239258,0|0,0:0|0:0,0:0:0:0:
260,340,80136,1,0,0:0:0:0:
412,173,80236,6,0,B|432:119|503:131|532:198|506:265|396:290|342:236,1,311.999985717774,10|0,0:0|0:0,0:0:0:0:
268,56,80686,2,0,B|224:19|257:-44|329:-51|385:-5|375:106|305:140,1,311.999985717774,10|0,0:0|0:0,0:0:0:0:
104,127,81136,2,0,B|55:156|6:105|21:34|81:-5|184:38|196:116,1,311.999985717774,10|0,0:0|0:0,0:0:0:0:
143,300,81586,2,0,B|157:353|92:386|29:349|11:279|84:194|161:207,1,311.999985717774,10|0,0:0|0:0,0:0:0:0:
299,266,82036,6,0,B|357:264|395:323|395:323|429:380|489:383,1,233.999989288331,10|0,0:0|0:0,0:0:0:0:
489,382,82336,2,0,B|459:330|392:325|392:325|323:318|298:265,1,233.999989288331,10|0,0:0|0:0,0:0:0:0:
193,115,82636,6,0,B|246:62|253:-22|253:-22|264:65|321:115,1,311.999985717774,10|0,0:0|0:0,0:0:0:0:
153,238,83086,2,0,B|119:170|40:137|40:137|128:153|193:115,1,311.999985717774,10|0,0:0|0:0,0:0:0:0:
258,315,83536,2,0,B|183:324|127:389|127:389|170:311|153:238,1,311.999985717774,10|0,0:0|0:0,0:0:0:0:
365,241,83986,2,0,B|351:313|395:387|395:387|335:322|258:315,1,311.999985717774,10|0,0:0|0:0,0:0:0:0:
294,127,84436,6,0,B|372:104|372:104|403:40|403:40|481:16,1,233.999989288331,10|0,0:0|0:0,0:0:0:0:
481,16,84736,2,0,B|423:73|423:73|351:69|351:69|294:127,1,233.999989288331,10|0,0:0|0:0,0:0:0:0:
211,189,85036,6,0,B|159:150|167:88|167:88|192:93|198:111,1,155.999992858887,10|0,0:0|0:0,0:0:0:0:
356,279,85336,2,0,B|374:340|331:385|331:385|314:367|320:348,1,155.999992858887,10|0,0:0|0:0,0:0:0:0:
294,127,85636,2,0,B|315:66|376:54|376:54|379:80|363:91,1,155.999992858887,10|0,0:0|0:0,0:0:0:0:
249,284,85936,2,0,B|196:320|139:293|139:293|152:271|171:271,1,155.999992858887,10|0,0:0|0:0,0:0:0:0:
380,167,86236,5,0,0:0:0:0:
430,178,86336,1,0,0:0:0:0:
461,219,86436,1,0,0:0:0:0:
406,282,86536,5,0,0:0:0:0:
421,330,86636,1,0,0:0:0:0:
401,378,86736,1,0,0:0:0:0:
310,348,86836,5,2,0:0:0:0:
258,340,86936,1,2,0:0:0:0:
206,333,87036,1,2,0:0:0:0:
139,261,87136,5,2,0:0:0:0:
87,269,87236,1,2,0:0:0:0:
35,276,87336,1,2,0:0:0:0:
196,169,87436,6,0,B|243:160|265:96|265:96|287:34|346:22|346:22|342:75|302:97,1,311.999985717774,8|0,0:0|0:0,0:0:0:0:
139,261,87886,2,0,B|91:252|69:188|69:188|47:126|-11:114|-11:114|-7:167|32:189,1,311.999985717774,8|0,0:0|0:0,0:0:0:0:
226,384,88336,2,0,P|261:364|302:247,1,155.999992858887,8|0,0:0|0:0,0:0:0:0:
264,0,88636,2,0,P|229:20|188:137,1,155.999992858887,8|0,0:0|0:0,0:0:0:0:
304,261,88936,6,0,L|429:249,1,120,8|0,0:0|0:0,0:0:0:0:
185,122,89236,2,0,B|228:112|268:145|268:145|311:179|353:169,1,180,0|0,0:0|0:0,0:0:0:0:
425,145,89536,2,0,P|449:122|461:83,1,60,2|0,0:0|0:0,0:0:0:0:
473,22,89686,1,0,0:0:0:0:
511,244,89836,5,4,0:0:0:0:
511,244,90136,2,0,L|507:303,1,60,2|0,0:0|0:0,0:0:0:0:
499,384,90436,1,8,0:0:0:0:
344,227,90586,2,0,P|386:244|400:266,1,60,2|0,0:0|0:0,0:0:0:0:
512,73,90886,2,0,P|490:93|461:100,1,60,2|0,0:0|0:0,0:0:0:0:
215,169,91186,2,0,L|135:162,1,60,2|0,0:0|3:0,0:0:0:0:
377,77,91486,1,2,0:0:0:0:
316,139,91636,2,0,P|300:164|301:194,1,60,8|2,0:0|0:0,0:0:0:0:
179,358,91936,2,0,P|180:328|164:302,1,60,2|0,0:0|0:0,0:0:0:0:
21,109,92236,5,14,0:0:0:0:
21,109,92536,2,0,L|87:114,1,60,2|2,0:0|0:0,0:0:0:0:
168,123,92836,1,8,0:0:0:0:
334,274,92986,2,0,P|323:311|299:330,1,60,2|0,0:0|0:0,0:0:0:0:
246,102,93286,2,0,P|257:65|281:46,1,60,2|0,0:0|0:0,0:0:0:0:
141,252,93586,1,2,0:0:0:0:
390,184,93736,2,0,L|456:192,1,60,2|2,0:0|0:0,0:0:0:0:
271,50,94036,1,10,0:0:0:0:
271,50,94186,1,0,0:0:0:0:
102,103,94336,2,0,L|168:111,1,60,0|0,0:0|0:0,0:0:0:0:
512,149,94636,5,6,0:0:0:0:
512,149,94936,2,0,P|493:163|481:193,1,45.0000017166138,10|0,0:0|0:0,0:0:0:0:
490,261,95086,1,8,0:0:0:0:
490,261,95236,1,8,0:0:0:0:
327,253,95386,2,0,P|329:276|349:301,1,45.0000017166138,2|0,0:0|0:0,0:0:0:0:
412,328,95536,1,0,0:0:0:0:
382,171,95686,2,0,L|376:104,1,45.0000017166138,2|0,0:0|0:0,0:0:0:0:
373,44,95836,1,0,0:0:0:0:
235,237,95986,2,0,P|215:215|182:211,1,45.0000017166138,2|0,0:0|0:0,0:0:0:0:
119,219,96136,1,0,0:0:0:0:
267,317,96286,1,2,0:0:0:0:
226,128,96436,2,0,L|229:75,1,45.0000017166138,2|0,0:0|0:0,0:0:0:0:
234,8,96586,1,0,0:0:0:0:
119,219,96736,2,0,L|106:116,1,90.0000034332277,4|0,0:0|0:0,0:0:0:0:
50,328,97036,6,0,P|62:350|93:370,1,45.0000017166138,10|0,0:0|0:0,0:0:0:0:
212,252,97186,1,8,0:0:0:0:
212,252,97261,1,8,0:0:0:0:
212,252,97336,2,0,P|226:230|227:193,1,45.0000017166138,8|0,0:0|0:0,0:0:0:0:
149,37,97486,1,2,0:0:0:0:
26,237,97636,2,0,L|92:244,1,45.0000017166138,2|0,0:0|0:0,0:0:0:0:
311,325,97786,2,0,L|245:332,1,45.0000017166138,2|0,0:0|0:0,0:0:0:0:
21,243,97936,2,0,L|87:250,1,45.0000017166138,2|0,0:0|0:0,0:0:0:0:
306,331,98086,2,0,L|240:338,1,45.0000017166138,2|0,0:0|0:0,0:0:0:0:
135,156,98236,6,0,P|144:127|172:106,1,45.0000017166138,2|0,0:0|0:0,0:0:0:0:
80,350,98386,1,2,0:0:0:0:
80,350,98461,1,0,0:0:0:0:
80,350,98536,2,0,P|50:356|18:342,1,45.0000017166138,2|0,0:0|0:0,0:0:0:0:
295,219,98686,1,2,0:0:0:0:
149,37,98836,1,2,0:0:0:0:
149,37,99436,5,10,0:0:0:0:
149,37,99886,1,10,0:0:0:0:
149,37,100336,2,0,P|105:72|88:150,1,120,10|0,0:0|0:0,0:0:0:0:
290,360,100636,2,0,P|246:325|229:247,1,120,10|0,0:0|0:0,0:0:0:0:
413,183,100936,6,0,L|486:191,1,60,0|0,0:0|0:0,0:0:0:0:
