osu file format v14

[General]
AudioFilename: audio.mp3
AudioLeadIn: 0
PreviewTime: 49036
Countdown: 0
SampleSet: None
StackLeniency: 0.7
Mode: 0
LetterboxInBreaks: 0
WidescreenStoryboard: 1

[Editor]
DistanceSpacing: 0.8
BeatDivisor: 8
GridSize: 8
TimelineZoom: 1

[Metadata]
Title:On the FM
TitleUnicode:On the FM
Artist:C-Show
ArtistUnicode:C-Show
Creator:ColonelCorndog
Version:Another
Source:Beatmania IIDX 23 copula
Tags:beatmania IIDX 23 copula 200bpm c-show on the FM
BeatmapID:1353388
BeatmapSetID:630394

[Difficulty]
HPDrainRate:6
CircleSize:4.2
OverallDifficulty:7.5
ApproachRate:8.8
SliderMultiplier:1.4
SliderTickRate:2

[Events]
//Background and Video events
0,0,"demencia_villainous_crop.png",0,0
//Break Periods
//Storyboard Layer 0 (Background)
//Storyboard Layer 1 (Fail)
//Storyboard Layer 2 (Pass)
//Storyboard Layer 3 (Foreground)
//Storyboard Sound Samples

[TimingPoints]
1036,300,4,2,0,100,1,0
5836,-76.9230769230769,4,2,0,100,0,0
8836,-100,4,2,0,100,0,0
33886,-66.6666666666667,4,2,0,100,0,0
34486,-100,4,2,0,100,0,0
39436,-58.8235294117647,4,2,0,100,0,0
41536,-76.9230769230769,4,2,0,100,0,0
51436,-58.8235294117647,4,2,0,100,0,0
55636,-100,4,2,0,100,0,0
55936,-58.8235294117647,4,2,0,100,0,0
60736,-100,4,1,0,45,0,1

[Colours]
Combo1 : 255,255,72
Combo2 : 146,255,36
Combo3 : 254,1,70
Combo4 : 1,130,167

[HitObjects]
80,168,1036,5,0,0:0:0:0:
176,112,1336,2,0,P|256:88|208:144,1,210
200,168,1861,1,0,0:0:0:0:
192,192,1936,1,0,0:0:0:0:
208,248,2086,1,0,0:0:0:0:
256,280,2236,2,0,P|320:320|368:288,1,140
368,176,2986,2,0,L|256:120,1,70
192,136,3436,6,0,L|120:88,2,70
192,136,3886,1,0,0:0:0:0:
288,136,4036,2,0,L|352:88,2,70
288,136,4486,1,0,0:0:0:0:
248,176,4636,6,0,L|200:208,3,35
200,208,4936,2,0,L|152:240,3,35
144,240,5236,2,0,L|112:256,2,35
144,184,5536,2,0,L|192:96,1,70
232,72,5836,5,0,0:0:0:0:
304,80,5986,2,0,P|360:104|360:160,1,90.9999958343508
368,200,6286,1,0,0:0:0:0:
368,272,6436,2,0,P|336:320|288:312,1,90.9999958343508
232,320,6736,1,0,0:0:0:0:
184,264,6886,1,0,0:0:0:0:
256,192,7036,12,0,8236,0:0:0:0:
80,96,8836,5,0,0:0:0:0:
88,152,8986,1,0,0:0:0:0:
136,184,9136,1,0,0:0:0:0:
192,192,9286,1,0,0:0:0:0:
232,232,9436,1,0,0:0:0:0:
256,280,9586,1,0,0:0:0:0:
312,288,9736,1,0,0:0:0:0:
368,288,9886,1,0,0:0:0:0:
408,256,10036,1,0,0:0:0:0:
336,168,10336,5,0,0:0:0:0:
248,96,10636,1,0,0:0:0:0:
224,208,10936,1,0,0:0:0:0:
328,240,11236,5,0,0:0:0:0:
384,264,11386,1,0,0:0:0:0:
432,240,11536,1,0,0:0:0:0:
448,184,11686,1,0,0:0:0:0:
424,136,11836,1,0,0:0:0:0:
376,104,11986,1,0,0:0:0:0:
320,88,12136,1,0,0:0:0:0:
264,104,12286,1,0,0:0:0:0:
216,128,12436,1,0,0:0:0:0:
240,240,12736,1,0,0:0:0:0:
352,240,13036,6,0,L|304:112|304:112,1,70
280,72,13486,1,0,0:0:0:0:
192,216,13936,2,0,L|144:288,1,70
96,376,14386,1,0,0:0:0:0:
88,208,14836,1,0,0:0:0:0:
168,128,15136,1,0,0:0:0:0:
256,192,15436,12,0,17836,0:0:0:0:
128,168,18136,6,0,B|160:96|160:96|216:72,1,140
328,72,18736,2,0,B|384:120|384:120|384:200,1,140
280,232,19336,2,0,L|200:232,2,70
240,128,19936,1,0,0:0:0:0:
136,168,20236,5,0,0:0:0:0:
120,192,20311,1,0,0:0:0:0:
120,216,20386,1,0,0:0:0:0:
136,272,20536,2,0,L|200:304,1,70
256,312,20836,2,0,L|336:296,1,70
368,256,21136,2,0,L|424:200,2,70
408,216,21586,1,0,0:0:0:0:
424,160,21736,2,0,L|448:88,2,70
320,192,22336,1,0,0:0:0:0:
232,128,22636,5,0,0:0:0:0:
208,120,22711,1,0,0:0:0:0:
184,112,22786,1,0,0:0:0:0:
128,96,22936,2,0,P|88:80|64:112,1,70
64,152,23236,2,0,B|64:192|64:192|88:232,1,70
120,256,23536,2,0,B|136:296|136:296|192:296,1,70
216,296,23836,2,0,L|288:296,2,70
176,256,24286,2,0,L|128:184,2,70
120,248,24736,1,0,0:0:0:0:
160,216,24886,1,0,0:0:0:0:
232,272,25036,5,0,0:0:0:0:
256,272,25111,1,0,0:0:0:0:
280,264,25186,1,0,0:0:0:0:
328,232,25336,2,0,L|400:168,1,70
328,232,25636,2,0,L|256:160,1,70
328,232,25936,2,0,L|256:296,1,70
336,240,26236,2,0,L|400:304,1,70
424,144,26536,1,0,0:0:0:0:
376,112,26686,1,0,0:0:0:0:
320,96,26836,1,0,0:0:0:0:
320,208,27136,1,0,0:0:0:0:
224,152,27436,5,0,0:0:0:0:
200,168,27511,1,0,0:0:0:0:
176,184,27586,1,0,0:0:0:0:
136,224,27736,2,0,P|96:224|80:200,1,70
56,152,28036,2,0,P|88:96|120:88,1,70
144,80,28336,1,0,0:0:0:0:
200,80,28486,1,0,0:0:0:0:
320,200,28936,1,0,0:0:0:0:
392,288,29236,2,0,L|448:344,2,70
424,184,29836,5,0,0:0:0:0:
408,160,29911,1,0,0:0:0:0:
392,136,29986,1,0,0:0:0:0:
352,96,30136,2,0,L|272:72,1,70
232,80,30436,2,0,L|152:96|152:96,1,70
128,136,30736,2,0,L|80:216,1,70
112,248,31036,2,0,L|168:320,1,70
208,304,31336,2,0,L|288:304,2,70
128,224,31936,1,0,0:0:0:0:
176,120,32236,5,0,0:0:0:0:
192,104,32311,1,0,0:0:0:0:
216,88,32386,1,0,0:0:0:0:
272,72,32536,2,0,L|360:72,1,70
384,112,32836,2,0,L|440:176,1,70
432,224,33136,2,0,L|376:280|376:280,1,70
328,272,33436,2,0,L|256:200,1,70
240,184,33736,2,0,L|176:112,2,70
193,131,34186,1,0,0:0:0:0:
264,88,34336,2,0,L|368:40,1,105.000004005432
400,88,34636,5,0,0:0:0:0:
416,112,34711,1,0,0:0:0:0:
432,136,34786,1,0,0:0:0:0:
416,192,34936,2,0,L|360:272,1,70
320,248,35236,2,0,L|256:168,1,70
216,192,35536,2,0,L|152:272,1,70
120,248,35836,2,0,L|72:184,1,70
112,144,36136,2,0,L|168:88,2,70
216,112,36736,1,0,0:0:0:0:
328,128,37036,5,0,0:0:0:0:
344,152,37111,1,0,0:0:0:0:
360,176,37186,1,0,0:0:0:0:
328,224,37336,2,0,L|256:288,1,70
224,256,37636,2,0,L|176:200,1,70
144,160,37936,1,0,0:0:0:0:
112,112,38086,1,0,0:0:0:0:
224,104,38386,6,0,L|184:56,2,35
256,152,38686,2,0,L|232:120,2,35
288,200,38986,1,0,0:0:0:0:
320,240,39136,2,0,L|384:320,1,70
408,208,39436,5,0,0:0:0:0:
408,208,39511,1,0,0:0:0:0:
408,208,39586,1,0,0:0:0:0:
344,136,39736,5,0,0:0:0:0:
344,136,39811,1,0,0:0:0:0:
344,136,39886,1,0,0:0:0:0:
264,192,40036,5,0,0:0:0:0:
200,120,40186,1,0,0:0:0:0:
144,192,40336,1,0,0:0:0:0:
200,264,40486,1,0,0:0:0:0:
264,192,40636,2,0,L|384:192,1,119.000002269745
320,120,40936,1,0,0:0:0:0:
320,216,41086,2,0,P|304:280|256:296,1,119.000002269745
176,176,41536,6,0,B|192:144|216:136|248:136|256:176|240:216|224:232|200:248|176:256,1,181.999991668702
72,168,42136,1,0,0:0:0:0:
192,80,42436,1,0,0:0:0:0:
240,136,42586,1,0,0:0:0:0:
288,192,42736,1,0,0:0:0:0:
360,64,43036,1,0,0:0:0:0:
448,176,43336,2,0,B|424:224|384:248|344:224|304:176,1,181.999991668702
208,72,43936,1,0,0:0:0:0:
96,160,44236,6,0,B|96:224|128:256|160:272|224:288,1,181.999991668702
352,288,44836,1,0,0:0:0:0:
312,224,44986,1,0,0:0:0:0:
272,168,45136,1,0,0:0:0:0:
152,80,45436,2,0,B|96:104|80:168|104:216|128:248,1,181.999991668702
256,288,46036,1,0,0:0:0:0:
368,200,46336,1,0,0:0:0:0:
248,112,46636,5,0,0:0:0:0:
112,152,46936,2,0,L|64:232,2,90.9999958343508
152,96,47386,1,0,0:0:0:0:
224,80,47536,1,0,0:0:0:0:
296,96,47686,1,0,0:0:0:0:
352,144,47836,2,0,L|408:240,1,90.9999958343508
360,288,48136,2,0,L|280:344,2,90.9999958343508
416,240,48586,1,0,0:0:0:0:
456,176,48736,1,0,0:0:0:0:
328,112,49036,5,0,0:0:0:0:
256,112,49186,2,0,L|200:112,2,45.4999979171754
288,176,49486,1,0,0:0:0:0:
256,240,49636,1,0,0:0:0:0:
192,272,49786,1,0,0:0:0:0:
120,256,49936,1,0,0:0:0:0:
88,192,50086,1,0,0:0:0:0:
104,120,50236,1,0,0:0:0:0:
160,72,50386,1,0,0:0:0:0:
232,72,50536,1,0,0:0:0:0:
288,208,50836,2,0,B|368:256|368:256|448:208,1,181.999991668702
312,32,51436,5,0,0:0:0:0:
240,304,51886,1,0,0:0:0:0:
376,56,52336,1,0,0:0:0:0:
184,264,52786,1,0,0:0:0:0:
424,112,53236,1,0,0:0:0:0:
432,208,53536,1,0,0:0:0:0:
288,336,53836,5,0,0:0:0:0:
144,88,54286,1,0,0:0:0:0:
432,80,54736,1,0,0:0:0:0:
280,320,55186,1,0,0:0:0:0:
192,176,55636,2,0,L|320:112,1,140
128,72,56236,5,0,0:0:0:0:
48,256,56536,1,0,0:0:0:0:
224,320,56836,1,0,0:0:0:0:
296,144,57136,1,0,0:0:0:0:
128,48,57436,6,0,L|112:120,1,59.5000011348725
104,176,57623,1,0,0:0:0:0:
136,240,57736,2,0,L|184:280,1,59.5000011348725
256,288,57923,1,0,0:0:0:0:
328,272,58036,2,0,L|392:232,1,59.5000011348725
424,184,58223,1,0,0:0:0:0:
384,128,58336,2,0,L|336:80,1,59.5000011348725
280,56,58523,1,0,0:0:0:0:
208,80,58636,5,0,0:0:0:0:
56,320,59086,1,0,0:0:0:0:
320,216,59536,1,0,0:0:0:0:
176,96,59836,1,0,0:0:0:0:
64,336,60736,6,0,L|112:296|112:296,1,52.5
136,272,60961,2,0,L|176:240,1,35
224,192,61261,2,0,L|264:152,1,35
312,112,61561,2,0,L|360:72,1,35
408,176,61936,1,0,0:0:0:0:
376,256,62161,6,0,P|344:296|256:296,1,140
224,272,62536,1,0,0:0:0:0:
160,208,62648,1,0,0:0:0:0:
176,120,62761,1,0,0:0:0:0:
192,96,62836,1,0,0:0:0:0:
232,80,62948,1,0,0:0:0:0:
256,80,63023,1,0,0:0:0:0:
296,104,63136,1,0,0:0:0:0:
376,200,63361,5,0,0:0:0:0:
360,224,63436,2,0,B|336:272,1,52.5
320,312,63661,1,0,0:0:0:0:
296,312,63736,2,0,B|256:264,1,52.5
240,248,63923,1,0,0:0:0:0:
216,216,64036,2,0,B|208:176|224:160|272:168,1,87.5
304,176,64336,1,0,0:0:0:0:
360,112,64561,6,0,L|240:64,1,122.5
208,88,64936,2,0,L|160:168,1,87.5
160,208,65236,2,2,L|264:264,1,105,0|2,0:0|0:0,0:0:0:0:
280,272,65536,1,0,0:0:0:0:
320,264,65648,1,0,0:0:0:0:
352,240,65761,1,0,0:0:0:0:
376,208,65873,2,0,B|408:168|400:144|368:120,1,87.5
344,104,66173,2,0,P|304:72|288:80,1,70
256,104,66436,1,0,0:0:0:0:
208,208,66736,5,0,0:0:0:0:
256,256,66923,2,0,B|296:288|352:272|384:240,1,140
400,200,67336,2,0,L|400:112,1,87.5
368,80,67636,2,0,P|336:56|320:48,1,52.5
280,56,67861,1,0,0:0:0:0:
240,56,67973,2,0,P|208:56|192:64,1,35
168,80,68161,1,0,0:0:0:0:
136,112,68273,1,0,0:0:0:0:
112,280,68461,5,0,0:0:0:0:
152,272,68573,1,0,0:0:0:0:
224,160,68723,5,0,0:0:0:0:
256,192,68836,1,0,0:0:0:0:
320,248,69061,5,0,0:0:0:0:
344,264,69136,1,0,0:0:0:0:
400,200,69361,6,0,P|424:160|368:80,1,140
344,72,69773,2,0,B|304:48|256:48|248:56,1,87.5
216,56,70073,2,0,P|168:56|128:88,1,87.5
112,112,70373,1,0,0:0:0:0:
104,184,70561,5,0,0:0:0:0:
120,208,70636,2,0,L|192:288,1,105
216,288,70936,2,0,L|304:200,1,105
320,216,71236,2,0,L|416:312|416:312,1,105
416,312,71536,1,0,0:0:0:0:
440,232,71761,6,0,B|464:184|440:160|400:128|360:104,1,140
360,112,72136,1,0,0:0:0:0:
336,104,72211,1,0,0:0:0:0:
184,104,72323,1,0,0:0:0:0:
144,120,72436,1,0,0:0:0:0:
144,264,72548,1,0,0:0:0:0:
168,280,72623,2,0,P|200:296|232:296,1,52.5
280,248,72961,5,0,0:0:0:0:
296,224,73036,1,0,0:0:0:0:
344,152,73148,1,0,0:0:0:0:
