osu file format v14

[General]
AudioFilename: audio.mp3
AudioLeadIn: 0
PreviewTime: 60661
Countdown: 0
SampleSet: None
StackLeniency: 0.7
Mode: 2
LetterboxInBreaks: 0
WidescreenStoryboard: 1

[Editor]
Bookmarks: 53536
DistanceSpacing: 1.5
BeatDivisor: 4
GridSize: 4
TimelineZoom: 2.999999

[Metadata]
Title:On the FM
TitleUnicode:On the FM
Artist:C-Show
ArtistUnicode:C-Show
Creator:Ascendance
Version:ZiRoX's Platter
Source:beatmania IIDX 23 copula
Tags:KONAMI BEMANI Kaitsuu! Tokotoko line 24 SINOBUZ PANIC HOLIC ZiRoX Spectator Emiru FoxyGrandpa Hareimu Sorcerer Tomthewizard CShow RADIO SHOWCASE 開通!とことこライン
BeatmapID:1392600
BeatmapSetID:609679

[Difficulty]
HPDrainRate:5
CircleSize:3.5
OverallDifficulty:8.4
ApproachRate:8.4
SliderMultiplier:1.3
SliderTickRate:1

[Events]
//Background and Video events
0,0,"background.jpg",0,0
//Break Periods
//Storyboard Layer 0 (Background)
//Storyboard Layer 1 (Fail)
//Storyboard Layer 2 (Pass)
//Storyboard Layer 3 (Foreground)
//Storyboard Sound Samples

[TimingPoints]
1036,300,4,2,1,40,1,0
3136,-100,4,2,4,40,0,0
3436,-100,4,2,1,40,0,0
5836,-100,4,3,2,50,0,0
7411,-100,4,2,1,5,0,0
7486,-100,4,2,1,45,0,0
7561,-100,4,2,1,5,0,0
7636,-100,4,2,1,45,0,0
7711,-100,4,2,1,5,0,0
7786,-100,4,2,1,45,0,0
7861,-100,4,2,1,5,0,0
7936,-100,4,2,1,10,0,0
8236,-100,4,2,6,40,0,0
8536,-100,4,2,5,40,0,0
8836,-100,4,2,3,40,0,0
8986,-100,4,3,3,50,0,0
9736,-100,4,3,2,50,0,0
10036,-100,4,3,3,50,0,0
12736,-100,4,2,4,50,0,0
12773,-100,4,2,4,5,0,0
13036,-100,4,2,1,60,0,0
19036,-100,4,3,15,60,0,0
19111,-100,4,2,1,60,0,0
19936,-50,4,2,1,60,0,0
20236,-100,4,3,4,65,0,0
20273,-100,4,3,2,65,0,0
24436,-100,4,3,6,65,0,0
25036,-100,4,3,2,65,0,0
27136,-100,4,3,7,65,0,0
27436,-100,4,3,2,65,0,0
29836,-100,4,3,8,65,0,0
31936,-100,4,3,7,65,0,0
32236,-100,4,3,8,65,0,0
33736,-100,4,3,6,65,0,0
34636,-100,4,3,2,65,0,0
36736,-100,4,3,7,65,0,0
37036,-100,4,3,8,65,0,0
41536,-100,4,3,7,65,0,0
41836,-100,4,3,9,70,0,0
44236,-100,4,3,8,70,0,0
44311,-100,4,3,9,70,0,0
45736,-100,4,3,8,70,0,0
45811,-100,4,3,9,70,0,0
46936,-100,4,3,10,70,0,0
50836,-100,4,2,1,40,0,0
51436,-100,4,3,11,70,0,0
57436,-100,4,3,2,70,0,0
58636,-100,4,3,11,70,0,0
60136,-100,4,3,8,70,0,0
60586,-100,4,3,3,70,0,0
61036,-76.9230769230769,4,3,4,80,0,1
61111,-76.9230769230769,4,3,3,80,0,1
70636,-76.9230769230769,4,3,4,80,0,1
70711,-76.9230769230769,4,3,16,80,0,1
78936,-76.9230769230769,4,3,2,80,0,1
79936,-100,4,3,1,80,0,0
80236,-100,4,3,11,80,0,0
86236,-100,4,3,12,80,0,0
87436,-100,4,3,11,80,0,0
89536,-100,4,3,7,80,0,0
89836,-100,4,3,6,70,0,0
89911,-100,4,3,9,70,0,0
92236,-100,4,3,8,70,0,0
92311,-100,4,3,9,70,0,0
94636,-100,4,3,6,70,0,0
94936,-100,4,3,10,70,0,0
98836,-100,4,3,2,60,0,0
99436,-100,4,3,11,80,0,0
100936,-100,4,3,1,80,0,0

[Colours]
Combo1 : 255,149,147
Combo2 : 145,255,206
Combo3 : 254,197,94
Combo4 : 181,66,193

[HitObjects]
360,320,1036,6,0,L|389:173,1,130,2|2,0:0|0:0,0:0:0:0:
208,184,1786,1,2,0:0:0:0:
175,180,1861,1,2,0:0:0:0:
143,177,1936,1,2,0:0:0:0:
208,184,2086,1,2,0:0:0:0:
368,192,2236,6,0,P|416:128|384:72,1,130,2|2,0:0|0:0,0:0:0:0:
224,56,2986,1,2,0:0:0:0:
191,60,3061,1,0,0:0:0:0:
160,64,3136,2,0,L|144:128,1,65,4|0,0:0|0:0,0:0:0:0:
312,136,3436,6,0,L|392:176,1,65,8|8,0:3|0:3,0:0:0:0:
432,216,3736,2,0,L|432:296,1,65,8|8,0:3|0:3,0:0:0:0:
264,280,4036,2,0,L|192:244,1,65,8|8,0:3|0:3,0:0:0:0:
144,200,4336,2,0,L|144:120,1,65,8|8,0:3|0:3,0:0:0:0:
304,136,4636,6,0,L|392:168,2,65,8|8|8,0:3|0:3|0:3,0:0:0:0:
152,72,5086,2,0,P|96:192|152:304,1,260,8|0,0:3|0:0,0:0:0:0:
360,312,5836,6,0,P|374:249|356:187,1,130,12|8,0:0|0:0,0:0:0:0:
200,184,6286,2,0,P|192:120|256:64,1,130,2|2,0:0|0:0,0:0:0:0:
344,64,6736,1,8,0:0:0:0:
192,56,7036,5,10,0:0:0:0:
161,47,7111,1,0,0:0:0:0:
129,47,7186,1,0,0:0:0:0:
98,56,7261,1,0,0:0:0:0:
70,73,7336,1,2,0:0:0:0:
48,96,7411,1,0,0:0:0:0:
32,125,7486,1,2,0:0:0:0:
25,157,7561,1,0,0:0:0:0:
26,189,7636,1,2,0:0:0:0:
36,220,7711,1,0,0:0:0:0:
54,247,7786,1,0,0:0:0:0:
78,268,7861,1,0,0:0:0:0:
108,282,7936,1,0,0:0:0:0:
280,280,8236,6,0,L|352:280,1,65,2|0,0:0|0:0,0:0:0:0:
184,280,8536,2,0,P|128:232|144:168,1,130,2|4,0:0|0:0,0:0:0:0:
352,280,8986,2,0,L|416:272,1,65,6|0,0:0|0:0,0:0:0:0:
480,240,9286,2,0,L|488:176,1,65,2|0,0:0|0:0,0:0:0:0:
384,168,9586,6,0,L|368:232,1,65,2|8,0:0|0:0,0:0:0:0:
424,256,9886,2,0,L|485:276,1,65,2|8,0:0|0:0,0:0:0:0:
396,280,10186,1,2,0:0:0:0:
156,48,10336,1,2,0:0:0:0:
392,48,10636,5,2,0:0:0:0:
128,48,10936,2,0,L|108:109,1,65,2|4,0:0|0:0,0:0:0:0:
224,120,11386,2,0,L|288:128,1,65,2|2,0:0|0:0,0:0:0:0:
352,160,11686,2,0,L|360:224,1,65,2|0,0:0|0:0,0:0:0:0:
272,224,11986,6,0,L|208:232,1,65,2|4,0:0|0:0,0:0:0:0:
144,264,12286,2,0,L|136:328,1,65,2|8,0:0|0:0,0:0:0:0:
216,328,12586,1,2,0:0:0:0:
392,328,12736,2,0,L|472:328,1,65,6|0,0:0|0:0,0:0:0:0:
184,240,13036,5,10,0:3:0:0:
408,240,13486,1,10,0:3:0:0:
136,240,13936,1,10,0:3:0:0:
456,240,14386,1,10,0:3:0:0:
88,240,14836,2,0,L|53:98,1,130,14|14,0:3|0:3,0:0:0:0:
456,112,15436,5,6,0:0:0:0:
256,192,15586,12,6,19936,0:0:0:0:
176,320,20236,5,4,0:0:0:0:
170,287,20311,1,0,0:0:0:0:
165,255,20386,1,0,0:0:0:0:
243,247,20536,1,8,0:0:0:0:
276,241,20611,1,0,0:0:0:0:
308,236,20686,1,2,0:0:0:0:
144,208,20836,2,0,L|131:127,1,65,8|2,0:0|0:0,0:0:0:0:
216,128,21136,2,0,L|297:115,1,65,8|2,0:0|0:0,0:0:0:0:
448,104,21436,6,0,L|458:168,1,65,8|2,0:0|0:0,0:0:0:0:
376,200,21736,2,0,L|299:215,1,65,8|2,0:0|0:0,0:0:0:0:
480,216,22036,2,0,P|507:266|472:352,1,130,8|10,0:0|0:0,0:0:0:0:
248,336,22636,5,12,0:0:0:0:
216,336,22711,1,0,0:0:0:0:
184,336,22786,1,2,0:0:0:0:
272,256,22936,1,8,0:0:0:0:
312,256,23011,1,0,0:0:0:0:
344,256,23086,1,2,0:0:0:0:
264,136,23236,1,8,0:0:0:0:
344,136,23386,1,2,0:0:0:0:
264,136,23536,1,8,0:0:0:0:
344,136,23686,1,2,0:0:0:0:
264,136,23836,5,8,0:0:0:0:
432,136,23986,2,0,L|504:136,1,65,2|8,0:0|0:0,0:0:0:0:
432,136,24286,1,2,0:0:0:0:
216,136,24436,2,0,L|151:136,1,65,10|2,0:0|0:0,0:0:0:0:
304,208,24736,2,0,L|369:208,1,65,10|2,0:0|0:0,0:0:0:0:
144,208,25036,6,0,L|96:184,2,32.5,4|0|0,0:0|0:0|0:0,0:0:0:0:
216,208,25336,2,0,L|264:184,2,32.5,8|0|2,0:0|0:0|0:0,0:0:0:0:
48,208,25636,2,0,L|35:127,1,65,8|2,0:0|0:0,0:0:0:0:
112,136,25936,2,0,L|184:120,1,65,8|2,0:0|0:0,0:0:0:0:
344,128,26236,6,0,L|407:142,1,65,8|2,0:0|0:0,0:0:0:0:
481,149,26536,2,0,L|470:213,1,65,10|2,0:0|0:0,0:0:0:0:
304,208,26836,2,0,L|168:208,1,130,2|2,0:0|0:0,0:0:0:0:
432,208,27436,6,0,L|480:184,2,32.5,12|0|2,0:0|0:0|0:0,0:0:0:0:
344,208,27736,1,8,0:0:0:0:
312,208,27811,1,0,0:0:0:0:
280,208,27886,1,2,0:0:0:0:
440,288,28036,2,0,L|512:288,1,65,8|2,0:0|0:0,0:0:0:0:
440,288,28336,1,8,0:0:0:0:
216,288,28486,6,0,P|126:249|102:201,1,130,2|2,0:0|0:0,0:0:0:0:
272,208,28936,2,0,L|429:200,2,130,10|8|2,0:0|0:0|0:0,0:0:0:0:
56,208,29836,5,12,0:0:0:0:
46,176,29911,1,0,0:0:0:0:
37,145,29986,1,0,0:0:0:0:
128,136,30136,1,8,0:0:0:0:
284,128,30286,2,0,L|356:128,1,65,2|8,0:0|0:0,0:0:0:0:
420,200,30586,2,0,L|345:200,1,65,2|8,0:0|0:0,0:0:0:0:
200,200,30886,6,0,L|120:200,1,65,2|8,0:0|0:0,0:0:0:0:
64,288,31186,2,0,L|139:288,1,65,2|10,0:0|0:0,0:0:0:0:
284,200,31486,2,0,L|364:200,1,65,2|10,0:0|0:0,0:0:0:0:
188,288,31786,2,0,L|113:288,1,65,2|2,0:0|0:0,0:0:0:0:
304,304,32236,5,6,0:0:0:0:
328,272,32311,1,0,0:0:0:0:
352,240,32386,1,2,0:0:0:0:
412,152,32536,1,8,0:0:0:0:
252,152,32686,2,0,L|263:216,1,65,2|8,0:0|0:0,0:0:0:0:
332,240,32986,2,0,L|343:304,1,65,2|8,0:0|0:0,0:0:0:0:
184,248,33286,6,0,L|174:183,1,65,2|8,0:0|0:0,0:0:0:0:
328,184,33586,2,0,L|424:184,1,65,2|2,0:0|0:0,0:0:0:0:
460,184,33886,1,2,0:0:0:0:
236,256,34036,2,0,L|162:256,1,65,2|2,0:0|0:0,0:0:0:0:
308,336,34336,2,0,L|373:336,1,65,2|2,0:0|0:0,0:0:0:0:
160,328,34636,5,4,0:0:0:0:
128,328,34711,1,0,0:0:0:0:
96,328,34786,1,2,0:0:0:0:
168,328,34936,1,8,0:0:0:0:
384,360,35086,2,0,L|456:360,1,65,2|8,0:0|0:0,0:0:0:0:
368,288,35386,2,0,L|440:288,1,65,2|8,0:0|0:0,0:0:0:0:
352,216,35686,6,0,L|424:216,1,65,2|8,0:0|0:0,0:0:0:0:
336,144,35986,2,0,L|408:144,1,65,2|10,0:0|0:0,0:0:0:0:
244,144,36286,2,0,L|170:144,1,65,2|2,0:0|0:0,0:0:0:0:
328,144,36586,2,0,L|393:144,1,65,2|2,0:0|0:0,0:0:0:0:
168,328,37036,5,12,0:0:0:0:
136,328,37111,1,0,0:0:0:0:
104,328,37186,1,2,0:0:0:0:
168,328,37336,1,8,0:0:0:0:
312,328,37486,2,0,L|379:327,1,65,2|8,0:0|0:0,0:0:0:0:
232,280,37786,2,0,L|160:280,1,65,2|8,0:0|0:0,0:0:0:0:
432,280,38086,6,0,P|464:224|424:176,1,130,6|2,0:0|0:0,0:0:0:0:
272,168,38536,2,0,L|122:157,2,130,6|6|6,0:0|0:0|0:0,0:0:0:0:
100,321,39436,6,0,L|89:282,2,32.5,2|2|2,0:0|0:0|0:0,0:0:0:0:
192,228,39736,2,0,L|200:191,2,32.5,2|2|2,0:0|0:0|0:0,0:0:0:0:
104,208,40036,2,0,L|96:128,1,65,2|2,0:0|0:0,0:0:0:0:
188,120,40336,2,0,L|248:64,1,65,2|2,0:0|0:0,0:0:0:0:
324,64,40636,6,0,L|412:80,1,65,2|2,0:0|0:0,0:0:0:0:
228,136,40936,2,0,L|156:152,1,65,2|2,0:0|0:0,0:0:0:0:
324,200,41236,2,0,L|402:205,2,65,4|0|2,0:0|0:0|0:0,0:0:0:0:
64,200,41836,5,4,0:0:0:0:
336,200,42136,2,0,L|192:200,1,130,2|8,0:0|0:0,0:0:0:0:
368,200,42586,2,0,L|444:200,1,65,2|0,0:0|0:0,0:0:0:0:
352,120,42886,2,0,L|420:120,1,65,2|0,0:0|0:0,0:0:0:0:
336,44,43186,6,0,L|404:44,1,65,2|0,0:0|3:0,0:0:0:0:
476,44,43486,1,2,0:0:0:0:
244,44,43636,2,0,L|148:44,1,65,8|2,0:0|0:0,0:0:0:0:
116,44,43936,1,2,0:0:0:0:
376,44,44236,5,6,0:0:0:0:
116,44,44536,2,0,L|264:44,1,130,2|8,0:0|0:0,0:0:0:0:
96,200,44986,2,0,L|20:200,1,65,2|0,0:0|0:0,0:0:0:0:
112,120,45286,2,0,L|44:120,1,65,2|0,0:0|0:0,0:0:0:0:
128,44,45586,6,0,L|60:44,1,65,2|2,0:0|0:0,0:0:0:0:
128,44,45886,1,2,0:0:0:0:
344,44,46036,2,0,L|492:44,1,130,10|0,0:0|0:0,0:0:0:0:
208,44,46636,5,4,0:0:0:0:
470,44,46936,2,0,L|330:44,1,130,10|0,0:0|0:0,0:0:0:0:
480,48,47386,2,0,L|485:112,1,65,2|0,0:0|0:0,0:0:0:0:
328,336,47686,2,0,L|336:248,1,65,2|0,0:0|0:0,0:0:0:0:
480,48,47986,6,0,L|485:112,1,65,2|0,0:0|0:0,0:0:0:0:
328,336,48286,1,2,0:0:0:0:
252,336,48436,2,0,L|163:336,1,65,8|0,0:0|0:0,0:0:0:0:
328,336,48736,1,4,0:0:0:0:
72,32,49036,6,0,P|48:84|80:156,1,130,2|8,0:0|0:0,0:0:0:0:
216,164,49486,2,0,P|240:216|208:288,1,130,2|2,0:0|0:0,0:0:0:0:
84,280,49936,2,0,L|16:280,1,65,2|2,0:0|0:0,0:0:0:0:
184,280,50236,6,0,L|257:280,1,65,2|2,0:0|0:0,0:0:0:0:
336,280,50536,2,0,L|401:280,1,65,2|0,0:0|0:0,0:0:0:0:
248,280,50836,2,0,L|183:280,1,65,2|0,0:0|0:0,0:0:0:0:
336,280,51136,2,0,L|401:280,1,65,0|0,0:0|0:0,0:0:0:0:
184,280,51436,6,0,L|56:220,1,130,10|0,0:0|0:0,0:0:0:0:
16,176,51886,2,0,L|145:159,1,130,10|0,0:0|0:0,0:0:0:0:
188,108,52336,2,0,L|39:99,1,130,10|0,0:0|0:0,0:0:0:0:
4,48,52786,2,0,L|153:39,1,130,10|0,0:0|0:0,0:0:0:0:
316,44,53236,1,10,0:0:0:0:
52,44,53536,1,10,0:0:0:0:
328,280,53836,6,0,L|456:220,1,130,10|0,0:0|0:0,0:0:0:0:
496,176,54286,2,0,L|367:159,1,130,10|0,0:0|0:0,0:0:0:0:
324,108,54736,2,0,L|473:99,1,130,10|0,0:0|0:0,0:0:0:0:
508,48,55186,2,0,L|359:39,1,130,10|0,0:0|0:0,0:0:0:0:
196,40,55636,1,10,0:0:0:0:
459,20,55936,1,10,0:0:0:0:
204,68,56236,6,0,L|73:69,1,130,10|10,0:0|0:0,0:0:0:0:
332,68,56836,2,0,L|463:69,1,130,10|10,0:0|0:0,0:0:0:0:
204,68,57436,6,0,L|156:92,2,43.3333333333333
316,68,57736,2,0,L|360:92,2,43.3333333333333
204,68,58036,2,0,L|160:92,2,43.3333333333333
316,68,58336,1,2,0:0:0:0:
347,104,58436,1,2,0:0:0:0:
132,72,58636,6,0,P|60:136|64:232,1,195,10|10,0:0|0:0,0:0:0:0:
309,141,59536,2,0,L|178:127,1,130,10|10,0:0|0:0,0:0:0:0:
357,243,60136,2,0,L|491:254,1,130,0|0,0:0|0:0,0:0:0:0:
228,252,60736,1,10,0:0:0:0:
196,247,60811,1,0,0:0:0:0:
164,243,60886,1,0,0:0:0:0:
444,248,61036,6,0,P|472:192|436:144,1,112.666661509196,6|0,0:0|0:0,0:0:0:0:
388,148,61336,2,0,L|272:148,1,112.666661509196,10|0,0:0|0:0,0:0:0:0:
212,148,61636,2,0,P|192:201|216:248,1,112.666661509196,4|0,0:0|0:0,0:0:0:0:
336,256,61936,1,8,0:0:0:0:
64,248,62236,6,0,P|42:197|61:145,1,112.666661509196,6|0,0:0|0:0,0:0:0:0:
132,152,62536,2,0,L|184:176,2,56.3333307545981,10|2|2,0:0|0:0|0:0,0:0:0:0:
61,145,62836,2,0,L|8:120,2,56.3333307545981,6|2|2,0:0|0:0|0:0,0:0:0:0:
144,152,63136,1,10,0:0:0:0:
336,160,63436,6,0,L|388:180,2,56.3333307545981,6|2|2,0:0|0:0|0:0,0:0:0:0:
268,132,63736,2,0,L|192:100,2,56.3333307545981,10|2|2,0:0|0:0|0:0,0:0:0:0:
336,160,64036,2,0,P|368:212|336:248,1,112.666661509196,4|4,0:0|0:0,0:0:0:0:
212,244,64336,1,8,0:0:0:0:
472,248,64636,6,0,P|477:191|444:144,1,112.666661509196,6|0,0:0|0:0,0:0:0:0:
376,136,64936,2,0,L|316:106,2,56.3333307545981,10|2|2,0:0|0:0|0:0,0:0:0:0:
444,144,65236,2,0,P|449:87|416:40,1,112.666661509196,4|0,0:0|0:0,0:0:0:0:
352,40,65536,2,0,L|288:72,1,56.3333307545981,10|2,0:0|0:0,0:0:0:0:
68,80,65836,6,0,P|37:126|43:181,1,112.666661509196,6|0,0:0|0:0,0:0:0:0:
104,200,66136,2,0,L|217:227,1,112.666661509196,10|0,0:0|0:0,0:0:0:0:
276,240,66436,2,0,L|400:272,1,112.666661509196,6|2,0:0|0:0,0:0:0:0:
448,284,66736,1,8,0:0:0:0:
76,284,67036,6,0,P|57:231|73:178,1,112.666661509196,6|2,0:0|0:0,0:0:0:0:
160,276,67336,2,0,P|175:329|156:381,1,112.666661509196,10|2,0:0|0:0,0:0:0:0:
80,368,67636,2,0,L|4:362,2,56.3333307545981,6|2|2,0:0|0:0|0:0,0:0:0:0:
152,368,67936,2,0,L|212:326,1,56.3333307545981,10|2,0:0|0:0,0:0:0:0:
412,284,68236,6,0,P|431:231|415:178,1,112.666661509196,6|2,0:0|0:0,0:0:0:0:
292,276,68536,2,0,P|277:329|296:381,1,112.666661509196,10|2,0:0|0:0,0:0:0:0:
416,284,68836,2,0,P|435:231|419:178,1,112.666661509196,6|0,0:0|0:0,0:0:0:0:
300,180,69136,1,8,0:0:0:0:
44,192,69436,6,0,P|56:136|112:96,1,112.666661509196,6|2,0:0|0:0,0:0:0:0:
152,88,69736,2,0,L|263:70,1,112.666661509196,10|2,0:0|0:0,0:0:0:0:
324,68,70036,2,0,P|345:97|319:171,1,112.666661509196,6|2,0:0|0:0,0:0:0:0:
196,172,70336,1,8,0:0:0:0:
444,172,70636,6,0,P|475:218|469:273,1,112.666661509196,4|2,0:0|0:0,0:0:0:0:
408,292,70936,2,0,L|295:319,1,112.666661509196,8|2,0:0|0:0,0:0:0:0:
236,332,71236,2,0,L|112:364,1,112.666661509196,4|2,0:0|0:0,0:0:0:0:
64,376,71536,1,8,0:0:0:0:
368,248,71836,6,0,P|390:197|371:145,1,112.666661509196,4|2,0:0|0:0,0:0:0:0:
300,152,72136,2,0,L|248:176,2,56.3333307545981,8|0|2,0:0|0:0|0:0,0:0:0:0:
371,145,72436,2,0,L|424:120,2,56.3333307545981,4|0|2,0:0|0:0|0:0,0:0:0:0:
288,152,72736,1,8,0:0:0:0:
108,160,73036,6,0,L|56:180,2,56.3333307545981,4|0|2,0:0|0:0|0:0,0:0:0:0:
176,132,73336,2,0,L|252:100,2,56.3333307545981,8|0|2,0:0|0:0|0:0,0:0:0:0:
108,160,73636,2,0,P|76:212|108:248,1,112.666661509196,4|2,0:0|0:0,0:0:0:0:
232,256,73936,1,8,0:0:0:0:
59,333,74236,6,0,L|56:210,1,112.666661509196,4|2,0:0|0:0,0:0:0:0:
120,220,74536,2,0,L|240:220,1,112.666661509196,8|2,0:0|0:0,0:0:0:0:
300,224,74836,2,0,P|372:192|400:116,1,112.666661509196,4|2,0:0|0:0,0:0:0:0:
316,104,75136,2,0,L|260:128,1,56.3333307545981,8|0,0:0|0:0,0:0:0:0:
80,136,75436,6,0,P|49:182|55:237,1,112.666661509196,4|2,0:0|0:0,0:0:0:0:
116,256,75736,2,0,L|229:283,1,112.666661509196,8|2,0:0|0:0,0:0:0:0:
284,284,76036,2,0,P|302:228|281:175,1,112.666661509196,4|2,0:0|0:0,0:0:0:0:
152,180,76336,1,8,0:0:0:0:
412,140,76636,6,0,P|431:193|415:246,1,112.666661509196,4|2,0:0|0:0,0:0:0:0:
328,148,76936,2,0,P|313:95|332:43,1,112.666661509196,8|2,0:0|0:0,0:0:0:0:
408,56,77236,2,0,L|484:62,2,56.3333307545981,4|0|2,0:0|0:0|0:0,0:0:0:0:
336,56,77536,2,0,L|276:98,1,56.3333307545981,8|0,0:0|0:0,0:0:0:0:
76,140,77836,6,0,P|57:193|73:246,1,112.666661509196,4|2,0:0|0:0,0:0:0:0:
196,148,78136,2,0,P|211:95|192:43,1,112.666661509196,12|0,0:0|0:0,0:0:0:0:
72,140,78436,2,0,P|53:193|69:246,1,112.666661509196,4|4,0:0|0:0,0:0:0:0:
188,244,78736,1,8,0:0:0:0:
408,172,79036,6,0,P|439:218|433:273,1,112.666661509196,0|0,0:0|0:0,0:0:0:0:
372,292,79336,2,0,L|259:319,1,112.666661509196,2|2,0:0|0:0,0:0:0:0:
200,332,79636,2,0,L|76:364,1,112.666661509196,2|2,0:0|0:0,0:0:0:0:
28,376,79936,1,0,0:0:0:0:
400,284,80236,6,0,P|461:237|476:172,1,130,10|0,0:0|0:0,0:0:0:0:
344,184,80686,2,0,L|195:175,1,130,10|0,0:0|0:0,0:0:0:0:
76,108,81136,2,0,L|205:115,1,130,10|0,0:0|0:0,0:0:0:0:
344,56,81586,2,0,L|195:47,1,130,10|0,0:0|0:0,0:0:0:0:
60,48,82036,1,10,0:0:0:0:
344,56,82336,1,10,0:0:0:0:
92,48,82636,6,0,L|196:144,1,130,10|0,0:0|0:0,0:0:0:0:
328,160,83086,2,0,L|198:167,1,130,10|0,0:0|0:0,0:0:0:0:
324,240,83536,2,0,L|428:336,1,130,10|0,0:0|0:0,0:0:0:0:
300,340,83986,2,0,L|196:228,1,130,10|0,0:0|0:0,0:0:0:0:
52,320,84436,1,10,0:0:0:0:
324,324,84736,1,10,0:0:0:0:
52,320,85036,6,0,L|42:187,1,130,10|10,0:0|0:0,0:0:0:0:
304,200,85636,2,0,L|314:67,1,130,10|10,0:0|0:0,0:0:0:0:
88,56,86236,5,0,0:0:0:0:
44,88,86336,1,0,0:0:0:0:
77,121,86436,1,0,0:0:0:0:
188,140,86536,1,0,0:0:0:0:
240,160,86636,1,0,0:0:0:0:
292,180,86736,1,0,0:0:0:0:
180,228,86836,1,2,0:0:0:0:
136,260,86936,1,2,0:0:0:0:
169,293,87036,1,2,0:0:0:0:
280,296,87136,1,2,0:0:0:0:
340,296,87236,1,2,0:0:0:0:
68,224,87436,6,0,P|36:264|60:348,1,130,8|0,0:0|0:0,0:0:0:0:
200,328,87886,2,0,L|349:319,1,130,8|0,0:0|0:0,0:0:0:0:
200,256,88336,2,0,L|296:252,1,65,8|0,0:0|0:0,0:0:0:0:
396,252,88636,6,0,L|332:254,1,65,8|0,0:0|0:0,0:0:0:0:
160,260,88936,2,0,P|128:204|164:152,1,130,8|0,0:0|0:0,0:0:0:0:
348,260,89536,2,0,L|283:260,1,65,2|0,0:0|0:0,0:0:0:0:
440,200,89836,5,4,0:0:0:0:
176,200,90136,2,0,L|320:200,1,130,2|8,0:0|0:0,0:0:0:0:
144,200,90586,2,0,L|68:200,1,65,2|0,0:0|0:0,0:0:0:0:
160,120,90886,2,0,L|92:120,1,65,2|0,0:0|0:0,0:0:0:0:
176,44,91186,6,0,L|108:44,1,65,2|0,0:0|0:0,0:0:0:0:
36,44,91486,1,2,0:0:0:0:
256,44,91636,2,0,L|352:44,1,65,8|2,0:0|0:0,0:0:0:0:
396,44,91936,1,2,0:0:0:0:
136,44,92236,5,14,0:0:0:0:
396,44,92536,2,0,L|248:44,1,130,2|8,0:0|0:0,0:0:0:0:
416,200,92986,2,0,L|492:200,1,65,2|0,0:0|0:0,0:0:0:0:
400,120,93286,2,0,L|468:120,1,65,2|2,0:0|0:0,0:0:0:0:
384,44,93586,6,0,L|452:44,1,65,2|2,0:0|0:0,0:0:0:0:
384,44,93886,1,2,0:0:0:0:
168,44,94036,2,0,L|20:44,1,130,2|0,0:0|0:0,0:0:0:0:
304,44,94636,5,6,0:0:0:0:
42,44,94936,2,0,L|182:44,1,130,10|8,0:0|0:0,0:0:0:0:
32,48,95386,2,0,L|27:112,1,65,2|0,0:0|0:0,0:0:0:0:
184,336,95686,2,0,L|176:248,1,65,2|0,0:0|0:0,0:0:0:0:
32,48,95986,6,0,L|27:112,1,65,2|0,0:0|0:0,0:0:0:0:
184,336,96286,1,2,0:0:0:0:
260,336,96436,2,0,L|349:336,1,65,2|0,0:0|0:0,0:0:0:0:
184,336,96736,1,2,0:0:0:0:
440,32,97036,6,0,P|464:84|432:156,1,130,10|8,0:0|0:0,0:0:0:0:
296,164,97486,2,0,P|272:216|304:288,1,130,2|2,0:0|0:0,0:0:0:0:
428,280,97936,2,0,L|496:280,1,65,2|2,0:0|0:0,0:0:0:0:
328,280,98236,6,0,L|255:280,1,65,2|2,0:0|0:0,0:0:0:0:
176,280,98536,2,0,L|111:280,1,65,2|2,0:0|0:0,0:0:0:0:
355,296,98836,2,0,L|491:307,1,130,2|2,0:0|0:0,0:0:0:0:
231,20,99436,6,0,L|7:32,1,195,10|10,0:0|0:0,0:0:0:0:
332,268,100336,2,0,L|334:127,1,130,10|10,0:0|0:0,0:0:0:0:
72,192,100936,1,0,0:0:0:0:
440,192,101236,1,0,0:0:0:0:
