osu file format v14

[General]
AudioFilename: audio.mp3
AudioLeadIn: 0
PreviewTime: 60661
Countdown: 0
SampleSet: Soft
StackLeniency: 0.7
Mode: 2
LetterboxInBreaks: 0
WidescreenStoryboard: 0

[Editor]
Bookmarks: 53536
DistanceSpacing: 1.5
BeatDivisor: 3
GridSize: 8
TimelineZoom: 2.899999

[Metadata]
Title:On the FM
TitleUnicode:On the FM
Artist:C-Show
ArtistUnicode:C-Show
Creator:Ascendance
Version:ZiRoX's Cup
Source:beatmania IIDX 23 copula
Tags:KONAMI BEMANI Kaitsuu! Tokotoko line 24 SINOBUZ PANIC HOLIC ZiRoX Spectator Emiru FoxyGrandpa Hareimu Sorcerer Tomthewizard CShow RADIO SHOWCASE 開通!とことこライン
BeatmapID:1391070
BeatmapSetID:609679

[Difficulty]
HPDrainRate:3
CircleSize:2.5
OverallDifficulty:6.2
ApproachRate:6.2
SliderMultiplier:1.1
SliderTickRate:1

[Events]
//Background and Video events
0,0,"background.jpg",0,0
//Break Periods
//Storyboard Layer 0 (Background)
//Storyboard Layer 1 (Fail)
//Storyboard Layer 2 (Pass)
//Storyboard Layer 3 (Foreground)
//Storyboard Sound Samples

[TimingPoints]
1036,300,4,2,1,40,1,0
3136,-100,4,2,4,40,0,0
3436,-100,4,2,1,40,0,0
5836,-100,4,3,2,50,0,0
7411,-100,4,2,1,5,0,0
7486,-100,4,2,1,45,0,0
7561,-100,4,2,1,5,0,0
7636,-100,4,2,1,45,0,0
7711,-100,4,2,1,5,0,0
7786,-100,4,2,1,45,0,0
7861,-100,4,2,1,5,0,0
7936,-100,4,2,1,10,0,0
8236,-100,4,2,6,40,0,0
8536,-100,4,2,5,40,0,0
8836,-100,4,2,3,40,0,0
8986,-100,4,3,3,50,0,0
9736,-100,4,3,2,50,0,0
10036,-100,4,3,3,50,0,0
12736,-100,4,2,4,50,0,0
12773,-100,4,2,4,5,0,0
13036,-100,4,2,1,60,0,0
19036,-100,4,3,15,60,0,0
19111,-100,4,2,1,60,0,0
19936,-50,4,2,1,60,0,0
20236,-100,4,3,4,65,0,0
20273,-100,4,3,2,65,0,0
24436,-100,4,3,6,65,0,0
25036,-100,4,3,2,65,0,0
27136,-100,4,3,7,65,0,0
27436,-100,4,3,2,65,0,0
29836,-100,4,3,8,65,0,0
31936,-100,4,3,7,65,0,0
32236,-100,4,3,8,65,0,0
33736,-100,4,3,6,65,0,0
34636,-100,4,3,2,65,0,0
36736,-100,4,3,7,65,0,0
37036,-100,4,3,8,65,0,0
41536,-100,4,3,7,65,0,0
41836,-100,4,3,9,70,0,0
44236,-100,4,3,8,70,0,0
44311,-100,4,3,9,70,0,0
45736,-100,4,3,8,70,0,0
45811,-100,4,3,9,70,0,0
46936,-100,4,3,10,70,0,0
50836,-100,4,2,1,40,0,0
51436,-100,4,3,11,70,0,0
57436,-100,4,3,2,70,0,0
58636,-100,4,3,11,70,0,0
60136,-100,4,3,8,70,0,0
60586,-100,4,3,3,70,0,0
61036,-83.3333333333333,4,3,4,80,0,1
61111,-83.3333333333333,4,3,3,80,0,1
70636,-83.3333333333333,4,3,4,80,0,1
70711,-83.3333333333333,4,3,16,80,0,1
78936,-83.3333333333333,4,3,2,80,0,1
79936,-100,4,3,1,80,0,0
80236,-100,4,3,11,80,0,0
86236,-100,4,3,12,80,0,0
87436,-100,4,3,11,80,0,0
89536,-100,4,3,7,80,0,0
89836,-100,4,3,6,70,0,0
89911,-100,4,3,9,70,0,0
92236,-100,4,3,8,70,0,0
92311,-100,4,3,9,70,0,0
94636,-100,4,3,6,70,0,0
94936,-100,4,3,10,70,0,0
98836,-100,4,3,2,60,0,0
99436,-100,4,3,11,80,0,0
100936,-100,4,3,1,80,0,0

[Colours]
Combo1 : 255,149,147
Combo2 : 145,255,206
Combo3 : 254,197,94
Combo4 : 181,66,193

[HitObjects]
104,320,1036,6,0,L|96:192,1,110,2|2,0:0|0:0,0:0:0:0:
232,192,1786,2,0,L|296:192,1,55,2|2,0:0|0:0,0:0:0:0:
416,152,2236,6,0,L|424:24,1,110,2|2,0:0|0:0,0:0:0:0:
280,72,2986,2,0,L|208:80,1,55,2|4,0:0|0:0,0:0:0:0:
368,80,3436,6,0,L|492:71,2,110,8|8|8,0:3|0:3|0:3,0:0:0:0:
256,88,4336,1,8,0:3:0:0:
112,96,4636,6,0,P|54:178|126:249,1,220,8|12,0:3|0:0,0:0:0:0:
352,248,5836,6,0,L|496:168,2,165,12|2|8,0:0|0:0|0:0,0:0:0:0:
208,304,7036,6,0,B|136:144|136:144|208:304,1,330,0|0,0:0|0:0,0:0:0:0:
360,280,8236,6,0,L|366:170,1,110,2|2,0:0|0:0,0:0:0:0:
200,264,8986,2,0,L|120:184,3,110,6|2|2|2,0:0|0:0|0:0|0:0,0:0:0:0:
240,256,10336,1,2,0:0:0:0:
96,72,10636,6,0,L|224:75,1,110,2|2,0:0|0:0,0:0:0:0:
384,328,11386,2,0,L|296:248,3,110,2|2|2|2,0:0|0:0|0:0|0:0,0:0:0:0:
168,248,12586,2,0,L|95:248,1,55,2|6,0:0|0:0,0:0:0:0:
256,32,13036,6,0,L|424:88,3,165,10|10|10|10,0:3|0:3|0:3|0:3,0:0:0:0:
240,184,14836,2,0,L|131:202,1,110,14|14,0:3|0:3,0:0:0:0:
256,192,15436,12,6,19936,0:0:0:0:
192,232,20236,6,0,L|179:111,1,110,4|8,0:0|0:0,0:0:0:0:
72,72,20836,2,0,L|184:58,1,110,8|8,0:0|0:0,0:0:0:0:
288,48,21436,2,0,L|299:157,1,110,8|8,0:0|0:0,0:0:0:0:
192,168,22036,2,0,L|136:208,2,55,8|0|10,0:0|0:0|0:0,0:0:0:0:
352,240,22636,6,0,L|232:256,1,110,12|8,0:0|0:0,0:0:0:0:
136,272,23236,2,0,L|120:154,1,110,8|8,0:0|0:0,0:0:0:0:
232,56,23836,2,0,L|120:56,1,110,8|8,0:0|0:0,0:0:0:0:
240,56,24436,2,0,L|288:88,2,55,10|2|10,0:0|0:0|0:0,0:0:0:0:
72,216,25036,6,0,L|207:219,1,110,4|8,0:0|0:0,0:0:0:0:
288,216,25636,2,0,L|400:216,1,110,8|8,0:0|0:0,0:0:0:0:
296,184,26236,2,0,L|224:176,2,55,8|2|10,0:0|0:0|0:0,0:0:0:0:
192,88,26836,2,0,L|305:94,1,110,2|2,0:0|0:0,0:0:0:0:
144,96,27436,6,0,L|16:96,1,110,12|8,0:0|0:0,0:0:0:0:
136,184,28036,2,0,L|245:185,1,110,8|8,0:0|0:0,0:0:0:0:
312,184,28486,2,0,P|360:248|296:312,1,165,2|10,0:0|0:0,0:0:0:0:
208,312,29236,2,0,L|85:312,1,110,8|2,0:0|0:0,0:0:0:0:
264,304,29836,6,0,P|312:224|248:168,1,165,12|2,0:0|0:0,0:0:0:0:
144,184,30586,2,0,L|277:172,1,110,2|2,0:0|0:0,0:0:0:0:
144,112,31186,2,0,L|277:100,1,110,2|2,0:0|0:0,0:0:0:0:
360,96,31786,1,2,0:0:0:0:
144,320,32236,6,0,P|96:232|136:168,1,165,6|2,0:0|0:0,0:0:0:0:
240,184,32986,2,0,L|107:172,1,110,2|2,0:0|0:0,0:0:0:0:
240,112,33586,2,0,L|107:100,1,110,2|2,0:0|0:0,0:0:0:0:
240,112,34186,2,0,L|296:112,1,55,2|2,0:0|0:0,0:0:0:0:
456,240,34636,6,0,L|272:239,1,165,4|2,0:0|0:0,0:0:0:0:
178,246,35386,2,0,L|178:134,1,110,2|2,0:0|0:0,0:0:0:0:
288,136,35986,2,0,L|136:136,1,110,2|2,0:0|0:0,0:0:0:0:
288,136,36586,1,2,0:0:0:0:
72,312,37036,6,0,L|232:239,1,165,12|2,0:0|0:0,0:0:0:0:
336,240,37786,1,2,0:0:0:0:
168,184,38086,2,0,P|120:248|184:312,1,165,6|6,0:0|0:0,0:0:0:0:
304,312,38836,2,0,L|427:312,1,110,6|6,0:0|0:0,0:0:0:0:
256,312,39436,6,0,L|146:324,1,110,2|2,0:0|0:0,0:0:0:0:
40,208,40036,2,0,L|168:193,1,110,2|2,0:0|0:0,0:0:0:0:
256,184,40636,2,0,L|368:176,1,110,2|2,0:0|0:0,0:0:0:0:
264,184,41236,2,0,L|208:216,2,55,4|0|2,0:0|0:0|0:0,0:0:0:0:
424,240,41836,6,0,L|314:252,1,110,4|2,0:0|0:0,0:0:0:0:
152,272,42586,2,0,L|261:261,2,110,2|2|2,0:0|0:0|0:0,0:0:0:0:
261,261,43486,2,0,L|336:256,1,55,2|8,0:0|0:0,0:0:0:0:
416,248,43936,1,2,0:0:0:0:
256,264,44236,6,0,L|146:250,1,110,6|2,0:0|0:0,0:0:0:0:
320,256,44986,2,0,L|211:245,2,110,2|2|2,0:0|0:0|0:0,0:0:0:0:
432,272,45886,2,0,L|424:200,1,55,2|10,0:0|0:0,0:0:0:0:
320,256,46336,1,0,0:0:0:0:
176,184,46636,6,0,L|66:190,1,110,4|10,0:0|0:0,0:0:0:0:
248,224,47386,2,0,L|113:236,2,110,2|2|2,0:0|0:0|0:0,0:0:0:0:
368,216,48286,2,0,L|352:280,1,55,2|8,0:0|0:0,0:0:0:0:
248,224,48736,1,4,0:0:0:0:
88,200,49036,6,0,P|32:232|32:336,2,165,2|2|2,0:0|0:0|0:0,0:0:0:0:
200,224,50236,5,2,0:0:0:0:
312,216,50536,1,2,0:0:0:0:
200,224,50836,2,0,L|75:232,1,110,2|0,0:0|0:0,0:0:0:0:
248,232,51436,6,0,L|269:47,1,165,10|10,0:0|0:0,0:0:0:0:
112,72,52336,2,0,L|92:235,1,165,10|10,0:0|0:0,0:0:0:0:
248,232,53236,1,10,0:0:0:0:
128,232,53536,1,10,0:0:0:0:
288,232,53836,6,0,L|301:55,1,165,10|10,0:0|0:0,0:0:0:0:
464,72,54736,2,0,L|451:236,1,165,10|10,0:0|0:0,0:0:0:0:
288,232,55636,1,10,0:0:0:0:
408,232,55936,1,10,0:0:0:0:
264,232,56236,6,0,L|149:233,1,110,10|10,0:0|0:0,0:0:0:0:
56,304,56836,2,0,L|165:304,1,110,10|10,0:0|0:0,0:0:0:0:
280,312,57436,2,0,L|304:192,1,110
160,232,58036,2,0,L|176:120,1,110,2|2,0:0|0:0,0:0:0:0:
312,32,58636,6,0,L|128:32,1,165,10|0,0:0|0:0,0:0:0:0:
280,144,59536,2,0,L|397:139,1,110,10|10,0:0|0:0,0:0:0:0:
280,232,60136,2,0,L|152:240,1,110,0|0,0:0|0:0,0:0:0:0:
56,240,60736,1,10,0:0:0:0:
216,240,61036,6,0,L|360:232,1,131.99999597168,6|10,0:0|0:0,0:0:0:0:
484,224,61636,1,4,0:0:0:0:
408,136,61836,2,0,L|360:136,1,43.9999986572266,0|8,0:0|0:0,0:0:0:0:
216,136,62236,6,0,L|192:264,1,87.9999973144532,6|0,0:0|0:0,0:0:0:0:
192,288,62536,1,10,0:0:0:0:
320,288,62836,1,6,0:0:0:0:
192,288,63136,1,10,0:0:0:0:
344,288,63436,6,0,L|208:288,1,131.99999597168,6|10,0:0|0:0,0:0:0:0:
76,288,64036,1,4,0:0:0:0:
152,200,64236,2,0,L|200:200,1,43.9999986572266,4|8,0:0|0:0,0:0:0:0:
344,200,64636,6,0,L|368:72,1,87.9999973144532,6|0,0:0|0:0,0:0:0:0:
368,48,64936,1,10,0:0:0:0:
240,48,65236,1,4,0:0:0:0:
368,48,65536,1,10,0:0:0:0:
216,48,65836,6,0,L|83:51,1,131.99999597168,6|10,0:0|0:0,0:0:0:0:
212,128,66436,1,4,0:0:0:0:
296,128,66636,2,0,L|344:128,1,43.9999986572266,2|8,0:0|0:0,0:0:0:0:
184,128,67036,6,0,L|160:256,1,87.9999973144532,6|2,0:0|0:0,0:0:0:0:
160,280,67336,1,10,0:0:0:0:
288,280,67636,1,6,0:0:0:0:
160,280,67936,1,10,0:0:0:0:
280,280,68236,5,6,0:0:0:0:
368,280,68436,2,0,L|413:276,1,43.9999986572266,2|10,0:0|0:0,0:0:0:0:
480,216,68736,2,0,L|480:160,1,43.9999986572266,2|6,0:0|0:0,0:0:0:0:
399,110,69036,1,4,0:0:0:0:
216,104,69436,6,0,L|88:104,1,87.9999973144532,6|2,0:0|0:0,0:0:0:0:
88,104,69736,1,10,0:0:0:0:
208,32,70036,1,6,0:0:0:0:
80,32,70336,1,8,0:0:0:0:
232,232,70636,6,0,L|384:224,1,131.99999597168,4|8,0:0|0:0,0:0:0:0:
432,184,71236,1,4,0:0:0:0:
336,160,71436,2,0,L|304:120,1,43.9999986572266,2|8,0:0|0:0,0:0:0:0:
192,112,71836,6,0,L|190:202,1,87.9999973144532,4|2,0:0|0:0,0:0:0:0:
184,272,72136,1,8,0:0:0:0:
312,280,72436,1,4,0:0:0:0:
184,272,72736,1,8,0:0:0:0:
336,264,73036,6,0,L|208:296,1,131.99999597168,4|8,0:0|0:0,0:0:0:0:
128,220,73636,1,4,0:0:0:0:
48,208,73836,2,0,L|80:160,1,43.9999986572266,2|8,0:0|0:0,0:0:0:0:
184,160,74236,6,0,L|312:160,1,87.9999973144532,4|2,0:0|0:0,0:0:0:0:
320,160,74536,1,8,0:0:0:0:
448,160,74836,1,4,0:0:0:0:
320,168,75136,1,8,0:0:0:0:
168,168,75436,6,0,L|304:184,1,131.99999597168,4|8,0:0|0:0,0:0:0:0:
383,219,76036,1,4,0:0:0:0:
296,224,76236,2,0,L|296:272,1,43.9999986572266,2|8,0:0|0:0,0:0:0:0:
432,160,76636,6,0,L|304:160,1,87.9999973144532,4|2,0:0|0:0,0:0:0:0:
296,160,76936,1,8,0:0:0:0:
168,160,77236,1,4,0:0:0:0:
40,160,77536,1,8,0:0:0:0:
200,160,77836,5,4,0:0:0:0:
288,160,78036,2,0,L|304:208,1,43.9999986572266,2|12,0:0|0:0,0:0:0:0:
216,216,78336,2,0,L|205:273,1,43.9999986572266,0|4,0:0|0:0,0:0:0:0:
296,280,78636,1,4,0:0:0:0:
453,333,79036,6,0,L|449:211,1,87.9999973144532,0|0,0:0|0:0,0:0:0:0:
448,160,79336,1,2,0:0:0:0:
312,160,79636,1,2,0:0:0:0:
448,160,79936,1,0,0:0:0:0:
288,232,80236,6,0,L|267:47,1,165,10|10,0:0|0:0,0:0:0:0:
424,72,81136,2,0,L|444:235,1,165,10|10,0:0|0:0,0:0:0:0:
288,232,82036,1,10,0:0:0:0:
160,232,82336,1,10,0:0:0:0:
320,232,82636,6,0,L|307:55,1,165,10|10,0:0|0:0,0:0:0:0:
144,72,83536,2,0,L|157:236,1,165,10|10,0:0|0:0,0:0:0:0:
320,232,84436,1,10,0:0:0:0:
448,232,84736,1,10,0:0:0:0:
296,232,85036,6,0,L|186:231,1,110,10|10,0:0|0:0,0:0:0:0:
72,304,85636,2,0,L|181:304,1,110,10|10,0:0|0:0,0:0:0:0:
280,312,86236,2,0,L|304:192,1,110
160,232,86836,1,0,0:0:0:0:
176,200,86936,1,0,0:0:0:0:
192,168,87036,1,0,0:0:0:0:
208,128,87136,1,0,0:0:0:0:
360,96,87436,6,0,L|184:96,1,165,8|8,0:0|0:0,0:0:0:0:
344,96,88336,2,0,L|339:205,1,110,8|8,0:0|0:0,0:0:0:0:
224,192,88936,1,8,0:0:0:0:
339,205,89236,1,0,0:0:0:0:
224,192,89536,1,2,0:0:0:0:
376,208,89836,6,0,L|382:318,1,110,4|2,0:0|0:0,0:0:0:0:
224,312,90586,2,0,L|109:304,2,110,2|2|2,0:0|0:0|0:0,0:0:0:0:
344,320,91486,1,2,0:0:0:0:
464,320,91786,2,0,L|463:240,1,55,2|2,0:0|0:0,0:0:0:0:
312,248,92236,6,0,L|200:240,1,110,14|2,0:0|0:0,0:0:0:0:
344,168,92986,2,0,L|453:175,2,110,2|2|2,0:0|0:0|0:0,0:0:0:0:
224,160,93886,1,2,0:0:0:0:
104,160,94186,2,0,L|105:240,1,55,2|0,0:0|0:0,0:0:0:0:
248,216,94636,6,0,L|384:219,1,110,6|10,0:0|0:0,0:0:0:0:
192,216,95386,2,0,L|69:208,2,110,2|2|2,0:0|0:0|0:0,0:0:0:0:
312,224,96286,1,2,0:0:0:0:
432,224,96586,2,0,L|431:304,1,55,0|2,0:0|0:0,0:0:0:0:
280,280,97036,6,0,L|170:280,1,110,10|8,0:0|0:0,0:0:0:0:
336,232,97786,2,0,L|448:168,3,110,2|2|2|2,0:0|0:0|0:0|0:0,0:0:0:0:
488,176,98836,2,0,L|487:48,1,110,2|2,0:0|0:0,0:0:0:0:
328,64,99436,6,0,L|137:76,1,165,10|10,0:0|0:0,0:0:0:0:
336,128,100336,2,0,L|336:238,1,110,10|10,0:0|0:0,0:0:0:0:
192,240,100936,1,0,0:0:0:0:
336,240,101236,1,0,0:0:0:0:
