osu file format v14

[General]
AudioFilename: audio.mp3
AudioLeadIn: 0
PreviewTime: 60661
Countdown: 0
SampleSet: None
StackLeniency: 0.7
Mode: 2
LetterboxInBreaks: 0
WidescreenStoryboard: 0

[Editor]
Bookmarks: 53536
DistanceSpacing: 1.4
BeatDivisor: 3
GridSize: 32
TimelineZoom: 2.899999

[Metadata]
Title:On the FM
TitleUnicode:On the FM
Artist:C-Show
ArtistUnicode:C-Show
Creator:Ascendance
Version:Salad
Source:beatmania IIDX 23 copula
Tags:KONAMI BEMANI Kaitsuu! Tokotoko line 24 SINOBUZ PANIC HOLIC ZiRoX Spectator Emiru FoxyGrandpa Hareimu Sorcerer Tomthewizard CShow RADIO SHOWCASE 開通!とことこライン
BeatmapID:1382268
BeatmapSetID:609679

[Difficulty]
HPDrainRate:4
CircleSize:3
OverallDifficulty:7.3
ApproachRate:7.3
SliderMultiplier:1.3
SliderTickRate:1

[Events]
//Background and Video events
0,0,"background.jpg",0,0
//Break Periods
//Storyboard Layer 0 (Background)
//Storyboard Layer 1 (Fail)
//Storyboard Layer 2 (Pass)
//Storyboard Layer 3 (Foreground)
//Storyboard Sound Samples

[TimingPoints]
1036,300,4,2,1,40,1,0
3136,-100,4,2,4,40,0,0
3436,-100,4,2,1,40,0,0
5836,-100,4,3,2,50,0,0
7411,-100,4,2,1,5,0,0
7486,-100,4,2,1,45,0,0
7561,-100,4,2,1,5,0,0
7636,-100,4,2,1,45,0,0
7711,-100,4,2,1,5,0,0
7786,-100,4,2,1,45,0,0
7861,-100,4,2,1,5,0,0
7936,-100,4,2,1,10,0,0
8236,-100,4,2,6,40,0,0
8536,-100,4,2,5,40,0,0
8836,-100,4,2,3,40,0,0
8986,-100,4,3,3,50,0,0
9736,-100,4,3,2,50,0,0
10036,-100,4,3,3,50,0,0
12736,-100,4,2,4,50,0,0
12773,-100,4,2,4,5,0,0
13036,-100,4,2,1,60,0,0
19036,-100,4,3,15,60,0,0
19111,-100,4,2,1,60,0,0
19936,-50,4,2,1,60,0,0
20236,-100,4,3,4,65,0,0
20273,-100,4,3,2,65,0,0
24436,-100,4,3,6,65,0,0
25036,-100,4,3,2,65,0,0
27136,-100,4,3,7,65,0,0
27436,-100,4,3,2,65,0,0
29836,-100,4,3,8,65,0,0
31936,-100,4,3,7,65,0,0
32236,-100,4,3,8,65,0,0
33736,-100,4,3,6,65,0,0
34636,-100,4,3,2,65,0,0
36736,-100,4,3,7,65,0,0
37036,-100,4,3,8,65,0,0
41536,-100,4,3,7,65,0,0
41836,-100,4,3,9,70,0,1
44236,-100,4,3,8,70,0,1
44311,-100,4,3,9,70,0,1
45736,-100,4,3,8,70,0,1
45811,-100,4,3,9,70,0,1
46936,-100,4,3,10,70,0,1
50836,-100,4,2,1,40,0,0
51436,-100,4,3,11,70,0,0
57436,-100,4,3,2,70,0,0
58636,-100,4,3,11,70,0,0
60136,-100,4,3,8,70,0,0
60586,-100,4,3,3,70,0,0
61036,-100,4,3,4,80,0,1
61111,-100,4,3,3,80,0,1
70636,-100,4,3,4,80,0,1
70711,-100,4,3,16,80,0,1
78936,-100,4,3,2,80,0,1
79936,-100,4,3,1,80,0,0
80236,-100,4,3,11,80,0,0
86236,-100,4,3,12,80,0,0
87436,-100,4,3,11,80,0,0
89536,-100,4,3,7,80,0,0
89836,-100,4,3,6,70,0,1
89911,-100,4,3,9,70,0,1
92236,-100,4,3,8,70,0,1
92311,-100,4,3,9,70,0,1
94636,-100,4,3,6,70,0,1
94936,-100,4,3,10,70,0,1
98836,-100,4,3,2,60,0,0
99436,-100,4,3,11,80,0,0
100936,-100,4,3,1,80,0,0

[Colours]
Combo1 : 255,149,147
Combo2 : 145,255,206
Combo3 : 254,197,94
Combo4 : 181,66,193

[HitObjects]
115,319,1036,6,0,L|86:172,1,130,2|2,0:0|0:0,0:0:0:0:
283,218,1786,2,0,L|372:202,1,65,2|2,0:0|0:0,0:0:0:0:
231,146,2236,2,0,L|91:135,1,130,2|2,0:0|0:0,0:0:0:0:
256,64,2986,1,2,0:0:0:0:
428,80,3136,5,4,0:0:0:0:
274,77,3436,2,0,P|212:92|127:66,2,130,8|8|8,0:3|0:3|0:3,0:0:0:0:
390,63,4336,1,8,0:3:0:0:
218,300,4636,6,0,P|150:197|261:113,1,260,8|12,0:3|0:0,0:0:0:0:
323,113,5386,1,8,0:0:0:0:
413,123,5536,1,10,0:0:0:0:
152,43,5836,6,0,P|92:61|7:32,1,130,12|8,0:0|0:0,0:0:0:0:
150,143,6286,2,0,P|208:130|282:152,1,130,2|2,0:0|0:0,0:0:0:0:
398,185,6736,1,8,0:0:0:0:
211,282,7036,5,10,0:0:0:0:
74,232,7336,2,0,L|50:150,1,65,2|2,0:0|0:0,0:0:0:0:
123,102,7636,2,0,L|198:74,1,65,2|0,0:0|0:0,0:0:0:0:
331,36,7936,1,0,0:0:0:0:
200,37,8236,6,0,P|163:90|206:147,1,130,2|2,0:0|0:0,0:0:0:0:
286,160,8686,1,0,0:0:0:0:
190,165,8836,2,0,L|104:171,2,65,4|6|0,0:0|0:0|0:0,0:0:0:0:
286,161,9286,1,2,0:0:0:0:
395,328,9586,6,0,L|261:319,1,130,2|2,0:0|0:0,0:0:0:0:
152,250,10036,2,0,L|154:177,1,65,8|2,0:0|0:0,0:0:0:0:
323,139,10336,1,2,0:0:0:0:
176,62,10636,5,2,0:0:0:0:
320,132,10936,2,0,L|396:120,1,65,2|4,0:0|0:0,0:0:0:0:
220,207,11386,2,0,L|168:201,2,32.5,2|2|2,0:0|0:0|0:0,0:0:0:0:
331,228,11686,1,2,0:0:0:0:
447,303,11836,6,0,L|466:167,1,130,0|4,0:0|0:0,0:0:0:0:
284,121,12436,2,0,L|205:121,1,65,8|2,0:0|0:0,0:0:0:0:
376,61,12736,1,6,0:0:0:0:
158,60,13036,5,10,0:3:0:0:
390,118,13486,1,10,0:3:0:0:
78,153,13936,1,10,0:3:0:0:
306,182,14386,1,10,0:3:0:0:
53,326,14836,2,0,L|209:301,1,130,14|14,0:3|0:3,0:0:0:0:
464,352,15436,5,6,0:0:0:0:
256,192,15586,12,6,19936,0:0:0:0:
77,321,20236,6,0,L|59:182,1,130,4|8,0:0|0:0,0:0:0:0:
208,102,20836,2,0,L|302:118,2,65,8|2|8,0:0|0:0|0:0,0:0:0:0:
40,70,21436,2,0,L|175:58,1,130,8|8,0:0|0:0,0:0:0:0:
310,122,22036,2,0,L|303:195,1,65,8|0,0:0|0:0,0:0:0:0:
199,260,22336,2,0,L|195:330,1,65,10|10,0:0|0:0,0:0:0:0:
380,356,22636,6,0,L|436:360,2,32.5,12|0|2,0:0|0:0|0:0,0:0:0:0:
276,343,22936,1,8,0:0:0:0:
368,202,23236,1,8,0:0:0:0:
303,204,23386,1,2,0:0:0:0:
238,207,23536,1,8,0:0:0:0:
116,214,23836,5,8,0:0:0:0:
283,216,23986,1,2,0:0:0:0:
105,334,24286,2,0,L|33:334,1,65,2|10,0:0|0:0,0:0:0:0:
105,334,24586,2,0,L|179:334,1,65,2|10,0:0|0:0,0:0:0:0:
261,334,24886,1,2,0:0:0:0:
426,339,25036,5,4,0:0:0:0:
275,344,25336,1,8,0:0:0:0:
124,339,25636,2,0,L|39:339,2,65,8|2|8,0:0|0:0|0:0,0:0:0:0:
251,231,26236,6,0,L|101:231,1,130,8|10,0:0|0:0,0:0:0:0:
318,341,26836,2,0,L|332:278,1,65,2|0,0:0|0:0,0:0:0:0:
226,219,27136,2,0,L|241:150,1,65,2|2,0:0|0:0,0:0:0:0:
432,103,27436,5,12,0:0:0:0:
262,100,27736,1,8,0:0:0:0:
398,288,28036,1,8,0:0:0:0:
458,231,28186,1,2,0:0:0:0:
408,158,28336,1,8,0:0:0:0:
214,97,28486,5,2,0:0:0:0:
30,231,28936,2,0,L|187:223,2,130,10|8|2,0:0|0:0|0:0,0:0:0:0:
267,341,29836,6,0,P|301:267|221:183,1,195,12|2,0:0|0:0,0:0:0:0:
84,157,30586,2,0,L|240:140,1,130,2|2,0:0|0:0,0:0:0:0:
368,221,31186,2,0,L|443:233,2,65,2|10|2,0:0|0:0|0:0,0:0:0:0:
192,330,31636,2,0,L|171:180,1,130,10|2,0:0|0:0,0:0:0:0:
361,151,32236,6,0,L|417:145,2,32.5,6|0|2,0:0|0:0|0:0,0:0:0:0:
168,58,32686,2,0,L|321:75,1,130,2|2,0:0|0:0,0:0:0:0:
108,258,33286,2,0,L|94:122,1,130,2|2,0:0|0:0,0:0:0:0:
262,55,33886,1,2,0:0:0:0:
313,91,34036,1,2,0:0:0:0:
317,154,34186,1,2,0:0:0:0:
271,198,34336,1,2,0:0:0:0:
200,201,34486,1,2,0:0:0:0:
19,200,34636,5,4,0:0:0:0:
241,267,35086,2,0,L|383:277,1,130,2|2,0:0|0:0,0:0:0:0:
196,85,35686,2,0,L|184:231,1,130,2|2,0:0|0:0,0:0:0:0:
326,180,36286,1,2,0:0:0:0:
213,132,36436,1,2,0:0:0:0:
366,115,36736,1,2,0:0:0:0:
169,159,37036,6,0,L|108:152,2,32.5,12|0|2,0:0|0:0|0:0,0:0:0:0:
268,229,37336,2,0,L|308:224,2,32.5,8|0|2,0:0|0:0|0:0,0:0:0:0:
177,299,37636,2,0,L|88:287,1,65,8|2,0:0|0:0,0:0:0:0:
400,357,38086,6,0,L|417:202,1,130,6|2,0:0|0:0,0:0:0:0:
296,168,38536,2,0,L|146:157,2,130,6|6|6,0:0|0:0|0:0,0:0:0:0:
100,321,39436,6,0,L|80:283,2,32.5,2|2|2,0:0|0:0|0:0,0:0:0:0:
211,229,39736,2,0,L|226:191,2,32.5,2|2|2,0:0|0:0|0:0,0:0:0:0:
88,135,40036,2,0,L|233:120,1,130,2|2,0:0|0:0,0:0:0:0:
401,60,40636,6,0,L|395:196,1,130,2|2,0:0|0:0,0:0:0:0:
214,284,41236,2,0,L|136:289,2,65,4|0|2,0:0|0:0|0:0,0:0:0:0:
476,334,41836,5,4,0:0:0:0:
300,329,42136,1,2,0:0:0:0:
399,220,42586,2,0,L|261:229,2,130,2|2|2,0:0|0:0|0:0,0:0:0:0:
232,168,43486,1,2,0:0:0:0:
83,84,43636,2,0,P|66:147|92:227,1,130,8|2,0:0|0:0,0:0:0:0:
314,268,44236,5,6,0:0:0:0:
134,298,44536,1,2,0:0:0:0:
314,268,44986,2,0,L|462:279,2,130,2|2|2,0:0|0:0|0:0,0:0:0:0:
136,204,45736,2,0,L|63:198,2,65,2|2|10,0:0|0:0|0:0,0:0:0:0:
313,134,46336,1,0,0:0:0:0:
34,69,46636,5,4,0:0:0:0:
208,40,46936,1,10,0:0:0:0:
159,308,47386,2,0,L|7:302,2,130,2|2|2,0:0|0:0|0:0,0:0:0:0:
319,310,48286,1,2,0:0:0:0:
160,220,48436,2,0,P|140:152|176:80,1,130,8|4,0:0|0:0,0:0:0:0:
406,31,49036,6,0,P|446:85|399:134,1,130,2|8,0:0|0:0,0:0:0:0:
303,161,49486,2,0,P|276:198|315:270,1,130,2|2,0:0|0:0,0:0:0:0:
396,280,49936,1,2,0:0:0:0:
208,300,50236,5,2,0:0:0:0:
354,304,50536,1,2,0:0:0:0:
184,301,50836,2,0,L|48:312,1,130,2|0,0:0|0:0,0:0:0:0:
291,233,51436,6,0,L|306:98,1,130,10|0,0:0|0:0,0:0:0:0:
185,54,51886,1,10,0:0:0:0:
29,218,52336,2,0,L|178:209,1,130,10|0,0:0|0:0,0:0:0:0:
262,264,52786,1,10,0:0:0:0:
75,328,53236,1,10,0:0:0:0:
343,359,53536,1,10,0:0:0:0:
233,274,53836,6,0,L|247:118,1,130,10|0,0:0|0:0,0:0:0:0:
365,103,54286,1,10,0:0:0:0:
203,265,54736,2,0,L|57:265,1,130,10|0,0:0|0:0,0:0:0:0:
148,183,55186,1,10,0:0:0:0:
293,186,55636,1,10,0:0:0:0:
87,184,55936,1,10,0:0:0:0:
344,185,56236,6,0,L|473:181,1,130,10|10,0:0|0:0,0:0:0:0:
308,307,56836,2,0,L|174:301,1,130,10|10,0:0|0:0,0:0:0:0:
293,305,57436,2,0,L|288:213,1,86.6666666666667
208,201,57736,2,0,L|98:184,1,86.6666666666667
95,113,58036,1,2,0:0:0:0:
381,78,58336,1,2,0:0:0:0:
231,20,58636,6,0,L|7:32,1,195,10|10,0:0|0:0,0:0:0:0:
203,141,59536,2,0,L|334:127,1,130,10|10,0:0|0:0,0:0:0:0:
155,243,60136,2,0,L|21:254,1,130,0|0,0:0|0:0,0:0:0:0:
154,343,60736,2,0,L|224:334,1,65,10|0,0:0|0:0,0:0:0:0:
408,315,61036,5,6,0:0:0:0:
288,227,61336,2,0,L|295:103,1,86.6666666666667,10|0,0:0|0:0,0:0:0:0:
375,88,61636,1,4,0:0:0:0:
207,65,61936,1,8,0:0:0:0:
375,88,62236,6,0,L|363:194,1,86.6666666666667,6|0,0:0|0:0,0:0:0:0:
276,215,62536,2,0,L|284:324,1,86.6666666666667,10|2,0:0|0:0,0:0:0:0:
372,346,62836,1,6,0:0:0:0:
107,279,63136,1,10,0:0:0:0:
265,149,63436,6,0,L|426:143,2,130,6|10|4,0:0|0:0|0:0,0:0:0:0:
86,162,64336,1,8,0:0:0:0:
352,329,64636,6,0,L|364:208,1,86.6666666666667,6|0,0:0|0:0,0:0:0:0:
284,201,64936,2,0,L|189:180,1,86.6666666666667,10|2,0:0|0:0,0:0:0:0:
112,168,65236,1,4,0:0:0:0:
279,147,65536,1,10,0:0:0:0:
487,139,65836,5,6,0:0:0:0:
331,72,66136,2,0,L|216:78,1,86.6666666666667,10|0,0:0|0:0,0:0:0:0:
188,80,66436,1,6,0:0:0:0:
348,133,66736,1,8,0:0:0:0:
108,273,67036,6,0,L|86:165,1,86.6666666666667,6|2,0:0|0:0,0:0:0:0:
166,147,67336,2,0,L|262:132,1,86.6666666666667,10|2,0:0|0:0,0:0:0:0:
166,147,67636,1,6,0:0:0:0:
329,191,67936,1,10,0:0:0:0:
165,149,68236,6,0,L|34:159,2,130,6|10|6,0:0|0:0|0:0,0:0:0:0:
270,188,69036,2,0,L|351:192,1,43.3333333333333,0|8,0:0|0:0,0:0:0:0:
109,320,69436,6,0,L|88:162,1,130,6|10,0:0|0:0,0:0:0:0:
274,172,70036,2,0,L|398:158,1,86.6666666666667,6|2,0:0|0:0,0:0:0:0:
416,154,70336,1,8,0:0:0:0:
171,89,70636,5,4,0:0:0:0:
278,144,70836,2,0,L|266:217,1,43.3333333333333,2|8,0:0|0:0,0:0:0:0:
157,231,71136,2,0,L|166:295,1,43.3333333333333,2|4,0:0|0:0,0:0:0:0:
334,336,71536,1,8,0:0:0:0:
81,339,71836,5,4,0:0:0:0:
189,283,72036,2,0,L|216:224,1,43.3333333333333,2|8,0:0|0:0,0:0:0:0:
316,192,72336,2,0,L|307:112,1,43.3333333333333,2|4,0:0|0:0,0:0:0:0:
199,101,72636,2,0,L|145:87,1,43.3333333333333,2|8,0:0|0:0,0:0:0:0:
382,48,73036,6,0,L|235:52,2,130,4|8|4,0:0|0:0|0:0,0:0:0:0:
479,111,73836,2,0,L|467:159,1,43.3333333333333,2|8,0:0|0:0,0:0:0:0:
327,213,74236,6,0,L|169:222,2,130,4|8|4,0:0|0:0|0:0,0:0:0:0:
506,184,75136,1,8,0:0:0:0:
262,103,75436,5,4,0:0:0:0:
402,169,75736,2,0,L|386:297,1,86.6666666666667,8|2,0:0|0:0,0:0:0:0:
336,280,76036,1,4,0:0:0:0:
197,288,76236,2,0,L|143:288,1,43.3333333333333,2|8,0:0|0:0,0:0:0:0:
345,336,76636,6,0,L|357:212,1,86.6666666666667,4|2,0:0|0:0,0:0:0:0:
300,220,76936,2,0,L|197:200,1,86.6666666666667,8|2,0:0|0:0,0:0:0:0:
155,191,77236,1,4,0:0:0:0:
318,165,77536,1,8,0:0:0:0:
83,303,77836,6,0,L|66:154,1,130,4|12,0:0|0:0,0:0:0:0:
246,181,78436,2,0,L|362:167,1,86.6666666666667,4|4,0:0|0:0,0:0:0:0:
392,161,78736,1,8,0:0:0:0:
213,91,78936,5,6,0:0:0:0:
439,178,79336,2,0,L|272:187,1,130,2|2,0:0|0:0,0:0:0:0:
132,230,79936,2,0,L|245:247,1,86.6666666666667,0|0,0:0|0:0,0:0:0:0:
310,260,80236,5,10,0:0:0:0:
120,287,80686,1,10,0:0:0:0:
352,259,81136,2,0,P|259:225|160:269,1,195,10|10,0:0|0:0,0:0:0:0:
439,272,82036,1,10,0:0:0:0:
164,278,82336,1,10,0:0:0:0:
276,280,82636,5,10,0:0:0:0:
476,289,83086,1,10,0:0:0:0:
247,272,83536,2,0,P|341:308|437:264,1,195,10|10,0:0|0:0,0:0:0:0:
175,281,84436,1,10,0:0:0:0:
443,280,84736,1,10,0:0:0:0:
303,221,85036,6,0,L|281:78,1,130,10|10,0:0|0:0,0:0:0:0:
458,199,85636,2,0,L|305:221,1,130,10|10,0:0|0:0,0:0:0:0:
154,343,86236,2,0,L|140:245,1,86.6666666666667
230,223,86536,2,0,L|241:121,1,86.6666666666667
149,99,86836,1,2,0:0:0:0:
429,79,87136,1,2,0:0:0:0:
298,75,87436,5,8,0:0:0:0:
112,70,87886,1,8,0:0:0:0:
304,71,88336,1,8,0:0:0:0:
61,66,88636,5,8,0:0:0:0:
214,304,89536,2,0,L|134:305,1,65,2|0,0:0|0:0,0:0:0:0:
36,333,89836,5,4,0:0:0:0:
266,347,90136,1,2,0:0:0:0:
113,219,90586,2,0,L|251:228,2,130,2|2|2,0:0|0:0|0:0,0:0:0:0:
280,167,91486,1,2,0:0:0:0:
429,83,91636,2,0,L|420:226,1,130,8|2,0:0|0:0,0:0:0:0:
238,264,92236,5,14,0:0:0:0:
431,295,92536,1,2,0:0:0:0:
238,264,92986,2,0,L|90:275,2,130,2|2|2,0:0|0:0|0:0,0:0:0:0:
353,203,93736,2,0,L|426:197,2,65,2|2|2,0:0|0:0|0:0,0:0:0:0:
199,133,94336,1,0,0:0:0:0:
448,67,94636,5,6,0:0:0:0:
275,82,94936,1,10,0:0:0:0:
353,307,95386,2,0,L|505:301,2,130,2|2|2,0:0|0:0|0:0,0:0:0:0:
193,309,96286,1,2,0:0:0:0:
352,219,96436,2,0,P|372:154|340:70,1,130,2|2,0:0|0:0,0:0:0:0:
106,30,97036,6,0,P|66:84|113:133,1,130,10|8,0:0|0:0,0:0:0:0:
209,160,97486,2,0,P|236:197|197:269,1,130,2|2,0:0|0:0,0:0:0:0:
118,274,97936,1,2,0:0:0:0:
355,295,98236,5,2,0:0:0:0:
200,302,98536,1,2,0:0:0:0:
355,295,98836,2,0,L|491:306,1,130,2|2,0:0|0:0,0:0:0:0:
216,169,99436,6,0,L|16:182,1,195,10|10,0:0|0:0,0:0:0:0:
251,243,100336,2,0,L|103:255,1,130,10|10,0:0|0:0,0:0:0:0:
288,296,100936,1,0,0:0:0:0:
22,200,101236,5,0,0:0:0:0:
